VERSION	0.00.00	1.04.00
FES_MODE	0
BPM_DEF	186.000	186.000	186.000	186.000
MET_DEF	4	4
RESOLUTION	384
CLK_DEF	384
COMPATIBLE_CODE	MA2

BPM	0	0	186.000
MET	0	0	4	4

NMTAP	1	240	2
NMTAP	1	288	4
NMTAP	1	336	6
NMHLD	2	0	0	144
NMTAP	2	144	3
NMTAP	2	192	3
NMSTR	2	288	5
NMSCR	2	288	5	96	144	1
NMHLD	3	0	2	240
NMTAP	3	240	7
NMSTR	3	288	7
NMSCL	3	288	7	96	144	3
NMTAP	4	0	1
NMTAP	4	144	0
NMSTR	4	192	0
NMSSL	4	192	0	96	192	4
NMTAP	5	192	5
NMTAP	5	288	3
NMTAP	5	336	1
NMHLD	6	0	7	144
NMTAP	6	144	4
NMTAP	6	192	4
NMSTR	6	288	2
NMSCL	6	288	2	96	144	6
NMHLD	7	0	5	240
NMTAP	7	240	0
NMHLD	7	288	0	96
NMTAP	8	0	4
NMTAP	8	96	7
NMTTP	8	144	0	B	0	M1
NMTTP	8	144	0	A	0	M1
NMTTP	8	144	1	B	0	M1
NMTTP	8	144	1	E	0	M1
NMTTP	8	144	1	A	0	M1
NMTTP	8	144	1	D	1	M1
NMTTP	8	240	6	B	0	M1
NMTTP	8	240	6	A	0	M1
NMTTP	8	240	7	B	0	M1
NMTTP	8	240	7	E	0	M1
NMTTP	8	240	7	A	0	M1
NMTTP	8	240	7	D	1	M1
NMTTP	8	336	3	B	0	M1
NMTTP	8	336	3	A	0	M1
NMTTP	8	336	4	B	0	M1
NMTTP	8	336	4	E	0	M1
NMTTP	8	336	4	A	0	M1
NMTTP	8	336	4	D	1	M1
EXTAP	9	48	1
EXTAP	9	48	7
EXSTR	9	96	1
NMSI_	9	96	1	96	48	3
EXTAP	9	96	7
NMTAP	9	192	1
NMSTR	9	192	5
NMSI_	9	192	5	96	48	7
NMSTR	9	288	4
NMSI_	9	288	4	96	48	0
NMTAP	9	288	5
NMTAP	10	0	4
NMSTR	10	0	6
NMSI_	10	0	6	96	48	2
NMTAP	10	96	1
NMTAP	10	144	0
CNSI_	10	144	2	0	48	4
NMHLD	10	192	0	96
NMSTR	10	288	3
NMSI_	10	288	3	96	48	7
NMTAP	11	0	1
NMTAP	11	0	3
NMSTR	11	96	6
NMSI_	11	96	6	96	48	4
NMSTR	11	192	2
NMSI_	11	192	2	96	48	0
NMTAP	11	192	6
NMTAP	11	288	2
NMSTR	11	288	3
NMSI_	11	288	3	96	48	7
NMSTR	12	0	1
NMSI_	12	0	1	96	48	5
NMTAP	12	0	3
NMTAP	12	96	5
CNSI_	12	144	5	0	48	3
NMTAP	12	144	6
NMSTR	12	192	7
NMSI_	12	192	7	96	48	4
NMSTR	12	240	7
NMSLR	12	240	7	96	96	3
NMSTR	13	96	6
NMSI_	13	96	6	96	48	4
NMSTR	13	192	2
NMSI_	13	192	2	96	48	0
NMTAP	13	192	6
NMTAP	13	288	2
NMSTR	13	288	3
NMSI_	13	288	3	96	48	7
NMSTR	14	0	1
NMSI_	14	0	1	96	48	5
NMTAP	14	0	3
NMTAP	14	96	6
CNSI_	14	144	5	0	48	3
NMTAP	14	144	7
NMHLD	14	192	7	96
NMSTR	14	288	4
NMSI_	14	288	4	96	48	0
NMTAP	15	0	4
NMTAP	15	0	6
NMSTR	15	96	1
NMSI_	15	96	1	96	48	3
NMTAP	15	192	1
NMSTR	15	192	5
NMSI_	15	192	5	96	48	7
NMSTR	15	288	4
NMSI_	15	288	4	96	48	0
NMTAP	15	288	5
NMTAP	16	0	4
NMSTR	16	0	6
NMSI_	16	0	6	96	48	2
NMTAP	16	96	2
NMTAP	16	144	1
CNSI_	16	144	2	0	48	4
NMSTR	16	192	0
NMSI_	16	192	0	96	48	3
NMSTR	16	240	0
NMSLL	16	240	0	96	96	4
NMTAP	17	48	2
NMTAP	17	96	2
NMTTP	17	192	5	E	0	M1
NMTTP	17	240	4	E	0	M1
NMTTP	17	288	3	E	0	M1
NMHLD	18	0	0	192
NMTAP	18	192	3
NMTAP	18	264	4
NMTAP	18	336	5
NMHLD	19	0	5	192
NMTAP	19	192	3
NMTAP	19	240	3
NMTAP	19	288	7
NMHLD	19	336	7	96
NMSTR	20	48	4
NMSI_	20	48	4	96	72	0
NMTAP	20	96	4
CNSI_	20	216	0	0	72	3
CNSI_	20	288	3	0	48	1
NMSTR	21	96	1
NMSI_	21	96	1	96	48	6
NMTAP	21	144	1
CNSI_	21	240	6	0	48	2
NMHLD	22	0	7	144
NMTAP	22	144	4
NMTAP	22	192	4
NMTAP	22	264	3
NMTAP	22	336	2
NMHLD	23	0	2	144
NMTAP	23	144	4
NMTAP	23	192	4
NMTAP	23	264	1
NMTAP	23	336	0
NMHLD	24	0	0	96
NMSTR	24	96	3
NMSI_	24	96	3	96	72	7
CNSI_	24	264	7	0	72	4
CNSI_	24	336	4	0	48	6
NMTAP	25	96	3
NMHLD	25	96	6	96
NMSTR	25	192	4
NMSI_	25	192	4	96	48	0
NMTAP	25	216	5
NMTAP	25	240	4
NMTAP	25	264	5
NMTAP	26	0	6
NMTAP	26	48	1
NMSTR	26	48	7
NMSUL	26	48	7	96	48	3
NMTAP	26	144	3
NMSTR	26	192	2
NMSCL	26	192	2	96	96	7
NMSTR	26	288	7
NMSI_	26	288	7	96	96	3
NMSTR	27	0	3
NMSCR	27	0	3	96	96	6
NMSTR	27	96	6
NMSI_	27	96	6	96	96	2
NMTAP	27	192	2
NMTAP	27	288	5
NMTAP	27	336	5
NMTAP	28	0	1
NMSTR	28	48	0
NMSUR	28	48	0	96	48	4
NMTAP	28	144	4
NMSTR	28	192	5
NMSCR	28	192	5	96	96	0
NMSTR	28	288	0
NMSI_	28	288	0	96	96	4
NMSTR	29	0	4
NMSCL	29	0	4	96	96	1
NMSTR	29	96	1
NMSI_	29	96	1	96	96	5
NMTAP	29	192	5
NMSTR	29	288	0
NMSF_	29	288	0	96	48	4
NMTAP	30	0	0
NMTAP	30	144	6
NMSTR	30	192	7
NMSXR	30	192	7	96	96	7
NMTAP	30	264	2
NMTAP	30	336	0
NMHLD	31	0	0	96
NMSTR	31	96	3
NMSI_	31	96	3	96	48	6
NMSTR	31	192	3
NMSI_	31	192	3	96	48	0
NMSTR	31	288	3
NMSI_	31	288	3	96	48	7
NMSTR	32	0	3
BRSCL	32	0	3	96	192	4
NMTTP	32	96	0	C	1	M1
NMTAP	33	0	6
NMTAP	33	48	6
NMTAP	33	96	4
NMTAP	33	96	5
NMTAP	33	192	2
NMTAP	33	216	3
NMTAP	33	240	2
NMTAP	33	264	3
BRTAP	33	288	1
NMTAP	34	0	1
NMTAP	34	0	4
NMTAP	34	72	0
NMTAP	34	72	7
NMTAP	34	144	3
NMTAP	34	144	6
NMTAP	34	192	4
NMTAP	34	216	5
NMTAP	34	240	4
NMTAP	34	264	5
NMTAP	34	288	3
NMTAP	34	312	4
NMTAP	34	336	2
NMTAP	34	360	3
NMSTR	35	0	1
NMSI_	35	0	1	96	48	4
NMTAP	35	96	5
NMTAP	35	144	5
NMTAP	35	192	3
NMTAP	35	240	3
NMTAP	35	288	2
NMTAP	35	288	6
NMHLD	36	0	1	96
NMTAP	36	96	3
NMHLD	36	144	5	96
NMTAP	36	240	3
NMTAP	36	288	1
NMTAP	37	0	1
NMTAP	37	0	3
NMTAP	37	48	2
NMTAP	37	96	4
NMTAP	37	96	6
NMTAP	37	144	5
NMTAP	37	192	2
NMTAP	37	192	4
NMTAP	37	240	1
NMTAP	37	264	3
NMTAP	37	288	1
NMTAP	37	312	3
NMTAP	37	336	1
NMTAP	37	360	3
NMTAP	38	0	1
NMTAP	38	72	0
NMTAP	38	72	7
NMTAP	38	144	3
NMTAP	38	144	6
NMTAP	38	192	4
NMTAP	38	216	5
NMTAP	38	240	4
NMTAP	38	264	5
NMTAP	38	288	3
NMTAP	38	312	4
NMTAP	38	336	2
NMTAP	38	360	3
NMTAP	39	0	1
NMTAP	39	96	0
NMTAP	39	144	2
NMTAP	39	144	3
NMTAP	39	240	7
NMTAP	39	288	4
NMTAP	39	288	5
NMTAP	40	0	0
NMTAP	40	0	7
NMTAP	40	96	3
NMTAP	40	144	0
NMTAP	40	144	1
NMTAP	40	240	4
NMTAP	40	288	6
NMTAP	40	288	7
NMTAP	41	0	4
NMTAP	41	0	6
NMTAP	41	72	0
NMTAP	41	72	7
NMTAP	41	144	1
NMSTR	41	144	3
NMSI_	41	144	3	96	48	1
NMTAP	41	192	1
NMHLD	41	192	3	288
CNSI_	41	288	1	0	48	6
EXTAP	42	0	5
EXTAP	42	96	5
NMTAP	42	192	0
NMTAP	42	216	1
NMTAP	42	240	2
NMTAP	42	264	3
NMSTR	42	288	4
NMSI_	42	288	4	96	48	0
NMTAP	42	312	5
NMTAP	42	336	6
NMTAP	42	360	7
NMSTR	43	0	0
BRSF_	43	0	0	96	48	4
EXTAP	43	96	0
NMTAP	43	192	2
NMTAP	43	192	6
NMTAP	43	240	2
NMTAP	43	240	6
NMTAP	43	288	3
NMSTR	43	288	5
NMSCR	43	288	5	96	96	2
NMTAP	44	0	4
CNSCL	44	96	2	0	96	5
NMTAP	44	96	4
NMTAP	44	192	2
NMTAP	44	240	1
NMTAP	44	288	0
NMTAP	44	336	7
NMTAP	45	0	6
NMSTR	45	48	5
NMSI_	45	48	5	96	48	7
NMTAP	45	96	4
NMTAP	45	144	3
NMTAP	45	192	2
CNSI_	45	192	7	0	48	3
NMSTR	45	240	1
NMSI_	45	240	1	96	48	6
NMTAP	45	288	0
NMSTR	45	336	7
NMSI_	45	336	7	96	48	3
NMTAP	46	48	4
NMSTR	46	96	4
NMSI_	46	96	4	96	48	1
NMSI_	46	96	4	96	48	7
NMTAP	46	288	6
NMTAP	46	336	5
NMSTR	47	0	4
NMSCR	47	0	4	96	48	0
NMTAP	47	96	2
NMTAP	47	144	3
NMSTR	47	192	4
NMSCL	47	192	4	96	48	0
NMTAP	47	288	6
NMTAP	47	336	5
NMSTR	48	0	4
NMSCR	48	0	4	96	48	0
NMTAP	48	96	2
NMTAP	48	144	3
NMSTR	48	192	4
NMSCL	48	192	4	96	48	0
NMTAP	48	288	6
NMTAP	48	336	5
NMSTR	49	0	4
NMSI_	49	0	4	96	48	7
NMTAP	49	96	2
NMHLD	49	144	3	96
NMSTR	49	240	0
NMSI_	49	240	0	96	48	5
NMSTR	49	336	0
NMSI_	49	336	0	96	48	3
NMSTR	50	48	0
NMSI_	50	48	0	96	48	4
NMTAP	50	144	0
NMTAP	50	240	2
NMTAP	50	240	6
NMTAP	50	288	2
NMSTR	50	288	6
NMSCR	50	288	6	96	48	1
NMSTR	51	0	3
NMSI_	51	0	3	96	48	0
NMTAP	51	96	0
CNSI_	51	144	0	0	48	4
NMTAP	51	144	7
NMTAP	51	192	6
NMTAP	51	240	5
EXSTR	51	288	4
NMSCR	51	288	4	96	96	1
NMTAP	51	336	3
NMTAP	52	0	2
CNSCL	52	96	1	0	96	4
NMTAP	52	96	2
NMTAP	52	192	3
NMTAP	52	240	2
NMTAP	52	288	1
NMTAP	52	336	0
NMSTR	53	0	7
NMSI_	53	0	7	96	48	4
NMTAP	53	144	3
CNSI_	53	144	4	0	48	0
NMTAP	53	192	2
NMSTR	53	240	2
NMSI_	53	240	2	96	48	5
BRTAP	53	336	2
NMSTR	53	336	6
NMSI_	53	336	6	96	48	1
NMSTR	54	48	3
NMSI_	54	48	3	96	48	0
BRTAP	54	48	6
BRTAP	54	144	3
NMSTR	54	144	7
NMSI_	54	144	7	96	48	4
NMSTR	54	240	1
NMSCL	54	240	1	96	144	3
BRTAP	54	240	7
NMTTP	54	336	0	C	1	M1
BRTAP	54	336	1
NMTAP	55	96	7
NMTAP	55	192	1
NMTAP	55	192	7
NMTAP	55	240	2
NMTAP	55	240	6
NMSTR	55	288	3
NMSLL	55	288	3	96	96	7
NMTAP	55	288	5
NMSTR	56	0	7
NMSLL	56	0	7	96	96	3
NMTAP	56	96	3
NMTAP	56	192	7
NMSTR	56	288	1
NMSI_	56	288	1	96	48	5
NMTAP	56	288	5
NMTAP	57	0	6
NMTAP	57	96	6
NMSTR	57	144	7
NMSI_	57	144	7	96	48	2
NMSI_	57	144	7	96	48	4
NMSTR	57	240	7
NMSI_	57	240	7	96	48	3
NMTAP	57	336	1
NMTAP	58	48	1
NMSTR	58	96	0
NMSCL	58	96	0	96	48	5
NMSCR	58	96	0	96	48	3
NMSTR	58	192	0
NMSI_	58	192	0	96	48	4
NMSTR	58	288	0
NMSCR	58	288	0	96	192	7
NMTTP	59	0	5	B	0	M1
NMTTP	59	0	6	B	0	M1
NMTTP	59	0	6	E	1	M1
EXTAP	59	288	0
EXTAP	59	288	7
NMTAP	60	0	3
NMTAP	60	0	6
NMSTR	60	96	1
NMSCR	60	96	1	96	48	3
NMTAP	60	96	4
NMTAP	60	192	1
NMSTR	60	192	5
NMSCR	60	192	5	96	48	7
NMSTR	60	288	4
NMSI_	60	288	4	96	48	0
NMTAP	60	288	5
NMTAP	61	0	4
NMSTR	61	0	6
NMSI_	61	0	6	96	48	2
NMTAP	61	96	2
NMTAP	61	144	1
CNSI_	61	144	2	0	48	4
NMSTR	61	192	0
NMSCR	61	192	0	96	48	3
NMSTR	61	240	0
NMSXR	61	240	0	96	144	4
NMSTR	62	96	1
NMSCR	62	96	1	96	48	3
NMTAP	62	192	1
NMSTR	62	192	5
NMSCR	62	192	5	96	48	7
NMSTR	62	288	4
NMSI_	62	288	4	96	48	0
NMTAP	62	288	5
NMTAP	63	0	4
NMSTR	63	0	6
NMSI_	63	0	6	96	48	2
NMTAP	63	96	1
NMTAP	63	144	0
CNSI_	63	144	2	0	48	4
NMHLD	63	192	0	96
NMSTR	63	288	3
NMSI_	63	288	3	96	48	7
NMTAP	64	0	1
NMTAP	64	0	3
NMSTR	64	96	6
NMSCL	64	96	6	96	48	4
NMSTR	64	192	2
NMSCL	64	192	2	96	48	0
NMTAP	64	192	6
NMTAP	64	288	2
NMSTR	64	288	3
NMSI_	64	288	3	96	48	7
NMSTR	65	0	1
NMSI_	65	0	1	96	48	5
NMTAP	65	0	3
NMTAP	65	96	5
CNSI_	65	144	5	0	48	3
NMTAP	65	144	6
NMSTR	65	192	7
NMSCL	65	192	7	96	48	4
NMSTR	65	240	7
NMSXL	65	240	7	96	144	3
NMSTR	66	288	0
NMSI_	66	288	0	96	48	4
NMTTP	67	0	0	A	1	M1
NMHLD	67	0	6	384
NMHLD	68	0	4	240
NMTAP	68	240	5
NMTAP	68	288	4
NMTAP	68	336	3
NMTAP	69	0	2
NMTAP	69	48	3
NMTAP	69	96	4
NMTAP	69	144	5
NMTAP	69	192	4
NMTAP	69	240	3
NMTAP	69	288	2
NMHLD	69	336	1	96
NMTAP	70	48	3
NMTAP	70	96	3
NMTAP	70	144	2
NMTAP	70	192	2
NMTAP	70	240	3
NMTAP	70	288	4
NMTAP	70	336	5
NMHLD	71	0	5	288
NMTAP	71	96	4
NMTAP	71	144	4
NMTAP	71	192	4
NMTAP	71	240	4
NMTAP	71	288	4
NMTAP	71	336	3
NMHLD	72	0	2	192
NMTAP	72	96	3
NMTAP	72	144	3
NMSTR	72	192	3
NMSI_	72	192	3	96	96	0
NMTAP	72	240	3
CNSI_	73	0	0	0	48	4
CNSI_	73	48	4	0	48	7
CNSI_	73	96	7	0	48	5
EXSTR	73	144	0
NMSI_	73	144	0	96	48	3
CNSI_	73	144	5	0	48	2
NMSTR	73	240	0
NMSI_	73	240	0	96	48	5
NMTAP	73	336	0
NMSTR	73	336	4
NMSI_	73	336	4	96	48	1
NMSTR	74	48	4
NMSI_	74	48	4	96	48	7
NMSTR	74	144	4
NMSI_	74	144	4	96	48	0
NMSTR	74	240	4
BRSCL	74	240	4	96	240	5
BXHLD	74	336	4	528
NMTAP	76	0	5
NMTAP	76	96	5
NMTAP	76	192	3
NMTAP	76	216	2
NMTAP	76	240	1
NMTAP	76	264	0
NMSTR	76	288	7
NMSI_	76	288	7	96	48	3
NMTAP	76	312	6
NMTAP	76	336	5
NMTAP	76	360	4
NMSTR	77	0	3
BRSF_	77	0	3	96	48	7
EXTAP	77	96	3
NMTAP	77	192	1
NMTAP	77	192	5
NMTAP	77	240	1
NMTAP	77	240	5
NMTAP	77	288	0
NMSTR	77	288	6
NMSCL	77	288	6	96	96	1
NMTAP	78	0	7
CNSCR	78	96	1	0	96	6
NMTAP	78	96	7
NMTAP	78	192	1
NMTAP	78	240	2
NMTAP	78	288	3
NMTAP	78	336	4
NMTAP	79	0	5
NMSTR	79	48	6
NMSI_	79	48	6	96	48	4
NMTAP	79	96	7
NMTAP	79	144	0
NMTAP	79	192	1
CNSI_	79	192	4	0	48	0
NMSTR	79	240	2
NMSI_	79	240	2	96	48	7
NMTAP	79	288	3
NMSTR	79	336	4
NMSI_	79	336	4	96	48	7
NMTAP	80	48	0
NMSTR	80	96	0
NMSI_	80	96	0	96	48	3
NMSI_	80	96	0	96	48	5
NMTAP	80	288	2
NMTAP	80	336	1
NMSTR	81	0	0
NMSCR	81	0	0	96	48	4
NMTAP	81	96	6
NMTAP	81	144	7
NMSTR	81	192	0
NMSCL	81	192	0	96	48	4
NMTAP	81	288	2
NMTAP	81	336	1
NMSTR	82	0	0
NMSCR	82	0	0	96	48	4
NMTAP	82	96	6
NMTAP	82	144	7
NMSTR	82	192	0
NMSCL	82	192	0	96	48	4
NMTAP	82	288	2
NMTAP	82	336	1
NMSTR	83	0	0
NMSI_	83	0	0	96	48	3
NMTAP	83	96	6
NMHLD	83	144	7	96
NMSTR	83	240	4
NMSI_	83	240	4	96	48	1
NMSTR	83	336	4
NMSI_	83	336	4	96	48	7
NMSTR	84	48	4
NMSI_	84	48	4	96	48	0
NMTAP	84	144	4
NMTAP	84	240	2
NMTAP	84	240	6
NMSTR	84	288	2
NMSCR	84	288	2	96	48	5
NMTAP	84	288	6
NMSTR	85	0	7
NMSI_	85	0	7	96	48	4
NMTAP	85	96	4
NMTAP	85	144	3
CNSI_	85	144	4	0	48	0
NMTAP	85	192	2
NMTAP	85	240	1
EXSTR	85	288	0
NMSCR	85	288	0	96	96	5
NMTAP	85	336	7
NMTAP	86	0	6
CNSCL	86	96	5	0	96	0
NMTAP	86	96	6
NMTAP	86	192	7
NMTAP	86	240	6
NMTAP	86	288	5
NMTAP	86	336	4
NMSTR	87	0	3
NMSI_	87	0	3	96	48	0
CNSI_	87	144	0	0	48	4
NMTAP	87	144	7
NMTAP	87	192	6
NMSTR	87	240	6
NMSI_	87	240	6	96	48	1
NMSTR	87	336	2
NMSI_	87	336	2	96	48	5
BRTAP	87	336	6
BRTAP	88	48	2
NMSTR	88	48	7
NMSI_	88	48	7	96	48	4
NMSTR	88	144	3
NMSI_	88	144	3	96	48	0
BRTAP	88	144	7
BRTAP	88	240	3
NMSTR	88	240	5
NMSCR	88	240	5	96	144	3
NMTTP	88	336	0	C	1	M1
BRTAP	88	336	5
NMTAP	89	96	7
NMTAP	89	192	2
NMTAP	89	192	4
NMTAP	89	240	1
NMTAP	89	240	5
NMSTR	89	288	0
NMSLR	89	288	0	96	96	4
NMTAP	89	288	6
NMSTR	90	0	4
NMSLR	90	0	4	96	96	0
NMTAP	90	96	0
NMTAP	90	192	4
NMSTR	90	288	2
NMSI_	90	288	2	96	48	6
NMTAP	90	288	6
NMTAP	91	0	5
NMTAP	91	96	5
NMSTR	91	144	4
NMSI_	91	144	4	96	48	1
NMSI_	91	144	4	96	48	7
NMSTR	91	240	4
NMSI_	91	240	4	96	48	0
NMTAP	91	336	2
NMTAP	92	48	2
NMSTR	92	96	3
NMSCL	92	96	3	96	48	0
NMSCR	92	96	3	96	48	6
NMSTR	92	192	3
NMSI_	92	192	3	96	48	7
NMTAP	92	288	3
NMSTR	92	288	5
NMSI_	92	288	5	96	48	1
NMTAP	93	0	2
NMTAP	93	96	2
NMSTR	93	144	3
NMSI_	93	144	3	96	48	0
NMSTR	93	240	3
NMSI_	93	240	3	96	48	6
NMTAP	93	240	5
NMTAP	93	336	1
NMSTR	93	336	3
NMSI_	93	336	3	96	48	7
NMSTR	94	48	3
NMSCR	94	48	3	96	48	6
NMTAP	94	48	5
NMTAP	94	144	1
NMSTR	94	144	3
NMSCL	94	144	3	96	48	0
NMSTR	94	240	3
NMSUR	94	240	3	96	240	4
NMTAP	94	240	5
NMTTP	94	336	0	C	1	M1
CNSCR	95	192	4	0	240	2
NMTTP	96	192	4	B	0	M1
NMTTP	96	192	4	A	0	M1
NMTTP	96	192	5	B	0	M1
NMTTP	96	192	5	E	0	M1
NMTTP	96	192	5	A	0	M1
NMTTP	96	192	5	D	0	M1
NMTTP	96	240	2	B	0	M1
NMTTP	96	240	2	A	0	M1
NMTTP	96	240	3	B	0	M1
NMTTP	96	240	3	E	0	M1
NMTTP	96	240	3	A	0	M1
NMTTP	96	240	3	D	0	M1
NMSTR	97	0	7
NMSI_	97	0	7	96	48	3
NMTAP	97	96	3
NMTAP	97	96	7
NMSTR	97	144	2
NMSI_	97	144	2	96	48	6
NMTAP	97	240	2
NMTAP	97	240	4
NMSTR	97	288	5
NMSCR	97	288	5	96	192	1
NMTAP	98	0	1
NMTAP	98	48	2
NMTAP	98	96	3
NMTAP	98	144	4
NMTAP	98	192	5
NMTAP	98	288	3
NMSTR	98	288	7
NMSI_	98	288	7	96	48	3
NMTAP	99	0	2
NMTAP	99	0	7
NMTAP	99	48	2
NMTAP	99	96	2
NMTAP	99	144	2
NMTAP	99	192	2
NMTAP	99	192	3
NMSTR	99	240	1
NMSI_	99	240	1	96	48	5
NMTAP	99	240	4
NMTAP	99	336	1
NMSTR	99	336	3
NMSI_	99	336	3	96	48	7
NMSTR	100	48	0
NMSI_	100	48	0	96	48	4
NMTAP	100	48	3
NMTAP	100	144	0
NMSTR	100	144	6
NMSI_	100	144	6	96	48	3
NMTAP	100	240	2
NMTAP	100	240	6
NMTAP	100	336	1
NMTAP	100	360	0
NMTAP	101	0	1
NMTAP	101	24	0
NMTAP	101	48	1
NMTAP	101	72	0
NMTAP	101	96	1
NMTAP	101	120	0
NMTAP	101	144	1
NMTAP	101	168	0
NMTAP	101	192	2
NMTAP	101	216	7
NMTAP	101	240	2
NMTAP	101	264	7
NMTAP	101	288	3
NMTAP	101	312	6
NMTAP	101	336	3
NMTAP	101	360	6
NMTAP	102	0	4
NMTAP	102	24	5
NMTAP	102	48	4
NMTAP	102	72	5
NMTAP	102	96	3
NMTAP	102	120	6
NMTAP	102	144	3
NMTAP	102	168	6
NMSTR	102	192	2
NMSI_	102	192	2	96	48	6
NMTTP	102	288	4	B	1	M1
NMTTP	102	288	4	E	0	M1
NMTTP	102	288	5	E	0	M1
NMSTR	103	0	0
NMSI_	103	0	0	96	48	4
NMSTR	103	0	1
NMSI_	103	0	1	96	48	5
BRTAP	103	96	0
BRTAP	103	96	1
NMTAP	103	192	6
NMSTR	103	240	3
NMSI_	103	240	3	96	48	7
NMTAP	103	240	5
NMTAP	103	288	2
BRTAP	103	336	1
BRTAP	103	336	3
NMTAP	104	48	0
NMTAP	104	96	0
NMTAP	104	192	1
NMTAP	104	216	3
NMTAP	104	240	1
NMTAP	104	264	3
NMTAP	104	288	2
NMTAP	104	312	4
NMTAP	104	336	3
NMTAP	104	360	5
BRSTR	105	0	7
NMSCL	105	0	7	96	672	0
NMSTR	107	96	7
NMSV_	107	96	7	96	192	6
CNSI_	108	0	6	0	192	4
CNSV_	108	192	4	0	192	3
CNSI_	109	0	3	0	192	1
CNSV_	109	192	1	0	384	0
NMTHO	111	0	0	528	C	0	M1

T_REC_TAP	403
T_REC_BRK	15
T_REC_XTP	9
T_REC_BXX	0
T_REC_HLD	26
T_REC_XHO	0
T_REC_BHO	0
T_REC_BXH	1
T_REC_STR	152
T_REC_BST	1
T_REC_XST	4
T_REC_XBS	0
T_REC_TTP	44
T_REC_THO	1
T_REC_SLD	159
T_REC_BSL	4
T_REC_ALL	819
T_NUM_TAP	612
T_NUM_BRK	21
T_NUM_HLD	27
T_NUM_SLD	159
T_NUM_ALL	819
T_JUDGE_TAP	628
T_JUDGE_HLD	107
T_JUDGE_SLD	163
T_JUDGE_ALL	898
TTM_EACHPAIRS	97
TTM_SCR_TAP	306000
TTM_SCR_BRK	54600
TTM_SCR_HLD	27000
TTM_SCR_SLD	238500
TTM_SCR_ALL	626100
TTM_SCR_S	605300
TTM_SCR_SS	624000
TTM_RAT_ACV	10033

