VERSION	0.00.00	1.03.00
FES_MODE	0
BPM_DEF	186.000	186.000	186.000	186.000
MET_DEF	4	4
RESOLUTION	384
CLK_DEF	384
COMPATIBLE_CODE	MA2

BPM	0	0	186.000
MET	0	0	4	4

TTP	2	0	0	C	1	M1
TTP	2	0	2	B	0	M1
TTP	2	0	3	B	0	M1
TTP	2	0	4	B	0	M1
TTP	2	0	5	B	0	M1
TAP	5	192	2
TAP	5	192	5
XTP	5	240	3
XTP	5	264	4
XTP	5	288	3
XTP	5	336	2
XHO	6	0	1	288
TAP	6	96	2
TAP	6	192	3
TAP	6	288	4
HLD	7	0	5	96
TAP	7	96	4
TAP	7	192	3
XTP	7	240	2
XTP	7	240	4
XTP	7	288	2
XTP	7	288	4
TAP	8	0	1
STR	8	48	0
SI_	8	48	0	96	48	4
TAP	8	96	7
XST	8	144	6
SI_	8	144	6	96	48	2
XST	8	240	1
SCL	8	240	1	96	144	4
XTP	8	336	4
XTP	9	192	3
BRK	9	288	2
BRK	9	288	4
STR	10	0	1
SI_	10	0	1	96	48	4
TAP	10	0	5
TAP	10	96	4
TAP	10	192	6
TAP	10	240	5
TAP	10	288	4
STR	10	336	3
SI_	10	336	3	96	48	7
TAP	11	48	5
TAP	11	96	6
TAP	11	192	0
TAP	11	192	6
TAP	11	288	3
TAP	11	288	6
TAP	12	0	2
STR	12	0	6
SI_	12	0	6	96	48	3
TAP	12	96	3
TAP	12	192	1
TAP	12	240	2
TAP	12	288	3
STR	12	336	4
SI_	12	336	4	96	48	0
TAP	13	48	2
TAP	13	96	1
TAP	13	192	0
TAP	13	192	6
TAP	13	288	3
TAP	13	288	6
TAP	14	0	2
STR	14	0	6
SI_	14	0	6	96	48	3
TAP	14	96	3
TAP	14	192	1
TAP	14	240	2
TAP	14	288	3
STR	14	336	4
SI_	14	336	4	96	48	0
TAP	15	48	2
TAP	15	96	1
TAP	15	192	1
TAP	15	192	7
TAP	15	288	1
TAP	15	288	4
STR	16	0	1
SI_	16	0	1	96	48	4
TAP	16	0	5
TAP	16	96	4
TAP	16	192	5
TAP	16	240	4
TAP	16	288	3
TAP	16	336	2
XTP	17	48	1
XTP	17	48	6
XST	17	96	1
SUL	17	96	1	96	192	4
XTP	17	96	6
HLD	18	0	5	384
TAP	18	96	4
TAP	18	192	4
TAP	18	288	4
HLD	19	0	4	384
TAP	19	96	5
TAP	19	192	5
TAP	19	288	5
HLD	20	0	5	672
TTP	20	96	3	B	0	M1
TTP	20	192	2	B	0	M1
TTP	20	288	1	B	0	M1
TTP	21	0	5	B	0	M1
TTP	21	96	6	B	0	M1
TTP	21	192	7	B	0	M1
TTP	21	288	0	C	0	M1
HLD	22	0	2	384
TAP	22	96	3
TAP	22	192	3
TAP	22	288	3
HLD	23	0	3	384
TAP	23	96	2
TAP	23	192	2
TAP	23	288	2
HLD	24	0	2	480
TTP	24	192	0	E	0	M1
TTP	24	240	1	E	0	M1
TTP	24	288	2	E	0	M1
TTP	24	336	3	E	0	M1
TAP	25	96	5
TAP	25	192	2
TAP	25	216	4
TAP	25	240	3
TAP	25	264	4
BRK	25	288	2
TAP	26	0	2
TAP	26	0	4
TAP	26	48	2
TAP	26	48	4
TAP	26	144	1
TAP	26	144	3
TAP	26	192	1
TAP	26	192	3
TAP	26	288	0
TAP	26	288	2
STR	27	0	1
SI_	27	0	1	96	48	3
TAP	27	48	3
TAP	27	96	1
STR	27	192	2
SI_	27	192	2	96	48	4
TAP	27	240	4
TAP	27	288	2
TAP	28	0	5
TAP	28	48	5
TAP	28	144	4
TAP	28	144	6
TAP	28	192	4
TAP	28	192	6
TAP	28	288	5
TAP	28	288	7
STR	29	0	6
SI_	29	0	6	96	48	4
TAP	29	48	4
TAP	29	96	6
STR	29	192	5
SI_	29	192	5	96	48	3
TAP	29	240	3
TAP	29	288	5
STR	30	0	2
SI_	30	0	2	96	48	7
STR	30	192	6
SI_	30	192	6	96	48	4
STR	30	288	7
SI_	30	288	7	96	48	3
STR	31	0	0
SI_	31	0	0	96	24	2
TAP	31	192	4
TAP	31	240	4
TAP	31	288	3
HLD	31	336	5	144
TAP	32	48	4
STR	32	96	4
SF_	32	96	4	96	192	0
XTP	33	96	2
XTP	33	96	6
TAP	33	192	4
TAP	33	216	5
TAP	33	240	4
XTP	33	288	3
XTP	33	288	6
XHO	34	0	3	72
HLD	34	72	4	72
HLD	34	144	5	48
XHO	34	192	4	72
HLD	34	264	5	72
HLD	34	336	6	144
XHO	35	0	5	96
XHO	35	192	3	72
HLD	35	264	2	72
HLD	35	336	1	48
XST	36	0	2
SCR	36	0	2	96	48	4
TAP	36	96	1
XST	36	192	0
SCR	36	192	0	96	48	2
TAP	36	288	4
TAP	37	0	3
TAP	37	0	5
TAP	37	96	1
TAP	37	96	3
TAP	37	192	2
TAP	37	192	4
BRK	37	288	3
BRK	37	288	5
XHO	38	0	4	72
HLD	38	72	3	72
HLD	38	144	2	48
XHO	38	192	3	72
HLD	38	264	2	72
HLD	38	336	1	144
XHO	39	0	2	96
TAP	39	144	3
TAP	39	192	3
XTP	39	264	4
XST	39	288	2
SCL	39	288	2	96	96	7
XTP	39	336	3
XTP	40	0	2
XTP	40	0	4
TAP	40	240	4
TAP	40	240	5
TAP	40	288	3
TAP	40	288	6
TAP	40	336	2
TAP	40	336	7
XTP	41	0	0
XTP	41	0	1
XTP	41	72	4
XTP	41	72	5
XTP	41	144	2
XTP	41	144	3
XST	41	192	2
SI_	41	192	2	96	48	7
XST	41	192	3
SI_	41	192	3	96	48	6
BRK	42	0	0
BRK	42	96	0
TAP	42	192	3
TAP	42	216	5
TAP	42	240	3
TAP	42	264	5
TAP	42	288	3
TAP	42	312	5
TAP	42	336	3
TAP	42	360	5
XTP	43	0	3
TAP	43	96	2
TAP	43	96	6
TAP	43	144	1
TAP	43	168	0
STR	43	192	1
SI_	43	192	1	96	48	4
STR	43	240	4
SI_	43	240	4	96	48	1
STR	43	288	1
SCL	43	288	1	96	96	6
TAP	43	336	6
HLD	44	0	5	96
TAP	44	192	6
TAP	44	240	6
TAP	44	288	5
TAP	44	336	7
HLD	45	0	6	96
TAP	45	96	0
TAP	45	144	6
TAP	45	168	7
STR	45	192	6
SI_	45	192	6	96	48	3
STR	45	240	3
SI_	45	240	3	96	48	6
TAP	45	288	6
HLD	45	336	0	144
STR	46	96	6
SI_	46	96	6	96	48	2
SI_	46	96	6	96	48	4
TAP	46	192	6
TAP	46	288	3
TAP	46	336	4
STR	47	0	5
SCR	47	0	5	96	48	0
TTP	47	96	2	B	0	M1
STR	47	192	4
SCL	47	192	4	96	48	1
TTP	47	288	0	C	0	M1
STR	48	0	6
SCL	48	0	6	96	48	3
TTP	48	96	6	B	0	M1
STR	48	192	0
SI_	48	192	0	96	48	3
TAP	48	240	4
TAP	48	288	5
TAP	48	336	6
HLD	49	0	7	96
TAP	49	96	5
TAP	49	144	4
TAP	49	192	3
STR	49	240	4
SF_	49	240	4	96	144	0
TAP	49	288	5
XTP	49	336	4
TAP	50	192	1
TAP	50	192	5
TAP	50	240	2
TAP	50	264	4
TAP	50	288	2
TAP	50	312	4
TAP	50	336	2
TAP	50	360	4
XTP	51	0	2
TAP	51	96	0
TAP	51	96	5
TAP	51	144	6
TAP	51	168	7
STR	51	192	6
SI_	51	192	6	96	48	3
STR	51	240	3
SI_	51	240	3	96	48	6
STR	51	288	6
SCR	51	288	6	96	96	1
TAP	51	336	1
HLD	52	0	2	96
TAP	52	192	1
TAP	52	240	1
TAP	52	288	2
TAP	52	336	0
HLD	53	0	1	96
TAP	53	96	7
TAP	53	144	1
TAP	53	168	0
TAP	53	192	1
TAP	53	240	2
TAP	53	288	3
STR	53	336	4
SI_	53	336	4	96	48	1
STR	53	336	5
SI_	53	336	5	96	48	0
TAP	54	48	4
TAP	54	48	5
TAP	54	144	2
TAP	54	144	7
STR	54	240	3
SUL	54	240	3	96	192	0
TAP	54	240	6
TAP	54	288	4
TAP	54	288	5
XTP	54	336	3
XHO	54	336	6	192
TAP	55	240	6
TAP	55	288	5
TAP	55	336	4
STR	56	0	3
SCL	56	0	3	96	96	7
STR	56	96	7
SCL	56	96	7	96	96	3
TAP	56	192	3
XTP	56	288	7
TAP	57	0	0
TAP	57	0	6
TAP	57	96	2
TAP	57	96	4
TAP	57	144	2
TAP	57	144	4
STR	57	240	1
SCR	57	240	1	96	48	3
STR	57	240	5
SCR	57	240	5	96	48	7
TAP	57	336	1
TAP	57	336	5
STR	58	96	0
SV_	58	96	0	96	48	5
STR	58	96	4
SV_	58	96	4	96	48	1
TAP	58	192	0
TAP	58	192	4
STR	58	288	0
SCR	58	288	0	96	384	5
TAP	58	288	4
XTP	59	0	0
THO	59	0	0	384	C	1	M1
TAP	60	192	6
TAP	60	288	7
TAP	61	0	0
STR	61	0	6
SI_	61	0	6	96	48	3
TAP	61	96	6
TAP	61	96	7
TAP	61	192	1
TAP	61	240	2
TAP	61	288	3
STR	61	336	4
SI_	61	336	4	96	48	0
TAP	62	48	4
TAP	62	96	1
TAP	62	192	2
TAP	62	192	6
TAP	62	288	3
TAP	62	288	5
STR	63	0	1
SI_	63	0	1	96	48	4
TAP	63	0	7
TAP	63	96	0
TAP	63	96	1
TAP	63	192	6
TAP	63	240	5
TAP	63	288	4
STR	63	336	3
SI_	63	336	3	96	48	7
TAP	64	48	3
TAP	64	96	5
TAP	64	192	0
TAP	64	192	6
TAP	64	288	2
TAP	64	288	4
STR	65	0	1
SI_	65	0	1	96	48	4
TAP	65	0	5
TAP	65	96	0
TAP	65	96	1
TAP	65	192	5
TAP	65	240	3
TAP	65	288	2
HLD	65	336	4	240
TAP	66	48	0
TAP	66	96	1
TAP	66	144	2
TAP	66	192	3
TAP	66	240	4
TAP	66	288	5
TAP	66	336	6
STR	67	0	7
SCL	67	0	7	96	384	2
STR	68	0	2
SUR	68	0	2	96	384	5
STR	69	0	5
SCR	69	0	5	96	384	2
STR	70	0	2
SUR	70	0	2	96	192	7
TAP	70	192	1
XTP	70	240	0
XTP	70	288	0
TAP	71	0	0
STR	71	0	7
SI_	71	0	7	96	192	4
TTP	71	96	1	E	0	M1
TTP	71	192	2	E	0	M1
TTP	71	288	3	E	0	M1
STR	72	0	3
SI_	72	0	3	96	192	0
TTP	72	96	5	E	0	M1
TTP	72	192	6	E	0	M1
TTP	72	288	7	E	0	M1
XTP	73	0	0
XTP	73	0	7
XTP	73	96	1
XTP	73	96	6
XTP	73	144	1
XST	73	144	6
SI_	73	144	6	96	48	2
XST	73	240	0
SI_	73	240	0	96	48	4
XTP	73	240	6
XTP	73	336	0
XST	73	336	7
SI_	73	336	7	96	48	3
XST	74	48	1
SI_	74	48	1	96	48	5
XTP	74	48	7
XTP	74	144	1
XST	74	144	6
SI_	74	144	6	96	48	2
XST	74	240	3
SCL	74	240	3	96	288	4
SUL	74	240	3	96	288	4
BRK	74	336	3
BRK	76	0	7
BRK	76	96	7
TAP	76	192	2
TAP	76	216	4
TAP	76	240	2
TAP	76	264	4
TAP	76	288	2
TAP	76	312	4
TAP	76	336	2
TAP	76	360	4
XTP	77	0	2
TAP	77	96	1
TAP	77	96	5
TAP	77	144	6
TAP	77	168	7
STR	77	192	6
SI_	77	192	6	96	48	3
STR	77	240	3
SI_	77	240	3	96	48	6
STR	77	288	6
SCR	77	288	6	96	96	3
TAP	77	336	2
HLD	78	0	1	96
TAP	78	192	1
TAP	78	240	1
TAP	78	288	3
TAP	78	336	2
HLD	79	0	1	96
TAP	79	96	7
TAP	79	144	1
TAP	79	168	0
STR	79	192	1
SI_	79	192	1	96	48	4
STR	79	240	4
SI_	79	240	4	96	48	1
TAP	79	288	1
HLD	79	336	7	144
STR	80	96	2
SI_	80	96	2	96	48	5
SI_	80	96	2	96	48	7
TAP	80	192	2
TAP	80	288	6
TAP	80	336	7
STR	81	0	0
SCR	81	0	0	96	48	4
TTP	81	96	2	B	0	M1
TTP	81	96	3	B	0	M1
STR	81	192	0
SCL	81	192	0	96	48	4
TTP	81	288	6	B	0	M1
TTP	81	288	7	B	0	M1
STR	82	0	3
SCL	82	0	3	96	48	7
TTP	82	96	3	B	0	M1
TTP	82	96	4	B	0	M1
STR	82	192	5
SCR	82	192	5	96	48	0
TAP	82	240	0
TAP	82	288	1
TAP	82	336	2
HLD	83	0	3	96
TAP	83	96	1
TAP	83	144	2
TAP	83	192	3
STR	83	240	4
SF_	83	240	4	96	144	0
TAP	83	288	5
XTP	83	336	4
TAP	84	192	2
TAP	84	192	6
TAP	84	240	3
TAP	84	264	5
TAP	84	288	3
TAP	84	312	5
TAP	84	336	3
TAP	84	360	5
XTP	85	0	3
TAP	85	96	2
TAP	85	96	6
TAP	85	144	1
TAP	85	168	0
STR	85	192	1
SI_	85	192	1	96	48	4
STR	85	240	4
SI_	85	240	4	96	48	1
STR	85	288	1
SCL	85	288	1	96	96	4
TAP	85	336	5
HLD	86	0	6	96
TAP	86	192	6
TAP	86	240	6
TAP	86	288	4
TAP	86	336	5
HLD	87	0	6	96
TAP	87	96	0
TAP	87	144	5
TAP	87	168	4
TAP	87	192	5
TAP	87	240	3
TAP	87	288	1
STR	87	336	0
SI_	87	336	0	96	48	5
STR	87	336	7
SI_	87	336	7	96	48	5
STR	88	48	0
SI_	88	48	0	96	48	2
STR	88	48	7
SI_	88	48	7	96	48	2
TAP	88	144	0
TAP	88	144	7
TAP	88	240	1
STR	88	240	4
SXL	88	240	4	96	192	7
TAP	88	288	2
TAP	88	288	3
HLD	88	336	1	192
TAP	88	336	4
TAP	89	240	2
TAP	89	288	3
TAP	89	336	4
STR	90	0	5
SCR	90	0	5	96	96	1
STR	90	96	1
SCR	90	96	1	96	96	5
TAP	90	192	5
XTP	90	288	1
TAP	91	0	0
TAP	91	0	6
TAP	91	96	0
TAP	91	96	4
TAP	91	144	0
TAP	91	144	4
STR	91	240	2
SXR	91	240	2	96	48	0
STR	91	240	6
SXR	91	240	6	96	48	4
TAP	91	336	2
TAP	91	336	6
XTP	92	96	1
XTP	92	96	5
XTP	92	192	3
TAP	92	216	5
TAP	92	240	4
TAP	92	264	5
XTP	92	288	3
TAP	92	312	5
TAP	92	336	4
TAP	92	360	5
XTP	93	0	3
XTP	93	96	3
XTP	93	96	6
XTP	93	144	3
XST	93	144	6
SI_	93	144	6	96	48	2
XST	93	240	0
SI_	93	240	0	96	48	4
XTP	93	240	6
XTP	93	336	0
XST	93	336	5
SI_	93	336	5	96	48	0
XST	94	48	2
SI_	94	48	2	96	48	7
XTP	94	48	5
XTP	94	144	2
XST	94	144	4
SI_	94	144	4	96	48	7
XST	94	240	3
SCL	94	240	3	96	528	4
XTP	94	240	4
THO	94	336	0	528	C	0	M1
BRK	94	336	3
BRK	96	192	1
BRK	96	192	6
BRK	96	240	1
BRK	96	240	6
HLD	97	0	7	96
TAP	97	96	3
HLD	97	144	7	96
TAP	97	240	4
HLD	97	288	7	96
TAP	98	0	5
TAP	98	48	6
TAP	98	96	5
HLD	98	144	4	144
XTP	98	240	5
XTP	98	288	5
TAP	99	0	2
TAP	99	0	3
TAP	99	96	5
TAP	99	96	6
TAP	99	192	1
TAP	99	192	7
STR	99	240	1
SI_	99	240	1	96	48	4
STR	99	240	7
SI_	99	240	7	96	48	4
TAP	99	336	1
TAP	99	336	7
STR	100	48	0
SI_	100	48	0	96	48	3
STR	100	48	6
SI_	100	48	6	96	48	3
TAP	100	144	0
TAP	100	144	6
TAP	100	240	4
TAP	100	240	5
BRK	100	336	3
BRK	100	336	6
XTP	101	48	4
TAP	101	72	5
TAP	101	96	4
TAP	101	120	5
TAP	101	144	4
TAP	101	168	5
XHO	101	192	3	72
XHO	101	264	2	72
XHO	101	336	1	48
XTP	102	0	3
TAP	102	24	2
TAP	102	48	3
XHO	102	72	2	72
XHO	102	144	3	48
XTP	102	192	2
BRK	102	288	1
BRK	102	288	4
HLD	103	0	6	96
TAP	103	0	7
TAP	103	96	0
TAP	103	144	1
HLD	103	192	2	96
TAP	103	192	3
TAP	103	240	4
TAP	103	288	5
XTP	103	336	1
XTP	103	336	6
TAP	104	48	0
TAP	104	48	7
TAP	104	96	1
TAP	104	96	6
TAP	104	144	2
TAP	104	144	5
XTP	104	192	2
XTP	104	192	5
TAP	104	240	3
TAP	104	264	4
TAP	104	288	3
TAP	104	312	4
TAP	104	336	3
TAP	104	360	4
BST	105	0	3
SI_	105	0	3	96	2040	7
HLD	107	96	4	96
HLD	108	120	4	96
HLD	108	360	4	120
HLD	109	216	5	120
HLD	110	72	4	144
STR	111	0	6
SI_	111	0	6	96	576	3
STR	112	144	1
SCR	112	144	1	96	48	3

T_REC_TAP	351
T_REC_BRK	19
T_REC_XTP	70
T_REC_HLD	43
T_REC_XHO	14
T_REC_STR	81
T_REC_BST	1
T_REC_XST	20
T_REC_TTP	31
T_REC_THO	2
T_REC_SLD	105
T_REC_ALL	737
T_NUM_TAP	553
T_NUM_BRK	20
T_NUM_HLD	59
T_NUM_SLD	105
T_NUM_ALL	737
T_JUDGE_TAP	573
T_JUDGE_HLD	192
T_JUDGE_SLD	105
T_JUDGE_ALL	870
TTM_EACHPAIRS	114
TTM_SCR_TAP	276500
TTM_SCR_BRK	52000
TTM_SCR_HLD	59000
TTM_SCR_SLD	157500
TTM_SCR_ALL	545000
TTM_SCR_S	526750
TTM_SCR_SS	543000
TTM_RAT_ACV	10036

