VERSION	0.00.00	1.03.00
FES_MODE	0
BPM_DEF	186.000	186.000	186.000	186.000
MET_DEF	4	4
RESOLUTION	384
CLK_DEF	384
COMPATIBLE_CODE	MA2

BPM	0	0	186.000
MET	0	0	4	4

STR	2	0	3
SXR	2	0	3	96	480	4
TAP	2	0	4
TAP	4	0	3
STR	4	0	4
SXL	4	0	4	96	480	3
TAP	6	0	2
TAP	6	96	2
TAP	6	192	3
TAP	6	288	3
TAP	7	0	4
TAP	7	96	4
TAP	7	192	5
TAP	7	288	5
HLD	8	0	4	96
HLD	8	0	5	96
XTP	8	144	4
XTP	8	144	5
XTP	8	240	2
XTP	8	240	3
XTP	8	336	3
XTP	8	336	4
XTP	9	48	2
XTP	9	48	5
XTP	9	96	2
XTP	9	96	5
XTP	9	192	3
XTP	9	192	4
BRK	10	0	1
BRK	10	0	6
TAP	10	96	2
TAP	10	192	4
TAP	10	240	4
TAP	10	288	3
TAP	11	0	4
TAP	11	0	6
TAP	11	96	5
TAP	11	192	3
TAP	11	240	3
TAP	11	288	4
TAP	12	0	1
TAP	12	0	3
TAP	12	96	2
TAP	12	192	4
TAP	12	240	4
TAP	12	288	3
TAP	13	0	4
TAP	13	0	6
TAP	13	96	4
TAP	13	96	6
TAP	13	192	3
TAP	13	192	7
TAP	14	0	4
TAP	14	0	6
TAP	14	96	5
TAP	14	192	2
TAP	14	240	2
TAP	14	288	3
TAP	15	0	1
TAP	15	0	3
TAP	15	96	2
TAP	15	192	5
TAP	15	240	5
TAP	15	288	4
HLD	16	0	6	96
TAP	16	96	7
TAP	16	192	0
TAP	16	240	0
STR	16	336	1
SCR	16	336	1	96	144	4
TAP	16	336	7
HLD	18	0	5	384
TAP	18	192	4
TAP	18	288	4
HLD	19	0	3	384
TAP	19	192	4
TAP	19	288	4
HLD	20	0	5	384
TTP	20	192	5	E	0	M1
TTP	20	288	4	E	0	M1
TTP	21	0	3	E	0	M1
TTP	21	192	0	C	0	M1
HLD	22	0	1	384
TAP	22	192	3
TAP	22	288	3
HLD	23	0	4	288
TAP	23	192	3
STR	23	288	3
SUR	23	288	3	96	288	4
TAP	25	0	2
TAP	25	0	5
TAP	25	96	2
TAP	25	96	5
TAP	25	192	3
TAP	25	192	4
HLD	26	0	5	384
TAP	26	96	4
TAP	26	192	4
TAP	26	288	3
TAP	27	0	4
TAP	27	96	4
TAP	27	96	6
TAP	27	192	5
TAP	27	240	5
TAP	27	288	4
HLD	28	0	2	384
TAP	28	96	3
TAP	28	192	3
TAP	28	288	4
TAP	29	0	3
TAP	29	96	2
TAP	29	96	3
TAP	29	192	1
TAP	29	240	1
TAP	29	288	0
XTP	30	0	1
XTP	30	0	7
XTP	30	144	0
XTP	30	192	0
TAP	30	288	7
HLD	31	0	6	192
TAP	31	96	4
TAP	31	192	4
TAP	31	288	3
TAP	31	288	5
STR	32	0	2
SUL	32	0	2	96	192	5
TAP	33	0	7
TAP	33	96	7
TAP	33	192	0
TAP	33	192	6
HLD	34	0	4	144
HLD	34	0	5	144
HLD	34	192	4	144
HLD	34	192	6	144
HLD	35	0	4	192
TAP	35	0	7
TAP	35	192	6
TAP	35	288	6
STR	36	0	5
SI_	36	0	5	96	96	2
STR	36	192	1
SI_	36	192	1	96	96	6
TAP	37	0	5
TAP	37	96	4
TAP	37	192	3
TAP	37	288	3
TAP	37	288	4
HLD	38	0	2	144
HLD	38	0	3	144
HLD	38	192	1	144
HLD	38	192	3	144
TAP	39	0	0
HLD	39	0	3	192
XTP	39	144	1
XTP	39	192	1
STR	39	288	2
SCR	39	288	2	96	144	5
XTP	40	240	7
XTP	40	288	7
XTP	41	0	0
XTP	41	0	6
XTP	41	72	0
XTP	41	72	6
XTP	41	144	1
XTP	41	144	5
XTP	41	192	1
XHO	41	192	5	192
BRK	42	0	4
TAP	42	96	4
TAP	42	192	3
TAP	42	288	3
TAP	42	288	4
XTP	43	0	1
XTP	43	0	6
TAP	43	96	2
TAP	43	144	2
TAP	43	192	3
TAP	43	288	4
STR	43	288	6
SCL	43	288	6	96	144	2
TAP	44	192	1
TAP	44	288	0
TAP	44	288	1
HLD	45	0	6	96
TAP	45	96	7
TAP	45	192	4
TAP	45	192	5
TAP	45	288	2
TAP	45	288	3
TAP	45	336	2
TAP	45	336	3
TAP	46	48	1
STR	46	96	1
SI_	46	96	1	96	96	4
STR	46	288	5
SI_	46	288	5	96	96	0
STR	47	96	2
SI_	47	96	2	96	96	7
STR	47	288	6
SI_	47	288	6	96	96	3
XTP	48	96	2
TAP	48	192	1
TAP	48	240	1
TAP	48	288	0
XTP	49	0	2
XTP	49	0	7
TAP	49	96	1
TAP	49	96	6
TAP	49	192	0
STR	49	240	0
SUR	49	240	0	96	144	5
XTP	49	336	6
XTP	50	192	6
XTP	50	192	7
XTP	51	0	4
XTP	51	0	6
TAP	51	96	5
TAP	51	144	5
TAP	51	192	4
STR	51	288	1
SCR	51	288	1	96	144	5
TAP	51	288	3
TAP	52	192	6
TAP	52	288	6
TAP	52	288	7
HLD	53	0	1	96
TAP	53	96	0
TAP	53	192	2
TAP	53	192	7
TAP	53	240	2
TAP	53	240	7
XTP	53	336	0
XTP	53	336	1
XTP	54	48	2
XTP	54	48	3
XTP	54	144	4
XTP	54	144	5
XST	54	240	6
SCL	54	240	6	96	192	1
XTP	54	240	7
XTP	55	240	7
XTP	55	288	7
BRK	56	0	0
XTP	56	0	6
XTP	56	96	1
BRK	56	96	3
XTP	56	192	4
BRK	56	192	6
BRK	56	288	0
XTP	56	288	7
HLD	57	0	1	96
TAP	57	96	3
TAP	57	144	3
TAP	57	240	3
TAP	57	240	4
HLD	57	336	5	96
TAP	58	48	4
TAP	58	96	4
TAP	58	192	4
TAP	58	192	6
STR	58	288	7
SCL	58	288	7	96	384	2
TTP	59	0	0	C	1	M1
XTP	60	192	0
XTP	60	192	7
STR	61	0	2
SI_	61	0	2	96	96	7
STR	61	192	6
SI_	61	192	6	96	96	3
STR	62	0	2
SI_	62	0	2	96	96	7
STR	62	192	6
SI_	62	192	6	96	96	3
TTP	63	0	3	E	0	M1
TTP	63	96	0	C	0	M1
TTP	63	192	7	E	0	M1
TTP	63	288	6	E	0	M1
TTP	64	0	5	E	0	M1
TTP	64	96	0	C	0	M1
TTP	64	192	1	E	0	M1
TTP	64	288	2	E	0	M1
TTP	65	0	3	B	0	M1
TTP	65	0	4	B	0	M1
TTP	65	96	2	B	0	M1
TTP	65	96	5	B	0	M1
TTP	65	192	1	B	0	M1
TTP	65	192	6	B	0	M1
THO	65	288	0	480	C	1	M1
TAP	70	288	3
TAP	70	288	4
TAP	71	0	2
TAP	71	96	2
TAP	71	192	3
TAP	71	288	3
TAP	72	0	4
TAP	72	96	4
TAP	72	192	5
TAP	72	288	5
TAP	73	0	4
TAP	73	0	5
TAP	73	96	6
HLD	73	144	6	96
HLD	73	240	4	96
HLD	73	336	3	96
HLD	74	48	1	96
TAP	74	144	0
XST	74	240	6
SUR	74	240	6	96	288	4
XST	74	240	7
SCR	74	240	7	96	288	3
BRK	76	0	0
TAP	76	240	3
TAP	76	240	4
TAP	76	288	3
TAP	76	288	4
BRK	77	0	1
BRK	77	0	6
TAP	77	96	2
TAP	77	144	2
TAP	77	192	3
TAP	77	288	4
STR	77	288	5
SCR	77	288	5	96	144	1
TAP	78	192	2
TAP	78	288	2
TAP	78	288	3
HLD	79	0	4	96
HLD	79	96	5	96
TAP	79	192	6
TAP	79	288	6
TAP	79	288	7
TAP	79	336	6
TAP	79	336	7
TAP	80	48	0
TAP	80	48	1
TAP	80	96	0
STR	80	96	1
SCR	80	96	1	96	96	4
STR	80	288	5
SCR	80	288	5	96	96	0
STR	81	96	2
SCR	81	96	2	96	96	5
STR	81	288	7
SI_	81	288	7	96	96	3
TAP	82	96	2
TAP	82	192	1
TAP	82	240	1
TAP	82	288	0
XTP	83	0	2
XTP	83	0	7
TAP	83	96	1
TAP	83	96	6
TAP	83	192	0
STR	83	240	0
SUR	83	240	0	96	144	5
XTP	83	336	6
XTP	84	192	6
XTP	84	192	7
XTP	85	0	1
XTP	85	0	4
TAP	85	96	2
TAP	85	144	2
TAP	85	192	3
TAP	85	288	4
STR	85	288	5
SCR	85	288	5	96	144	1
TAP	86	192	2
TAP	86	288	2
TAP	86	288	3
HLD	87	0	5	96
TAP	87	96	4
TAP	87	192	3
TAP	87	192	6
TAP	87	240	3
TAP	87	240	6
XTP	87	336	4
XTP	87	336	5
XTP	88	48	2
XTP	88	48	3
XTP	88	144	0
XTP	88	144	1
XTP	88	240	6
XST	88	240	7
SCR	88	240	7	96	192	4
XTP	89	240	7
XTP	89	288	7
XTP	90	0	0
BRK	90	0	1
BRK	90	96	4
XTP	90	96	5
XTP	90	192	6
BRK	90	192	7
BRK	90	288	2
XTP	90	288	3
HLD	91	0	5	96
TAP	91	96	4
TAP	91	144	4
TAP	91	240	3
TAP	91	240	6
HLD	91	336	7	96
TAP	92	48	0
TAP	92	96	0
TAP	92	192	1
TAP	92	192	6
TAP	92	288	3
TAP	92	288	4
XTP	93	0	2
XTP	93	0	5
TAP	93	96	0
TAP	93	96	6
TAP	93	144	0
TAP	93	144	6
TAP	93	240	1
TAP	93	240	3
TAP	93	336	4
TAP	93	336	5
TAP	94	48	6
TAP	94	48	7
TAP	94	144	0
TAP	94	144	1
STR	94	240	2
SCL	94	240	2	96	432	4
TAP	94	240	7
TTP	94	336	0	C	1	M1
BRK	96	192	2
BRK	96	192	5
BRK	96	240	2
BRK	96	240	5
HLD	97	0	1	96
HLD	97	0	3	96
HLD	97	144	2	96
HLD	97	144	4	96
TAP	97	288	3
TAP	97	288	5
TAP	98	0	6
TAP	98	96	6
TAP	98	96	7
TAP	98	192	5
TAP	98	240	5
TAP	98	288	4
HLD	99	0	3	96
HLD	99	0	5	96
HLD	99	144	2	96
HLD	99	144	4	96
TAP	99	288	1
TAP	99	288	3
TAP	99	336	1
TAP	99	336	3
XTP	100	48	0
XTP	100	144	1
XTP	100	144	3
XTP	100	240	3
XTP	100	240	4
XTP	100	336	2
XTP	100	336	5
TAP	101	48	0
TAP	101	48	7
TAP	101	96	0
TAP	101	96	7
HLD	101	192	1	96
HLD	101	288	3	96
HLD	102	0	4	96
TAP	102	96	6
XTP	102	192	3
XTP	102	192	7
HLD	103	0	0	96
HLD	103	144	1	96
HLD	103	144	7	96
XTP	103	288	2
XTP	103	288	6
XTP	103	336	2
XTP	103	336	6
TAP	104	48	1
TAP	104	48	5
TAP	104	96	1
TAP	104	96	5
TAP	104	192	3
TAP	104	288	2
STR	104	288	4
SCR	104	288	4	96	2112	2
TTP	105	0	0	C	1	M1

T_REC_TAP	240
T_REC_BRK	18
T_REC_XTP	87
T_REC_HLD	48
T_REC_XHO	1
T_REC_STR	29
T_REC_BST	0
T_REC_XST	4
T_REC_TTP	21
T_REC_THO	1
T_REC_SLD	33
T_REC_ALL	482
T_NUM_TAP	381
T_NUM_BRK	18
T_NUM_HLD	50
T_NUM_SLD	33
T_NUM_ALL	482
T_JUDGE_TAP	399
T_JUDGE_HLD	164
T_JUDGE_SLD	33
T_JUDGE_ALL	596
TTM_EACHPAIRS	124
TTM_SCR_TAP	190500
TTM_SCR_BRK	46800
TTM_SCR_HLD	50000
TTM_SCR_SLD	49500
TTM_SCR_ALL	336800
TTM_SCR_S	324950
TTM_SCR_SS	335000
TTM_RAT_ACV	10053

