VERSION	0.00.00	1.03.00
FES_MODE	0
BPM_DEF	186.000	186.000	186.000	186.000
MET_DEF	4	4
RESOLUTION	384
CLK_DEF	384
COMPATIBLE_CODE	MA2

BPM	0	0	186.000
MET	0	0	4	4

THO	2	0	0	1152	C	0	L1
XTP	6	0	0
TAP	6	96	0
TAP	6	192	0
TAP	7	0	7
TAP	7	96	7
TAP	7	192	7
HLD	8	0	0	144
TAP	8	144	7
XTP	8	240	0
XTP	8	240	7
XTP	8	336	1
XTP	8	336	6
BRK	10	0	5
TAP	10	96	5
TAP	10	192	4
TAP	10	192	5
TAP	11	0	2
TAP	11	96	2
TAP	11	192	2
TAP	11	192	3
TAP	12	0	5
TAP	12	96	5
TAP	12	192	4
TAP	12	192	5
TAP	13	0	3
TAP	13	96	3
TAP	13	192	2
TAP	13	192	4
TAP	14	0	1
TAP	14	96	1
TAP	14	192	0
TAP	14	192	1
TAP	15	0	6
TAP	15	96	6
TAP	15	192	6
TAP	15	192	7
TAP	16	0	1
TAP	16	96	1
TAP	16	192	0
TAP	16	288	0
TAP	17	0	0
TAP	17	0	7
TAP	17	96	0
TAP	17	96	7
XTP	17	192	1
XTP	17	192	6
STR	18	0	5
SCR	18	0	5	96	192	0
STR	19	0	1
SCR	19	0	1	96	192	4
XHO	20	0	5	192
HLD	20	192	4	192
HLD	21	0	3	192
TAP	21	192	2
STR	22	0	1
SI_	22	0	1	96	192	4
STR	23	0	5
SI_	23	0	5	96	192	0
XHO	24	0	1	192
HLD	24	192	0	192
HLD	25	0	7	192
XTP	25	192	6
TAP	26	0	5
TAP	26	96	5
TAP	26	192	4
TAP	27	0	2
TAP	27	96	2
TAP	27	192	3
TAP	28	0	5
TAP	28	96	5
TAP	28	192	4
TAP	29	0	3
TAP	29	96	3
TAP	29	192	2
TAP	29	192	4
HLD	30	0	2	192
HLD	30	192	3	192
HLD	31	0	4	192
TAP	31	192	5
STR	32	0	6
SI_	32	0	6	96	192	3
TAP	33	0	2
TAP	33	96	2
XTP	33	192	3
XTP	33	192	4
TTP	34	0	5	B	0	L1
TTP	34	0	5	E	0	L1
TTP	35	0	7	B	0	L1
TTP	35	0	7	E	0	L1
TTP	36	0	1	B	0	L1
TTP	36	0	1	E	0	L1
TTP	37	0	2	B	0	L1
TTP	37	0	3	E	0	L1
TTP	38	0	3	B	0	L1
TTP	38	0	4	B	0	L1
TTP	39	0	2	B	0	L1
TTP	39	0	5	B	0	L1
TTP	40	0	1	B	0	L1
TTP	40	0	6	B	0	L1
XTP	41	0	0
XTP	41	0	7
XTP	41	96	0
XTP	41	96	7
XHO	41	192	0	192
XHO	41	192	7	192
BRK	43	0	6
TAP	43	96	6
TAP	43	192	6
TAP	43	192	7
TAP	43	288	6
TAP	43	288	7
TAP	44	0	5
TAP	44	96	4
TAP	44	192	3
TAP	44	192	5
TAP	45	0	2
TAP	45	96	2
TAP	45	192	2
TAP	45	192	3
TAP	45	288	2
TAP	45	288	3
TAP	46	0	1
TAP	46	96	0
TAP	46	192	1
TAP	46	192	7
HLD	47	0	6	96
TAP	47	96	7
TAP	47	192	7
HLD	48	0	1	96
TAP	48	96	0
TAP	48	192	0
TAP	49	0	6
TAP	49	96	6
TAP	49	192	7
TAP	49	288	0
TAP	49	288	7
TAP	50	0	1
TAP	50	0	6
TAP	50	96	2
TAP	50	96	5
TAP	50	192	3
TAP	50	192	4
BRK	51	0	2
TAP	51	96	2
TAP	51	192	2
TAP	51	192	3
TAP	51	288	2
TAP	51	288	3
TAP	52	0	1
TAP	52	96	0
TAP	52	192	1
TAP	52	192	7
TAP	53	0	6
TAP	53	96	6
TAP	53	192	6
TAP	53	192	7
TAP	53	288	6
TAP	53	288	7
XTP	54	0	5
XTP	54	96	4
XTP	54	192	3
XTP	54	288	2
XST	55	0	1
SI_	55	0	1	96	192	4
HLD	56	0	5	96
HLD	56	192	2	96
HLD	56	192	3	96
TAP	57	0	4
TAP	57	96	4
TAP	57	192	3
TAP	57	288	3
TAP	58	0	3
TAP	58	0	4
TAP	58	96	3
TAP	58	96	4
TAP	58	192	2
TAP	58	192	5
TAP	58	288	1
TAP	58	288	6
BRK	59	0	0
BST	59	0	7
SI_	59	0	7	96	192	3
STR	60	0	2
SI_	60	0	2	96	192	7
STR	61	0	6
SI_	61	0	6	96	192	3
TAP	62	0	2
TAP	62	96	2
TAP	62	192	2
TAP	62	192	3
STR	63	0	1
SUR	63	0	1	96	192	5
STR	64	0	6
SCL	64	0	6	96	192	3
TAP	65	0	2
TAP	65	96	3
STR	65	192	4
SUR	65	192	4	96	336	7
TTP	67	0	0	C	1	L1
TTP	69	0	5	E	0	L1
TTP	70	0	3	E	0	L1
XST	71	0	4
SI_	71	0	4	96	192	7
STR	72	0	0
SI_	72	0	0	96	192	3
HLD	73	0	4	336
XTP	73	144	3
XTP	73	240	3
XTP	73	336	3
XTP	74	48	2
XTP	74	144	1
XTP	74	240	0
XST	74	336	7
SCL	74	336	7	96	384	2
BRK	77	0	1
TAP	77	96	0
TAP	77	96	1
TAP	77	192	1
TAP	77	288	0
TAP	77	288	1
TAP	78	0	2
TAP	78	96	3
TAP	78	192	2
TAP	78	192	4
TAP	79	0	5
TAP	79	96	4
TAP	79	96	5
TAP	79	192	5
TAP	79	288	4
TAP	79	288	5
TAP	80	0	6
TAP	80	96	7
TAP	80	192	0
TAP	80	192	6
HLD	81	0	1	96
TAP	81	96	0
TAP	81	192	0
TAP	81	192	1
HLD	82	0	6	96
TAP	82	96	7
TAP	82	192	6
TAP	82	192	7
TAP	83	0	1
TAP	83	96	1
TAP	83	192	0
TAP	83	288	0
TAP	83	288	7
TAP	84	0	1
TAP	84	0	6
TAP	84	96	2
TAP	84	96	5
TAP	84	192	3
TAP	84	192	4
BRK	85	0	5
TAP	85	96	4
TAP	85	96	5
TAP	85	192	5
TAP	85	288	4
TAP	85	288	5
TAP	86	0	6
TAP	86	96	7
TAP	86	192	0
TAP	86	192	6
TAP	87	0	1
TAP	87	96	0
TAP	87	96	1
TAP	87	192	1
TAP	87	288	0
TAP	87	288	1
XTP	88	0	2
XTP	88	96	3
XTP	88	192	4
XTP	88	288	5
XST	89	0	6
SI_	89	0	6	96	192	3
HLD	90	0	2	96
HLD	90	192	4	96
HLD	90	192	5	96
TAP	91	0	3
TAP	91	96	3
TAP	91	192	4
TAP	91	288	4
TAP	92	0	3
TAP	92	0	4
TAP	92	96	3
TAP	92	96	4
TAP	92	192	2
TAP	92	192	5
TAP	92	288	1
TAP	92	288	6
XTP	93	0	0
XHO	93	0	7	336
XTP	93	336	0
XTP	94	48	0
XTP	94	144	7
XST	94	240	7
SCL	94	240	7	96	480	0
STR	97	0	2
SI_	97	0	2	96	144	7
STR	98	0	6
SI_	98	0	6	96	144	2
STR	99	0	1
SI_	99	0	1	96	144	5
TAP	100	0	6
TAP	100	96	6
TAP	100	192	6
TAP	100	192	7
TAP	101	0	1
TAP	101	96	1
TAP	101	192	0
TAP	101	288	0
TAP	102	0	7
TAP	102	96	7
TAP	102	192	6
TAP	102	288	6
HLD	103	0	4	96
HLD	103	0	5	96
HLD	103	192	2	96
HLD	103	192	3	96
TAP	104	0	4
TAP	104	96	4
TAP	104	192	3
TAP	104	192	4
THO	105	0	0	2304	C	0	L1

T_REC_TAP	200
T_REC_BRK	6
T_REC_XTP	32
T_REC_HLD	23
T_REC_XHO	5
T_REC_STR	14
T_REC_BST	1
T_REC_XST	5
T_REC_TTP	17
T_REC_THO	2
T_REC_SLD	20
T_REC_ALL	325
T_NUM_TAP	268
T_NUM_BRK	7
T_NUM_HLD	30
T_NUM_SLD	20
T_NUM_ALL	325
T_JUDGE_TAP	275
T_JUDGE_HLD	161
T_JUDGE_SLD	20
T_JUDGE_ALL	456
TTM_EACHPAIRS	65
TTM_SCR_TAP	134000
TTM_SCR_BRK	18200
TTM_SCR_HLD	30000
TTM_SCR_SLD	30000
TTM_SCR_ALL	212200
TTM_SCR_S	205200
TTM_SCR_SS	211500
TTM_RAT_ACV	10033

