VERSION	0.00.00	1.03.00
FES_MODE	0
BPM_DEF	186.000	186.000	186.000	186.000
MET_DEF	4	4
RESOLUTION	384
CLK_DEF	384
COMPATIBLE_CODE	MA2

BPM	0	0	186.000
MET	0	0	4	4

XTP	2	0	0
TAP	4	0	0
TAP	6	0	7
TAP	8	0	7
TAP	10	0	0
TAP	11	0	0
TAP	12	0	1
TAP	13	0	1
TAP	14	0	2
TAP	15	0	2
HLD	16	0	3	336
HLD	16	0	4	336
HLD	18	0	4	384
HLD	20	0	5	384
HLD	22	0	6	384
HLD	24	0	0	384
HLD	24	0	7	384
TAP	26	0	7
TAP	27	0	7
TAP	28	0	6
TAP	29	0	6
TAP	30	0	5
TAP	31	0	5
TAP	32	0	4
TAP	33	0	3
TAP	33	0	4
TTP	34	0	3	B	0	L1
TTP	35	0	4	B	0	L1
TTP	36	0	2	B	0	L1
TTP	37	0	5	B	0	L1
TTP	38	0	1	B	0	L1
TTP	39	0	6	B	0	L1
TTP	40	0	0	B	0	L1
THO	41	0	0	384	C	1	L1
XTP	43	0	0
TAP	43	192	0
TAP	44	0	0
TAP	45	0	1
TAP	45	192	1
TAP	46	0	1
TAP	47	0	2
TAP	47	192	2
TAP	48	0	2
TAP	49	0	3
TAP	49	192	3
XTP	50	0	3
XTP	50	0	4
TAP	51	0	4
TAP	51	192	4
TAP	52	0	4
TAP	53	0	5
TAP	53	192	5
XTP	54	0	5
XTP	55	0	6
TAP	55	192	6
TAP	56	0	6
TAP	57	0	7
TAP	57	192	7
XTP	58	0	0
XTP	58	0	7
STR	59	0	7
SI_	59	0	7	96	288	4
STR	61	0	0
SI_	61	0	0	96	288	3
STR	63	0	7
SI_	63	0	7	96	288	3
STR	65	0	0
SI_	65	0	0	96	288	4
XTP	67	0	7
TTP	71	0	3	B	0	L1
TTP	71	0	4	B	0	L1
TTP	72	0	2	B	0	L1
TTP	72	0	5	B	0	L1
THO	73	0	0	720	C	1	L1
XTP	76	0	0
XTP	77	0	7
TAP	77	192	7
TAP	78	0	6
TAP	79	0	5
TAP	79	192	5
XTP	80	0	3
XTP	80	0	4
TAP	81	0	3
TAP	81	192	3
TAP	82	0	2
TAP	83	0	1
TAP	83	192	1
XTP	84	0	0
XTP	84	0	7
TAP	85	0	0
TAP	85	192	0
TAP	86	0	1
TAP	86	192	1
TAP	87	0	2
TAP	87	192	2
XTP	88	0	3
XTP	88	0	4
XTP	89	0	4
TAP	89	192	4
TAP	90	0	5
TAP	90	192	5
TAP	91	0	6
TAP	91	192	6
TAP	92	0	7
TAP	92	192	7
TAP	93	0	0
TAP	93	192	0
TAP	94	0	0
TAP	94	0	7
STR	94	192	0
SI_	94	192	0	96	288	3
STR	94	192	7
SI_	94	192	7	96	288	4
TAP	97	0	5
TAP	97	192	5
TAP	98	0	4
TAP	98	0	5
TAP	99	0	6
TAP	99	192	6
TAP	100	0	6
TAP	100	0	7
XTP	101	0	1
TAP	101	192	1
TAP	102	0	0
TAP	102	0	1
TAP	103	0	2
TAP	103	192	2
TAP	104	0	2
TAP	104	0	3
BRK	105	0	3
BRK	105	0	4

T_REC_TAP	78
T_REC_BRK	2
T_REC_XTP	19
T_REC_HLD	7
T_REC_XHO	0
T_REC_STR	6
T_REC_BST	0
T_REC_XST	0
T_REC_TTP	11
T_REC_THO	2
T_REC_SLD	6
T_REC_ALL	131
T_NUM_TAP	114
T_NUM_BRK	2
T_NUM_HLD	9
T_NUM_SLD	6
T_NUM_ALL	131
T_JUDGE_TAP	116
T_JUDGE_HLD	77
T_JUDGE_SLD	6
T_JUDGE_ALL	199
TTM_EACHPAIRS	15
TTM_SCR_TAP	57000
TTM_SCR_BRK	5200
TTM_SCR_HLD	9000
TTM_SCR_SLD	9000
TTM_SCR_ALL	80200
TTM_SCR_S	77600
TTM_SCR_SS	80000
TTM_RAT_ACV	10025

