VERSION	0.00.00	1.03.00
FES_MODE	0
BPM_DEF	160.000	160.000	160.000	160.000
MET_DEF	4	4
RESOLUTION	384
CLK_DEF	384
COMPATIBLE_CODE	MA2

BPM	0	0	160.000
MET	0	0	4	4
MET	66	0	4	2
MET	66	192	4	4

HLD	1	0	4	96
HLD	1	96	3	96
TTP	1	192	5	E	0	M1
TTP	1	264	7	E	0	M1
TTP	1	336	0	C	0	M1
TAP	2	48	2
TAP	2	96	2
TAP	2	144	2
TTP	2	192	5	E	0	M1
TTP	2	264	7	E	0	M1
TTP	2	336	0	C	0	M1
HLD	3	0	3	96
HLD	3	96	4	96
TTP	3	192	3	E	0	M1
TTP	3	264	1	E	0	M1
TTP	3	336	0	C	0	M1
TAP	4	48	5
TAP	4	96	5
TAP	4	144	5
TTP	4	192	3	E	0	M1
TTP	4	264	1	B	0	M1
TTP	4	336	0	E	0	M1
HLD	5	0	5	96
HLD	5	96	3	96
TTP	5	192	5	E	0	M1
TTP	5	264	7	E	0	M1
TTP	5	336	0	C	0	M1
TAP	6	48	2
TAP	6	96	2
TAP	6	144	2
TTP	6	192	5	E	0	M1
TTP	6	264	7	E	0	M1
TTP	6	336	0	C	0	M1
HLD	7	0	2	96
HLD	7	96	4	96
TTP	7	192	3	E	0	M1
TTP	7	264	1	E	0	M1
TTP	7	336	0	C	0	M1
TAP	8	48	5
TAP	8	96	5
TAP	8	144	5
XTP	8	192	1
XTP	8	192	6
XTP	8	240	3
XTP	8	256	4
XTP	8	272	3
XTP	8	288	4
STR	9	0	1
SI_	9	0	1	96	48	5
TAP	9	0	5
TAP	9	96	4
HLD	9	192	4	72
HLD	9	264	3	72
STR	9	336	2
SCR	9	336	2	96	48	5
TAP	10	48	1
TAP	10	96	2
TAP	10	144	1
HLD	10	192	1	72
HLD	10	264	2	72
TAP	10	336	3
STR	11	0	6
SI_	11	0	6	96	48	2
TAP	11	96	3
HLD	11	192	3	72
HLD	11	264	4	72
STR	11	336	5
SCL	11	336	5	96	48	2
TAP	12	48	6
TAP	12	96	5
TAP	12	144	6
HLD	12	192	6	72
HLD	12	264	7	72
TAP	12	336	0
STR	13	0	2
SUL	13	0	2	96	48	6
TAP	13	96	5
HLD	13	192	5	72
HLD	13	264	4	72
STR	13	336	3
SCR	13	336	3	96	48	6
TAP	14	48	2
TAP	14	96	3
TAP	14	144	2
HLD	14	192	2	72
HLD	14	264	3	72
TAP	14	336	4
STR	15	0	5
SUR	15	0	5	96	48	1
TAP	15	96	2
HLD	15	192	2	72
HLD	15	264	3	72
STR	15	336	4
SCL	15	336	4	96	48	1
TAP	16	48	5
TAP	16	96	4
TAP	16	144	5
TAP	16	192	3
BRK	16	192	7
BRK	16	264	1
TAP	16	264	5
STR	16	336	2
SXR	16	336	2	96	144	7
BST	16	336	6
SXR	16	336	6	96	144	3
BRK	17	288	1
BRK	17	288	6
TAP	18	0	1
TAP	18	0	3
TAP	18	48	2
TAP	18	96	4
TAP	18	120	3
TAP	18	144	5
TAP	18	192	3
TAP	18	192	4
TAP	18	264	5
TAP	18	288	4
TAP	18	336	7
TAP	19	0	4
TAP	19	0	6
TAP	19	48	5
TAP	19	96	3
TAP	19	120	4
TAP	19	144	2
TAP	19	192	3
TAP	19	192	4
TAP	19	264	2
TAP	19	288	3
TAP	19	336	0
TAP	20	0	2
TAP	20	0	3
TAP	20	48	4
TAP	20	96	5
TAP	20	120	4
TAP	20	144	6
TAP	20	192	3
TAP	20	192	5
TAP	20	264	4
TAP	20	288	3
TAP	20	336	7
TAP	21	0	4
TAP	21	0	5
TAP	21	48	3
TAP	21	96	2
TAP	21	120	3
TAP	21	144	1
TAP	21	192	2
TAP	21	192	4
TAP	21	264	3
TAP	21	288	4
TAP	21	336	0
TAP	22	0	1
TAP	22	0	3
TAP	22	48	2
TAP	22	96	4
TAP	22	120	3
TAP	22	144	5
TAP	22	192	3
TAP	22	192	4
TAP	22	264	5
TAP	22	288	4
TAP	22	336	7
TAP	23	0	4
TAP	23	0	6
TAP	23	48	5
TAP	23	96	3
TAP	23	120	4
TAP	23	144	2
TAP	23	192	3
TAP	23	192	4
TAP	23	264	2
TAP	23	288	3
TAP	23	336	0
TAP	24	0	2
TAP	24	48	3
TAP	24	96	4
STR	24	144	1
SI_	24	144	1	96	48	6
STR	24	144	5
SI_	24	144	5	96	48	2
XST	24	336	0
SCL	24	336	0	96	144	1
XHO	24	336	4	144
TTP	25	144	4	B	0	M1
TTP	25	168	0	C	0	M1
TTP	25	192	0	B	0	M1
TAP	25	288	2
TAP	25	288	5
TAP	26	0	3
TAP	26	0	5
TAP	26	48	4
STR	26	96	3
SI_	26	96	3	96	48	0
TAP	26	120	4
TAP	26	144	2
TAP	26	192	5
TAP	26	264	6
TAP	26	288	7
TAP	26	336	1
TAP	27	0	2
TAP	27	0	4
TAP	27	48	3
STR	27	96	4
SI_	27	96	4	96	48	7
TAP	27	120	3
TAP	27	144	5
TAP	27	192	2
TAP	27	264	1
TAP	27	288	0
TAP	27	336	6
TAP	28	0	3
TAP	28	0	5
TAP	28	48	4
STR	28	96	2
SI_	28	96	2	96	48	7
TAP	28	120	3
TAP	28	144	1
TAP	28	192	4
TAP	28	264	6
TAP	28	288	0
TAP	28	336	5
TAP	29	0	2
TAP	29	0	4
TAP	29	48	3
STR	29	96	5
SI_	29	96	5	96	48	0
TAP	29	120	4
TAP	29	144	6
TAP	29	192	3
TAP	29	264	1
TAP	29	288	7
TAP	29	336	2
TAP	30	0	3
TAP	30	0	5
TAP	30	48	4
TAP	30	96	1
TAP	30	120	3
TAP	30	144	2
TAP	30	192	5
TAP	30	216	3
TAP	30	240	5
TAP	30	264	3
TAP	30	288	4
TAP	30	312	2
TAP	30	336	4
BRK	31	0	1
TAP	31	0	3
TAP	31	72	4
BRK	31	72	6
BST	31	144	0
SCL	31	144	0	96	48	4
STR	31	144	7
SCR	31	144	7	96	48	3
TAP	32	0	2
TAP	32	0	6
TAP	32	48	1
TAP	32	48	5
TAP	32	96	0
TAP	32	96	4
STR	32	144	3
SI_	32	144	3	96	48	6
STR	32	144	7
SI_	32	144	7	96	48	2
BST	32	336	3
SXR	32	336	3	96	240	5
BST	32	336	7
SXR	32	336	7	96	240	1
THO	34	0	0	960	C	0	M1
TAP	34	192	0
TAP	34	288	0
TAP	35	0	7
TAP	35	192	7
TAP	35	288	7
TAP	36	0	6
TAP	36	192	6
TAP	36	288	6
HLD	37	0	5	72
HLD	37	72	6	72
TAP	37	144	7
HLD	37	192	2	72
HLD	37	264	1	72
TAP	37	336	0
THO	38	0	0	960	C	0	M1
TAP	38	192	7
TAP	38	288	7
TAP	39	0	0
TAP	39	192	0
TAP	39	288	0
TAP	40	0	1
TAP	40	192	1
TAP	40	288	1
HLD	41	0	0	48
HLD	41	0	7	48
TAP	41	72	0
TAP	41	72	7
BRK	41	144	1
BRK	41	144	6
TAP	41	240	0
TAP	41	288	1
TAP	41	336	2
STR	42	0	3
SI_	42	0	3	96	48	7
TAP	42	96	4
TAP	42	144	5
STR	42	192	6
SI_	42	192	6	96	48	4
STR	42	288	3
SUL	42	288	3	96	144	4
STR	42	336	2
SUL	42	336	2	96	96	5
TAP	43	0	1
TAP	43	240	4
TAP	43	288	5
TAP	43	336	6
STR	44	0	7
SI_	44	0	7	96	48	3
TAP	44	96	0
TAP	44	144	1
STR	44	192	2
SI_	44	192	2	96	48	0
STR	44	288	7
SUL	44	288	7	96	144	0
STR	44	336	6
SUL	44	336	6	96	96	1
TAP	45	0	5
TAP	45	240	2
STR	45	288	0
SCL	45	288	0	96	48	6
STR	45	336	6
SCL	45	336	6	96	48	4
STR	46	0	4
SUL	46	0	4	96	48	0
TAP	46	240	5
STR	46	288	7
SCR	46	288	7	96	48	1
STR	46	336	1
SCR	46	336	1	96	48	3
STR	47	0	3
SUR	47	0	3	96	48	7
TAP	47	240	2
TAP	47	288	2
TAP	47	336	1
STR	48	0	0
SUR	48	0	0	96	48	4
TAP	48	96	5
TAP	48	144	6
STR	48	192	7
SUL	48	192	7	96	48	3
TAP	48	288	2
TAP	48	336	1
STR	49	0	0
SCR	49	0	0	96	96	4
STR	49	96	4
SCR	49	96	4	96	96	0
STR	49	192	0
SF_	49	192	0	96	48	4
TAP	50	0	1
TAP	50	0	6
TTP	50	96	1	E	0	M1
TTP	50	96	7	E	0	M1
TTP	50	144	2	E	0	M1
TTP	50	144	6	E	0	M1
TTP	50	192	3	E	0	M1
TTP	50	192	5	E	0	M1
TTP	50	240	0	C	0	M1
TAP	50	288	0
TAP	50	312	7
TAP	50	336	0
TTP	51	0	0	E	0	M1
TTP	51	24	7	E	0	M1
TTP	51	48	6	E	0	M1
TTP	51	72	5	E	0	M1
TTP	51	96	4	E	0	M1
TTP	51	120	3	E	0	M1
TTP	51	144	2	E	0	M1
HLD	51	192	0	48
HLD	51	192	7	48
TAP	51	288	1
TAP	51	288	6
TTP	52	0	2	E	0	M1
TTP	52	24	3	E	0	M1
TTP	52	48	4	E	0	M1
TAP	52	96	5
TAP	52	144	5
TTP	52	192	6	E	0	M1
TTP	52	216	5	E	0	M1
TTP	52	240	4	E	0	M1
TAP	52	288	2
TAP	52	336	2
TTP	53	0	0	C	0	M1
TTP	53	72	3	E	0	M1
TTP	53	72	5	E	0	M1
TTP	53	120	2	E	0	M1
TTP	53	120	6	E	0	M1
TTP	53	168	1	E	0	M1
TTP	53	168	7	E	0	M1
TAP	54	0	7
TTP	54	48	7	E	0	M1
TTP	54	72	6	E	0	M1
TTP	54	96	5	E	0	M1
TAP	54	144	0
TTP	54	192	1	E	0	M1
TTP	54	216	2	E	0	M1
TTP	54	240	3	E	0	M1
TAP	54	288	6
TTP	54	336	6	E	0	M1
TTP	54	360	5	E	0	M1
TTP	55	0	4	E	0	M1
TAP	55	48	1
TTP	55	96	2	E	0	M1
TTP	55	120	3	E	0	M1
TTP	55	144	4	E	0	M1
TAP	55	192	7
TAP	55	216	0
TAP	55	240	7
TTP	55	288	2	E	0	M1
TTP	55	288	6	E	0	M1
TTP	56	0	0	B	0	M1
TTP	56	24	7	B	0	M1
TTP	56	48	1	B	0	M1
TTP	56	72	6	B	0	M1
TTP	56	96	2	B	0	M1
TTP	56	120	5	B	0	M1
TTP	56	144	3	B	0	M1
TTP	56	168	4	B	0	M1
TTP	56	192	1	E	0	M1
TTP	56	216	7	E	0	M1
TTP	56	240	2	E	0	M1
TTP	56	264	6	E	0	M1
TTP	56	288	3	E	0	M1
TTP	56	312	5	E	0	M1
TTP	56	336	0	C	0	M1
XTP	57	0	0
XTP	57	0	7
XTP	57	24	0
XTP	57	24	7
XTP	57	72	1
XTP	57	72	6
XTP	57	120	2
XTP	57	120	5
TTP	57	168	0	C	1	M1
TTP	57	168	1	B	0	M1
TTP	57	168	2	B	0	M1
TTP	57	168	5	B	0	M1
TTP	57	168	6	B	0	M1
XTP	57	288	0
XTP	57	336	0
TAP	58	0	6
TAP	58	24	7
TAP	58	48	6
TAP	58	72	7
TTP	58	96	6	E	0	M1
TTP	58	120	5	B	0	M1
TTP	58	144	4	B	0	M1
TAP	58	192	1
TAP	58	216	0
TAP	58	240	1
TAP	58	264	0
TTP	58	288	2	E	0	M1
TTP	58	312	2	B	0	M1
TTP	58	336	3	B	0	M1
TAP	59	0	5
TAP	59	24	4
TAP	59	48	5
TAP	59	72	4
TAP	59	96	6
TAP	59	120	3
TAP	59	144	6
TAP	59	168	3
TTP	59	192	0	E	0	M1
TTP	59	216	1	E	0	M1
TTP	59	240	2	E	0	M1
TTP	59	264	3	E	0	M1
TTP	59	288	4	E	0	M1
TTP	59	312	5	E	0	M1
TTP	59	336	6	E	0	M1
XTP	60	0	1
XTP	60	24	1
TAP	60	72	0
TAP	60	72	2
TAP	60	120	3
TAP	60	120	7
TTP	60	168	0	C	1	M1
TAP	60	168	6
TTP	60	240	1	E	0	M1
TTP	60	264	2	E	0	M1
TTP	60	288	3	E	0	M1
TTP	60	312	4	E	0	M1
TTP	60	336	5	E	0	M1
XTP	61	0	6
XTP	61	24	6
TAP	61	72	5
TAP	61	72	7
TAP	61	120	0
TAP	61	120	4
TTP	61	168	0	C	1	M1
TAP	61	168	1
TAP	61	336	0
HLD	62	0	0	72
HLD	62	72	2	72
HLD	62	144	4	72
HLD	62	216	6	72
TAP	62	288	0
TAP	62	336	1
TAP	63	0	2
TAP	63	48	3
TAP	63	96	5
TAP	63	120	5
STR	63	168	4
SUR	63	168	4	96	72	1
STR	63	168	6
SUR	63	168	6	96	72	3
HLD	64	0	1	72
HLD	64	72	3	72
TAP	64	144	4
HLD	64	192	6	72
HLD	64	264	4	72
TAP	64	336	3
TAP	65	0	1
TAP	65	0	4
XTP	65	48	2
XTP	65	64	3
XTP	65	80	2
XTP	65	96	3
TAP	65	144	3
TAP	65	144	6
XST	65	192	5
SI_	65	192	5	96	48	0
XST	65	208	4
SI_	65	208	4	96	32	1
XTP	65	224	5
XTP	65	240	4
TTP	65	288	0	C	1	M1
TTP	65	288	1	B	0	M1
TTP	65	288	2	B	0	M1
TTP	65	288	5	B	0	M1
TTP	65	288	6	B	0	M1
TAP	66	96	0
TAP	66	96	7
TAP	66	144	1
TAP	66	192	2
TAP	66	192	4
TAP	66	240	3
TAP	66	288	5
TAP	66	312	4
TAP	66	336	6
HLD	67	0	6	96
TAP	67	0	7
XTP	67	48	5
TAP	67	72	4
TAP	67	96	3
TAP	67	144	7
TAP	67	192	3
TAP	67	192	5
TAP	67	240	4
TAP	67	288	2
TAP	67	312	3
TAP	67	336	1
TAP	68	0	0
HLD	68	0	1	96
XTP	68	48	2
TAP	68	72	3
TAP	68	96	4
TAP	68	144	0
TAP	68	192	2
TAP	68	192	3
TAP	68	240	4
TAP	68	288	5
TAP	68	312	4
TAP	68	336	6
TAP	69	0	0
HLD	69	0	7	96
XTP	69	48	6
TAP	69	72	5
TAP	69	96	4
TAP	69	144	6
TAP	69	192	4
TAP	69	192	5
TAP	69	240	3
TAP	69	288	2
TAP	69	312	3
TAP	69	336	1
HLD	70	0	0	96
TAP	70	0	7
XTP	70	48	1
TAP	70	72	2
TAP	70	96	3
TAP	70	144	1
TAP	70	192	2
TAP	70	192	4
TAP	70	240	3
TAP	70	288	5
TAP	70	312	4
TAP	70	336	6
HLD	71	0	6	96
TAP	71	0	7
XTP	71	48	5
TAP	71	72	4
TAP	71	96	3
TAP	71	144	7
TAP	71	192	3
TAP	71	192	5
TAP	71	240	4
TAP	71	288	2
TAP	71	312	3
TAP	71	336	1
TAP	72	0	0
HLD	72	0	1	96
XTP	72	48	2
TAP	72	72	3
TAP	72	96	4
TAP	72	144	0
TAP	72	192	2
TAP	72	240	3
TAP	72	288	4
STR	72	336	1
SI_	72	336	1	96	48	6
STR	72	336	5
SI_	72	336	5	96	48	2
STR	73	48	1
SCL	73	48	1	96	144	5
TAP	73	48	5
XTP	73	144	1
XHO	73	144	4	96
TTP	73	288	5	E	0	M1
TTP	73	304	4	B	0	M1
TTP	73	304	4	E	0	M1
TTP	73	320	3	B	0	M1
TTP	73	320	3	E	0	M1
TTP	73	336	2	B	0	M1
TTP	73	336	2	E	0	M1
TTP	73	352	1	B	0	M1
TTP	73	352	1	E	0	M1
TTP	73	368	0	B	0	M1
TTP	73	368	0	E	0	M1
TTP	74	0	7	B	0	M1
TTP	74	0	7	E	0	M1
TAP	74	96	2
TAP	74	96	5
TAP	74	192	2
TAP	74	192	4
TAP	74	240	3
STR	74	288	5
SI_	74	288	5	96	48	1
TAP	74	312	4
TAP	74	336	6
TAP	75	0	0
TAP	75	0	5
XTP	75	48	2
TAP	75	72	3
TAP	75	96	4
TAP	75	144	7
TAP	75	192	3
TAP	75	192	5
TAP	75	240	4
STR	75	288	2
SI_	75	288	2	96	48	6
TAP	75	312	3
TAP	75	336	1
TAP	76	0	2
TAP	76	0	7
XTP	76	48	5
TAP	76	72	4
TAP	76	96	3
TAP	76	144	0
TAP	76	192	2
TAP	76	192	3
TAP	76	240	4
STR	76	288	5
SUR	76	288	5	96	48	1
TAP	76	312	4
TAP	76	336	6
TAP	77	0	1
TAP	77	0	5
XTP	77	48	3
TAP	77	72	4
TAP	77	96	5
TAP	77	144	7
TAP	77	192	4
TAP	77	192	5
TAP	77	240	3
STR	77	288	2
SUL	77	288	2	96	48	6
TAP	77	312	3
TAP	77	336	1
TAP	78	0	2
TAP	78	0	6
XTP	78	48	4
TAP	78	72	3
TAP	78	96	2
TAP	78	144	0
TAP	78	192	6
TAP	78	240	7
TAP	78	264	7
TAP	78	288	0
TAP	78	312	6
TAP	78	336	0
TAP	78	360	6
TAP	79	0	1
TAP	79	24	5
TAP	79	48	1
TAP	79	72	5
TAP	79	96	2
TAP	79	120	4
TAP	79	144	2
BRK	79	192	5
TAP	79	192	7
TAP	79	264	0
BRK	79	264	2
STR	79	336	1
SCL	79	336	1	96	48	4
BST	79	336	6
SCR	79	336	6	96	48	3
TAP	80	192	1
TAP	80	192	5
TAP	80	240	2
TAP	80	240	6
TAP	80	288	3
TAP	80	288	7
STR	80	336	0
SI_	80	336	0	96	48	5
STR	80	336	4
SI_	80	336	4	96	48	1
TAP	81	48	0
STR	81	48	4
SF_	81	48	4	96	48	0
BRK	81	144	4
XTP	81	256	0
XTP	81	272	7
XTP	81	288	0
XTP	81	304	7
XTP	81	320	0
XTP	81	336	7
XTP	81	352	0
XTP	81	368	7
XTP	82	0	0
XTP	82	16	7
XTP	82	32	0
XTP	82	48	7
XTP	82	64	0
XTP	82	80	7
XTP	82	96	0
BST	82	192	7
SI_	82	192	7	96	48	3
TAP	82	240	2
TAP	82	264	2
STR	82	288	7
SI_	82	288	7	96	48	5
TAP	82	336	1
TAP	82	360	1
TAP	83	0	7
STR	83	48	0
SF_	83	48	0	96	48	4
TAP	83	72	0
TAP	83	240	7
TAP	83	288	0
TAP	83	288	6
TAP	83	336	1
TAP	83	336	5
HLD	84	0	2	48
TAP	84	0	4
TAP	84	48	3
TAP	84	72	3
TAP	84	120	1
TAP	84	144	1
BST	84	192	0
SI_	84	192	0	96	48	4
TAP	84	240	5
TAP	84	264	5
STR	84	288	0
SI_	84	288	0	96	48	2
TAP	84	336	6
TAP	84	360	6
TAP	85	0	0
STR	85	48	7
SF_	85	48	7	96	48	3
TAP	85	72	7
TAP	85	240	0
TAP	85	288	1
TAP	85	288	7
TAP	85	336	2
TAP	85	336	6
HLD	86	0	3	48
HLD	86	0	4	48
HLD	86	72	0	48
HLD	86	72	7	48
TAP	86	144	1
TAP	86	144	6
BST	86	192	7
SI_	86	192	7	96	48	3
TAP	86	240	2
TAP	86	264	2
STR	86	288	7
SCL	86	288	7	96	48	3
TAP	86	336	0
TAP	86	360	0
TAP	87	0	7
STR	87	48	0
SF_	87	48	0	96	48	4
TAP	87	72	0
TAP	87	240	7
TAP	87	288	0
TAP	87	288	6
TAP	87	336	1
TAP	87	336	5
HLD	88	0	2	48
TAP	88	0	4
TAP	88	48	3
TAP	88	72	3
TAP	88	120	1
TAP	88	144	1
BST	88	192	0
SI_	88	192	0	96	48	4
TAP	88	240	5
TAP	88	264	5
STR	88	288	0
SCR	88	288	0	96	48	4
TAP	88	336	7
TAP	88	360	7
TAP	89	0	0
STR	89	48	7
SF_	89	48	7	96	48	3
TAP	89	72	7
TAP	89	240	1
TAP	89	240	5
TAP	89	288	1
TAP	89	288	5
TAP	89	336	3
TAP	89	336	7
TAP	90	0	3
TAP	90	0	7
STR	90	48	2
SXR	90	48	2	96	48	3
STR	90	48	6
SXR	90	48	6	96	48	7
TAP	90	72	2
TAP	90	72	6

T_REC_TAP	453
T_REC_BRK	11
T_REC_XTP	52
T_REC_HLD	50
T_REC_XHO	2
T_REC_STR	60
T_REC_BST	9
T_REC_XST	3
T_REC_TTP	123
T_REC_THO	2
T_REC_SLD	72
T_REC_ALL	837
T_NUM_TAP	691
T_NUM_BRK	20
T_NUM_HLD	54
T_NUM_SLD	72
T_NUM_ALL	837
T_JUDGE_TAP	711
T_JUDGE_HLD	135
T_JUDGE_SLD	72
T_JUDGE_ALL	918
TTM_EACHPAIRS	101
TTM_SCR_TAP	345500
TTM_SCR_BRK	52000
TTM_SCR_HLD	54000
TTM_SCR_SLD	108000
TTM_SCR_ALL	559500
TTM_SCR_S	540800
TTM_SCR_SS	557500
TTM_RAT_ACV	10035

