VERSION	0.00.00	1.03.00
FES_MODE	0
BPM_DEF	160.000	160.000	160.000	160.000
MET_DEF	4	4
RESOLUTION	384
CLK_DEF	384
COMPATIBLE_CODE	MA2

BPM	0	0	160.000
MET	0	0	4	4
MET	66	0	4	2
MET	66	192	4	4

HLD	1	0	3	384
TAP	1	192	2
HLD	2	0	4	192
TAP	2	192	5
TAP	2	264	4
TAP	2	336	3
HLD	3	0	3	384
TAP	3	192	2
HLD	4	0	4	192
TAP	4	192	5
TAP	4	264	4
TAP	4	336	3
HLD	5	0	3	384
TAP	5	192	2
HLD	6	0	4	192
TAP	6	192	5
TAP	6	264	4
TAP	6	336	3
HLD	7	0	3	384
TAP	7	192	2
HLD	8	0	4	192
XTP	8	192	5
XTP	8	264	3
XTP	8	264	4
XTP	8	336	2
XTP	8	336	3
XTP	9	0	2
XTP	9	0	3
TAP	9	96	1
TAP	9	96	4
HLD	9	192	6	72
HLD	9	264	5	72
TAP	9	336	4
TAP	10	48	1
TAP	10	48	3
TAP	10	96	1
STR	10	96	3
SI_	10	96	3	96	48	7
TAP	10	288	0
TAP	10	288	6
TAP	11	0	4
TAP	11	0	5
TAP	11	96	3
TAP	11	96	6
HLD	11	192	1	72
HLD	11	264	2	72
TAP	11	336	3
TAP	12	48	4
TAP	12	48	6
STR	12	96	4
SI_	12	96	4	96	48	0
TAP	12	96	6
TAP	12	288	1
TAP	12	288	7
TAP	13	0	2
TAP	13	0	3
TAP	13	96	1
TAP	13	96	4
HLD	13	192	6	72
HLD	13	264	5	72
TAP	13	336	4
TAP	14	48	1
TAP	14	48	3
STR	14	96	1
SI_	14	96	1	96	48	5
TAP	14	96	3
TAP	14	288	4
TAP	14	288	6
XTP	15	0	0
XST	15	0	7
SCL	15	0	7	96	48	4
XST	15	192	2
SCL	15	192	2	96	48	7
XTP	15	192	3
XST	16	0	5
SCL	16	0	5	96	48	2
XTP	16	0	6
XTP	16	192	0
XTP	16	192	7
XTP	16	264	1
XTP	16	264	6
BRK	16	336	2
BRK	16	336	5
TAP	17	288	7
TAP	17	336	6
TAP	18	0	0
HLD	18	0	5	144
TAP	18	144	4
TAP	18	192	4
TAP	18	192	5
STR	18	264	2
SUR	18	264	2	96	216	4
TAP	18	264	3
HLD	18	336	6	240
TAP	19	288	0
TAP	19	336	1
HLD	20	0	2	144
TAP	20	0	7
TAP	20	144	3
TAP	20	192	2
TAP	20	192	3
TAP	20	264	4
STR	20	264	5
SUL	20	264	5	96	216	3
HLD	20	336	1	240
TAP	21	288	7
TAP	21	336	6
TAP	22	0	0
HLD	22	0	5	144
TAP	22	144	4
TAP	22	192	4
TAP	22	192	5
TAP	22	264	2
STR	22	264	3
SUR	22	264	3	96	216	4
HLD	22	336	0	240
TAP	23	288	5
TAP	23	336	6
TAP	24	0	7
TAP	24	48	0
TAP	24	96	1
TAP	24	144	2
STR	24	144	5
SCL	24	144	5	96	48	2
XHO	24	336	0	192
XHO	24	336	7	192
BRK	25	192	1
BRK	25	192	6
TAP	25	288	0
TAP	25	336	1
HLD	26	0	2	144
TAP	26	0	7
TAP	26	144	3
TAP	26	192	2
TAP	26	192	3
TAP	26	264	4
STR	26	264	5
SUL	26	264	5	96	216	3
HLD	26	336	1	240
TAP	27	288	7
TAP	27	336	6
TAP	28	0	0
HLD	28	0	5	144
TAP	28	144	4
TAP	28	192	4
TAP	28	192	5
STR	28	264	2
SUR	28	264	2	96	216	4
TAP	28	264	3
HLD	28	336	6	240
TAP	29	288	0
TAP	29	336	1
HLD	30	0	2	144
TAP	30	0	7
TAP	30	144	3
TAP	30	192	1
TAP	30	192	3
TAP	30	264	4
TAP	30	264	6
TAP	30	336	0
TAP	30	336	7
XTP	31	0	0
XTP	31	0	7
XTP	31	72	3
XTP	31	72	4
BRK	31	144	1
BRK	31	144	6
TAP	31	288	2
TAP	31	336	1
TAP	32	0	0
TAP	32	48	7
TAP	32	96	6
STR	32	144	2
SCL	32	144	2	96	192	5
TAP	32	144	5
THO	32	336	0	432	C	1	M1
TTP	34	192	1	E	0	M1
TTP	34	288	0	E	0	M1
HLD	35	0	6	192
TTP	35	192	5	E	0	M1
TTP	35	288	4	E	0	M1
HLD	36	0	2	192
TTP	36	192	1	E	0	M1
TTP	36	288	0	E	0	M1
TTP	37	0	7	E	0	M1
TTP	37	96	2	E	0	M1
TTP	37	192	6	E	0	M1
TTP	37	288	3	E	0	M1
HLD	38	0	5	192
TTP	38	192	7	E	0	M1
TTP	38	288	0	E	0	M1
HLD	39	0	1	192
TTP	39	192	3	E	0	M1
TTP	39	288	4	E	0	M1
HLD	40	0	5	192
TTP	40	192	7	E	0	M1
TTP	40	288	0	E	0	M1
XTP	41	0	1
XTP	41	0	6
XTP	41	72	0
XTP	41	72	7
XTP	41	144	3
XTP	41	144	4
STR	42	0	2
SCR	42	0	2	96	48	5
TAP	42	144	6
STR	42	192	6
SUL	42	192	6	96	48	2
TAP	42	336	1
STR	43	0	1
SCR	43	0	1	96	96	5
TAP	43	240	6
TAP	43	288	6
TAP	43	336	4
STR	44	0	5
SCL	44	0	5	96	48	2
TAP	44	144	1
STR	44	192	1
SUR	44	192	1	96	48	5
TAP	44	336	6
STR	45	0	6
SCL	45	0	6	96	96	2
TAP	45	240	1
TAP	45	288	1
TAP	45	336	3
STR	46	0	2
SI_	46	0	2	96	48	7
TAP	46	240	6
TAP	46	288	6
TAP	46	336	4
STR	47	0	5
SI_	47	0	5	96	48	0
TAP	47	240	1
TAP	47	288	1
TAP	47	336	3
STR	48	0	2
SCR	48	0	2	96	48	5
TAP	48	144	6
STR	48	192	6
SUL	48	192	6	96	48	2
TAP	48	336	1
STR	49	0	1
SCL	49	0	1	96	48	6
STR	49	192	4
SCL	49	192	4	96	48	1
SCR	49	192	4	96	48	6
BRK	50	0	0
BRK	50	0	7
TAP	50	96	2
TAP	50	96	5
TAP	50	192	1
TAP	50	240	1
TAP	50	288	0
TAP	50	288	2
TAP	51	0	4
TAP	51	48	4
TAP	51	96	3
TAP	51	144	3
TAP	51	192	6
TAP	51	240	6
TAP	51	288	5
TAP	51	288	7
TAP	52	0	2
TAP	52	48	2
TAP	52	96	3
TAP	52	144	1
TAP	52	192	5
TAP	52	240	5
TAP	52	288	4
TAP	52	336	6
HLD	53	0	3	72
TTP	53	72	4	E	0	M1
TTP	53	120	0	C	1	M1
TTP	53	168	0	E	0	M1
TAP	54	0	1
TAP	54	48	3
TAP	54	96	2
TAP	54	144	6
TAP	54	192	4
TAP	54	240	5
TAP	54	288	0
TAP	54	336	7
TAP	55	0	2
TAP	55	48	3
TAP	55	96	1
TAP	55	144	5
TAP	55	192	4
TAP	55	240	6
TAP	55	288	0
TAP	55	288	7
TAP	56	0	2
TAP	56	0	4
TAP	56	96	5
TAP	56	144	4
TAP	56	192	3
TAP	56	240	2
TAP	56	288	3
TAP	56	288	5
HLD	57	0	4	72
XTP	57	72	3
XTP	57	120	4
XTP	57	168	1
XTP	57	168	5
TAP	57	288	2
TAP	57	288	6
TAP	58	0	5
TAP	58	48	5
TAP	58	96	3
TAP	58	144	4
TAP	58	192	4
TAP	58	240	2
TAP	58	288	1
TAP	58	288	3
TAP	59	0	2
TAP	59	48	2
TAP	59	96	4
TAP	59	144	3
TAP	59	192	3
TAP	59	240	5
TAP	59	288	4
TAP	59	288	6
TAP	60	0	2
STR	60	0	7
SCR	60	0	7	96	48	2
XTP	60	168	0
TAP	60	288	2
TAP	60	288	7
STR	61	0	0
SCL	61	0	0	96	48	5
TAP	61	0	5
XTP	61	168	7
TAP	61	288	0
TAP	61	288	5
XHO	62	0	2	72
XHO	62	72	3	72
XHO	62	144	4	72
XHO	62	216	5	72
TAP	62	288	1
TAP	62	336	4
TAP	63	0	3
TAP	63	48	6
TAP	63	96	0
TAP	63	96	7
XHO	63	168	2	120
XHO	63	168	5	120
HLD	64	0	0	72
HLD	64	72	1	72
TAP	64	144	2
HLD	64	192	7	72
HLD	64	264	6	72
TAP	64	336	5
XHO	65	0	1	96
XHO	65	0	3	96
XHO	65	144	4	96
XHO	65	144	6	96
BRK	65	288	0
BRK	65	288	7
TAP	66	96	0
TAP	66	96	1
TAP	66	144	0
TAP	66	144	1
HLD	66	192	2	144
TAP	66	192	7
TAP	66	336	3
TAP	67	0	1
TAP	67	0	4
TAP	67	72	3
STR	67	72	6
SXL	67	72	6	96	216	3
HLD	67	144	1	240
TAP	68	96	6
TAP	68	96	7
TAP	68	144	6
TAP	68	144	7
TAP	68	192	0
HLD	68	192	5	144
TAP	68	336	4
TAP	69	0	3
TAP	69	0	6
STR	69	72	1
SXR	69	72	1	96	216	4
TAP	69	72	4
HLD	69	144	6	240
TAP	70	96	0
TAP	70	96	1
TAP	70	144	0
TAP	70	144	1
HLD	70	192	2	144
TAP	70	192	7
TAP	70	336	3
TAP	71	0	1
TAP	71	0	4
STR	71	72	3
SCL	71	72	3	96	216	4
TAP	71	72	6
HLD	71	144	7	240
TAP	72	96	2
TAP	72	144	1
TAP	72	192	0
TAP	72	240	7
TAP	72	288	6
STR	72	336	2
SCR	72	336	2	96	48	5
TAP	72	336	5
XHO	73	144	0	192
XHO	73	144	7	192
BRK	74	0	1
BRK	74	0	6
TAP	74	96	6
TAP	74	96	7
TAP	74	144	6
TAP	74	144	7
TAP	74	192	0
HLD	74	192	5	144
TAP	74	336	4
TAP	75	0	3
TAP	75	0	6
STR	75	72	1
SXR	75	72	1	96	216	4
TAP	75	72	4
HLD	75	144	6	240
TAP	76	96	0
TAP	76	96	1
TAP	76	144	0
TAP	76	144	1
HLD	76	192	2	144
TAP	76	192	7
TAP	76	336	3
TAP	77	0	1
TAP	77	0	4
TAP	77	72	3
STR	77	72	6
SXL	77	72	6	96	216	3
HLD	77	144	1	240
TAP	78	96	6
TAP	78	96	7
TAP	78	144	6
TAP	78	144	7
TAP	78	192	0
HLD	78	192	5	144
TAP	78	336	4
TAP	79	0	3
TAP	79	0	6
TAP	79	72	1
TAP	79	72	4
TAP	79	144	0
TAP	79	144	7
XTP	79	192	0
XTP	79	192	7
XTP	79	264	3
XTP	79	264	4
BRK	79	336	1
BRK	79	336	6
TAP	80	96	5
TAP	80	144	6
TAP	80	192	7
TAP	80	240	0
TAP	80	288	1
TAP	80	336	2
STR	80	336	5
SXR	80	336	5	96	288	2
HLD	81	144	0	336
BRK	82	96	7
STR	82	192	1
SCR	82	192	1	96	48	4
TAP	82	192	6
TAP	82	288	5
HLD	83	0	7	72
HLD	83	72	6	72
TAP	83	144	5
TAP	83	240	1
TAP	83	240	4
TAP	83	288	2
TAP	83	336	3
TAP	84	0	1
HLD	84	0	4	72
HLD	84	72	5	72
TAP	84	144	6
STR	84	192	6
SCL	84	192	6	96	48	3
TAP	84	288	2
HLD	85	0	0	72
HLD	85	72	1	72
TAP	85	144	2
TAP	85	240	3
TAP	85	240	6
TAP	85	288	5
TAP	85	336	4
HLD	86	0	3	72
TAP	86	0	6
HLD	86	72	2	72
TAP	86	144	1
STR	86	192	1
SI_	86	192	1	96	48	5
TAP	86	288	6
HLD	87	0	7	72
HLD	87	72	6	72
TAP	87	144	5
TAP	87	240	1
TAP	87	240	4
TAP	87	288	2
TAP	87	336	3
TAP	88	0	1
HLD	88	0	4	72
HLD	88	72	5	72
TAP	88	144	6
STR	88	192	6
SI_	88	192	6	96	48	2
TAP	88	288	1
HLD	89	0	0	72
HLD	89	72	1	72
TAP	89	144	2
TAP	89	240	3
TAP	89	240	6
TAP	89	288	5
TAP	89	336	4
BRK	90	0	3
BRK	90	0	6
BRK	90	72	1
BRK	90	72	4
BRK	90	144	0
BRK	90	144	7

T_REC_TAP	294
T_REC_BRK	21
T_REC_XTP	34
T_REC_HLD	62
T_REC_XHO	14
T_REC_STR	35
T_REC_BST	0
T_REC_XST	3
T_REC_TTP	19
T_REC_THO	1
T_REC_SLD	39
T_REC_ALL	522
T_NUM_TAP	385
T_NUM_BRK	21
T_NUM_HLD	77
T_NUM_SLD	39
T_NUM_ALL	522
T_JUDGE_TAP	406
T_JUDGE_HLD	260
T_JUDGE_SLD	39
T_JUDGE_ALL	705
TTM_EACHPAIRS	121
TTM_SCR_TAP	192500
TTM_SCR_BRK	54600
TTM_SCR_HLD	77000
TTM_SCR_SLD	58500
TTM_SCR_ALL	382600
TTM_SCR_S	369100
TTM_SCR_SS	380500
TTM_RAT_ACV	10055

