VERSION	0.00.00	1.03.00
FES_MODE	0
BPM_DEF	160.000	160.000	160.000	160.000
MET_DEF	4	4
RESOLUTION	384
CLK_DEF	384
COMPATIBLE_CODE	MA2

BPM	0	0	160.000
MET	0	0	4	4
MET	66	0	4	2
MET	66	192	4	4

HLD	1	0	6	384
HLD	2	0	7	384
HLD	3	0	0	384
TAP	4	0	1
HLD	5	0	2	384
HLD	6	0	3	384
HLD	7	0	4	384
TAP	8	0	5
TAP	8	192	4
TAP	8	192	5
TAP	9	0	6
TAP	9	96	6
TAP	9	192	7
XTP	10	0	1
TAP	10	96	1
TAP	10	192	0
TAP	11	0	6
TAP	11	96	6
TAP	11	192	7
TAP	12	0	0
TAP	12	96	0
TAP	12	192	1
TAP	12	192	7
XTP	13	0	2
TAP	13	96	2
TAP	13	192	3
TAP	14	0	5
TAP	14	96	5
TAP	14	192	4
TAP	15	0	2
TAP	15	96	2
TAP	15	192	3
HLD	16	0	4	192
XTP	16	192	3
XTP	16	264	3
XTP	16	264	4
XTP	16	336	3
XTP	16	336	4
TAP	18	0	2
TAP	18	96	2
TAP	18	192	2
TAP	18	192	3
STR	18	288	2
SCL	18	288	2	96	144	7
TAP	18	288	3
TAP	20	0	6
TAP	20	96	6
TAP	20	192	6
TAP	20	192	7
STR	20	288	6
SCL	20	288	6	96	144	3
TAP	20	288	7
TAP	22	0	2
TAP	22	96	2
TAP	22	192	2
TAP	22	192	3
STR	22	288	2
SCL	22	288	2	96	144	7
TAP	22	288	3
TAP	24	0	6
TAP	24	96	6
STR	24	192	0
SCR	24	192	0	96	240	5
TAP	24	192	7
TAP	26	0	6
TAP	26	96	6
TAP	26	192	6
TAP	26	192	7
STR	26	288	6
SI_	26	288	6	96	144	3
TAP	26	288	7
TAP	28	0	2
TAP	28	96	2
TAP	28	192	2
TAP	28	192	3
STR	28	288	2
SI_	28	288	2	96	144	7
TAP	28	288	3
TAP	30	0	6
TAP	30	96	6
TAP	30	192	6
TAP	30	192	7
STR	30	288	6
SI_	30	288	6	96	144	2
TAP	30	288	7
HLD	32	0	0	192
TAP	32	192	7
TAP	32	288	0
TAP	32	288	7
BST	32	336	0
SI_	32	336	0	96	144	3
BST	32	336	7
SI_	32	336	7	96	144	4
HLD	34	0	5	192
TAP	34	192	4
TAP	34	288	3
HLD	35	0	2	192
TAP	35	192	3
TAP	35	288	4
HLD	36	0	5	192
TAP	36	192	4
TAP	36	288	3
TAP	37	0	2
TAP	37	96	2
TAP	37	96	3
TAP	37	192	1
TAP	37	192	4
HLD	38	0	1	192
TAP	38	192	0
TAP	38	288	7
HLD	39	0	6	192
TAP	39	192	7
TAP	39	288	0
HLD	40	0	1	192
TAP	40	192	0
TAP	40	288	0
TAP	40	288	7
HLD	41	0	1	144
HLD	41	0	6	144
STR	42	0	5
SCR	42	0	5	96	144	0
STR	43	0	1
SUR	43	0	1	96	144	5
STR	44	0	6
SUL	44	0	6	96	144	2
TAP	45	0	1
TAP	45	96	1
TAP	45	192	0
TAP	45	192	1
STR	46	0	0
SI_	46	0	0	96	144	5
STR	46	0	1
SI_	46	0	1	96	144	4
STR	47	0	6
SI_	47	0	6	96	144	3
STR	47	0	7
SI_	47	0	7	96	144	2
TAP	48	0	1
TAP	48	96	1
TAP	48	192	0
TAP	48	192	1
TAP	49	0	7
TAP	49	96	7
XTP	49	192	0
XTP	49	192	6
TTP	50	0	6	E	0	L1
TTP	50	96	5	B	0	L1
TTP	50	192	4	B	0	L1
TTP	51	0	2	E	0	L1
TTP	51	96	2	B	0	L1
TTP	51	192	3	B	0	L1
TTP	52	0	6	B	0	L1
TTP	52	96	5	B	0	L1
TTP	52	192	4	B	0	L1
TTP	52	288	3	B	0	L1
TTP	53	0	2	B	0	L1
TTP	53	96	1	B	0	L1
TTP	53	192	1	E	0	L1
TTP	54	0	7	B	0	L1
TTP	54	0	7	E	0	L1
TTP	54	192	5	B	0	L1
TTP	54	192	5	E	0	L1
TTP	55	0	3	E	0	L1
TTP	55	96	2	B	0	L1
TTP	55	192	1	B	0	L1
TTP	56	0	6	B	0	L1
TTP	56	96	7	B	0	L1
TTP	56	192	0	B	0	L1
TTP	56	288	1	B	0	L1
TTP	57	0	2	B	0	L1
TTP	57	96	3	B	0	L1
TTP	57	192	0	C	0	L1
XST	58	0	0
SI_	58	0	0	96	144	4
STR	59	0	5
SI_	59	0	5	96	144	0
STR	60	0	1
SI_	60	0	1	96	144	5
TAP	61	0	6
TAP	61	96	6
TAP	61	192	7
TAP	61	288	7
STR	62	0	0
SCR	62	0	0	96	144	3
STR	63	0	4
SCR	63	0	4	96	144	7
TAP	64	0	0
TAP	64	96	0
TAP	64	192	7
TAP	64	288	7
XTP	65	0	0
XTP	65	0	7
XTP	65	144	0
XTP	65	144	7
XTP	65	288	0
XTP	65	288	7
BRK	66	192	6
TAP	66	288	6
TAP	67	0	6
TAP	67	0	7
TAP	67	96	6
TAP	67	96	7
TAP	67	192	5
TAP	67	288	4
TAP	68	0	3
TAP	68	0	5
TAP	68	192	2
TAP	68	288	2
TAP	69	0	2
TAP	69	0	3
TAP	69	96	2
TAP	69	96	3
TAP	69	192	1
TAP	69	288	0
TAP	70	0	0
TAP	70	0	7
TAP	70	192	1
TAP	70	288	1
TAP	71	0	0
TAP	71	0	1
TAP	71	96	0
TAP	71	96	1
TAP	71	192	2
TAP	71	288	3
TAP	72	0	2
TAP	72	0	4
TAP	72	192	5
TAP	72	288	5
STR	73	0	3
SI_	73	0	3	96	144	0
STR	73	0	4
SI_	73	0	4	96	144	7
BRK	74	192	1
TAP	74	288	1
TAP	75	0	0
TAP	75	0	1
TAP	75	96	0
TAP	75	96	1
TAP	75	192	2
TAP	75	288	3
TAP	76	0	2
TAP	76	0	4
TAP	76	192	5
TAP	76	288	5
TAP	77	0	4
TAP	77	0	5
TAP	77	96	4
TAP	77	96	5
TAP	77	192	6
TAP	77	288	7
TAP	78	0	0
TAP	78	0	7
TAP	78	192	6
TAP	78	288	6
TAP	79	0	6
TAP	79	0	7
TAP	79	96	6
TAP	79	96	7
XTP	79	192	5
XTP	79	288	3
XTP	79	288	4
XTP	80	0	2
XTP	80	0	5
HLD	80	192	3	192
TAP	81	0	4
TAP	81	96	3
TAP	81	96	4
BST	81	144	3
SCL	81	144	3	96	144	0
BST	81	144	4
SCR	81	144	4	96	144	7
XTP	82	192	6
TAP	82	288	6
TAP	83	0	6
TAP	83	0	7
TAP	83	192	1
TAP	83	288	1
XTP	84	0	0
XTP	84	0	1
TAP	84	192	2
TAP	84	288	2
TAP	85	0	2
TAP	85	0	3
TAP	85	192	4
TAP	85	192	5
TAP	85	288	4
TAP	85	288	5
TAP	86	0	4
TAP	86	0	5
XTP	86	192	6
TAP	86	288	6
TAP	87	0	6
TAP	87	0	7
TAP	87	192	1
TAP	87	288	1
TAP	88	0	0
TAP	88	0	1
TAP	88	192	6
TAP	88	288	6
TAP	89	0	6
TAP	89	0	7
HLD	89	192	0	192
TAP	90	0	7
XTP	90	72	0
XTP	90	72	7
XTP	90	144	0
XTP	90	144	7

T_REC_TAP	182
T_REC_BRK	2
T_REC_XTP	28
T_REC_HLD	18
T_REC_XHO	0
T_REC_STR	20
T_REC_BST	4
T_REC_XST	1
T_REC_TTP	27
T_REC_THO	0
T_REC_SLD	25
T_REC_ALL	307
T_NUM_TAP	258
T_NUM_BRK	6
T_NUM_HLD	18
T_NUM_SLD	25
T_NUM_ALL	307
T_JUDGE_TAP	264
T_JUDGE_HLD	94
T_JUDGE_SLD	25
T_JUDGE_ALL	383
TTM_EACHPAIRS	64
TTM_SCR_TAP	129000
TTM_SCR_BRK	15600
TTM_SCR_HLD	18000
TTM_SCR_SLD	37500
TTM_SCR_ALL	200100
TTM_SCR_S	193550
TTM_SCR_SS	199500
TTM_RAT_ACV	10030

