VERSION	0.00.00	1.03.00
FES_MODE	0
BPM_DEF	160.000	160.000	160.000	160.000
MET_DEF	4	4
RESOLUTION	384
CLK_DEF	384
COMPATIBLE_CODE	MA2

BPM	0	0	160.000
MET	0	0	4	4
MET	66	0	4	2
MET	66	192	4	4

TAP	5	0	0
TAP	7	0	7
TAP	9	0	0
TAP	10	0	1
TAP	11	0	2
TAP	12	0	3
TAP	13	0	4
TAP	14	0	5
TAP	15	0	6
HLD	16	0	0	336
HLD	16	0	7	336
XTP	18	0	7
TAP	18	192	7
TAP	19	0	7
TAP	20	0	6
TAP	20	192	6
TAP	21	0	6
TAP	22	0	5
TAP	22	192	5
TAP	23	0	5
TAP	24	0	4
TAP	24	192	4
XTP	25	0	3
XTP	25	0	4
XTP	26	0	3
TAP	26	192	3
TAP	27	0	3
TAP	28	0	2
TAP	28	192	2
TAP	29	0	2
TAP	30	0	1
TAP	30	192	1
TAP	31	0	1
HLD	32	0	0	336
HLD	32	0	7	336
STR	34	0	0
SI_	34	0	0	96	288	3
STR	36	0	7
SI_	36	0	7	96	288	4
STR	38	0	0
SI_	38	0	0	96	288	4
TAP	40	0	5
TAP	40	192	5
BRK	41	0	3
BRK	41	0	4
TTP	42	0	4	B	0	L1
TTP	43	0	5	B	0	L1
TTP	44	0	6	B	0	L1
TTP	45	0	7	B	0	L1
TTP	46	0	0	B	0	L1
TTP	47	0	1	B	0	L1
TTP	48	0	2	B	0	L1
TTP	49	0	0	C	0	L1
TAP	50	0	0
TAP	50	192	0
TAP	51	0	1
TAP	52	0	2
TAP	52	192	2
TAP	53	0	3
TAP	53	0	4
TAP	54	0	4
TAP	54	192	4
TAP	55	0	5
TAP	56	0	6
TAP	56	192	6
TAP	57	0	0
TAP	57	0	7
TAP	58	0	7
TAP	58	192	7
TAP	59	0	6
TAP	59	0	7
TAP	60	0	5
TAP	60	192	5
TAP	61	0	4
TAP	61	0	5
TAP	62	0	3
TAP	62	192	3
TAP	63	0	2
TAP	63	0	3
TAP	64	0	1
TAP	64	192	1
BRK	65	0	0
BRK	65	0	7
TAP	66	192	0
TAP	67	0	0
TAP	67	192	1
TAP	68	0	1
TAP	68	192	2
TAP	69	0	2
XTP	69	192	3
XTP	69	192	4
TAP	70	192	4
TAP	71	0	4
TAP	71	192	5
TAP	72	0	5
TAP	72	192	6
TAP	73	0	6
XTP	73	192	0
XTP	73	192	7
TAP	74	192	7
TAP	75	0	7
TAP	75	192	6
TAP	76	0	6
TAP	76	192	5
TAP	77	0	5
TAP	77	192	3
TAP	77	192	4
TAP	78	0	3
TAP	78	0	4
TAP	78	192	2
TAP	79	0	2
TAP	79	192	1
TAP	80	0	1
HLD	80	192	0	336
HLD	80	192	7	336
BRK	82	192	0
TAP	82	288	0
TAP	83	0	0
TAP	83	192	1
TAP	84	0	1
TAP	84	192	2
TAP	84	288	2
TAP	85	0	2
TAP	85	192	3
TAP	85	192	4
TAP	86	0	3
TAP	86	0	4
TAP	86	192	5
TAP	86	288	5
TAP	87	0	5
TAP	87	192	6
TAP	88	0	6
TAP	88	192	7
TAP	88	288	7
TAP	89	0	7
STR	89	96	0
SI_	89	96	0	96	336	3
STR	89	96	7
SI_	89	96	7	96	336	4

T_REC_TAP	102
T_REC_BRK	5
T_REC_XTP	8
T_REC_HLD	6
T_REC_XHO	0
T_REC_STR	5
T_REC_BST	0
T_REC_XST	0
T_REC_TTP	8
T_REC_THO	0
T_REC_SLD	5
T_REC_ALL	139
T_NUM_TAP	123
T_NUM_BRK	5
T_NUM_HLD	6
T_NUM_SLD	5
T_NUM_ALL	139
T_JUDGE_TAP	128
T_JUDGE_HLD	42
T_JUDGE_SLD	5
T_JUDGE_ALL	175
TTM_EACHPAIRS	18
TTM_SCR_TAP	61500
TTM_SCR_BRK	13000
TTM_SCR_HLD	6000
TTM_SCR_SLD	7500
TTM_SCR_ALL	88000
TTM_SCR_S	84900
TTM_SCR_SS	87500
TTM_RAT_ACV	10057

