VERSION	0.00.00	1.03.00
FES_MODE	0
BPM_DEF	150.000	150.000	150.000	150.000
MET_DEF	4	4
RESOLUTION	384
CLK_DEF	384
COMPATIBLE_CODE	MA2

BPM	0	0	150.000
MET	0	0	4	4
MET	1	0	4	5
MET	11	0	4	4
MET	83	0	4	5

TAP	1	0	6
TAP	1	48	5
TAP	1	96	4
TAP	1	144	3
STR	1	192	2
SSL	1	192	2	96	128	6
TAP	1	240	1
TAP	2	96	1
TAP	2	144	2
TAP	2	192	3
TAP	2	240	4
STR	2	288	5
SSR	2	288	5	96	128	1
TAP	2	336	6
TAP	3	192	6
TAP	3	240	5
TAP	3	288	4
TAP	3	336	3
STR	4	0	2
SXL	4	0	2	96	128	0
TAP	4	48	1
TAP	4	288	1
TAP	4	336	2
TAP	5	0	3
TAP	5	48	4
STR	5	96	5
SXR	5	96	5	96	128	7
TAP	5	144	6
TAP	6	0	2
TAP	6	48	1
TAP	6	96	0
TAP	6	144	7
STR	6	192	6
SUL	6	192	6	96	128	4
TAP	6	240	5
TAP	7	96	5
TAP	7	144	6
TAP	7	192	7
TAP	7	240	0
STR	7	288	1
SUR	7	288	1	96	128	3
TAP	7	336	2
TAP	8	192	2
TAP	8	240	1
TAP	8	288	0
TAP	8	336	7
STR	9	0	6
SXL	9	0	6	96	128	2
SXL	9	0	6	96	128	4
TAP	9	48	5
TAP	9	288	5
TAP	9	336	6
TAP	10	0	7
TAP	10	48	0
STR	10	96	1
SXR	10	96	1	96	128	3
SXR	10	96	1	96	128	5
TAP	10	144	2
STR	11	0	4
SI_	11	0	4	96	24	2
TAP	11	96	5
STR	11	192	6
SI_	11	192	6	96	24	4
TAP	11	288	7
STR	12	0	0
SI_	12	0	0	96	24	6
TAP	12	96	1
STR	12	192	2
SI_	12	192	2	96	24	0
TAP	12	288	3
TAP	13	0	5
STR	13	48	5
SI_	13	48	5	96	48	7
TAP	13	144	4
TAP	13	192	3
STR	13	240	2
SI_	13	240	2	96	48	0
TAP	13	336	3
TAP	14	0	4
STR	14	48	5
SI_	14	48	5	96	48	7
TAP	14	144	4
TAP	14	192	3
STR	14	240	2
SI_	14	240	2	96	48	0
TAP	14	336	5
TAP	15	0	6
STR	15	48	7
SI_	15	48	7	96	48	5
TAP	15	144	2
TAP	15	192	1
STR	15	240	0
SI_	15	240	0	96	48	2
TAP	15	336	5
TAP	16	0	6
STR	16	48	7
SI_	16	48	7	96	48	5
TAP	16	144	2
TAP	16	192	1
STR	16	240	0
SI_	16	240	0	96	48	2
TAP	16	336	3
TAP	17	0	4
STR	17	48	5
SI_	17	48	5	96	48	7
TAP	17	144	4
TAP	17	192	3
STR	17	240	2
SI_	17	240	2	96	48	0
TAP	17	336	3
TAP	18	0	4
STR	18	48	5
SI_	18	48	5	96	48	7
TAP	18	144	4
TAP	18	192	3
STR	18	240	2
SI_	18	240	2	96	48	0
TAP	18	336	6
STR	19	0	7
SCL	19	0	7	96	96	4
TAP	19	96	0
STR	19	192	1
SCL	19	192	1	96	96	6
TAP	19	288	2
STR	20	0	3
SCL	20	0	3	96	96	0
TAP	20	96	4
STR	20	192	5
SCL	20	192	5	96	96	2
TAP	20	288	6
STR	21	0	7
SCL	21	0	7	96	96	4
TAP	21	96	0
STR	21	192	1
SCL	21	192	1	96	96	6
TAP	21	288	2
TAP	22	0	3
TAP	22	96	4
TAP	22	192	3
TAP	22	192	5
STR	23	0	0
SCR	23	0	0	96	96	3
TAP	23	96	7
STR	23	192	6
SCR	23	192	6	96	96	1
TAP	23	288	5
STR	24	0	4
SCR	24	0	4	96	96	7
TAP	24	96	3
STR	24	192	2
SCR	24	192	2	96	96	5
TAP	24	288	1
STR	25	0	0
SCR	25	0	0	96	96	3
TAP	25	96	7
STR	25	192	6
SCR	25	192	6	96	96	1
TAP	25	288	5
TAP	26	0	4
TAP	26	96	3
TAP	26	192	2
TAP	26	192	4
STR	27	0	1
SCL	27	0	1	96	48	6
STR	27	0	5
SCL	27	0	5	96	48	2
STR	27	192	3
SCR	27	192	3	96	48	6
STR	27	192	7
SCR	27	192	7	96	48	2
STR	28	0	1
SCR	28	0	1	96	48	4
STR	28	0	5
SCR	28	0	5	96	48	0
STR	28	96	1
SUR	28	96	1	96	48	5
STR	28	288	0
SCL	28	288	0	96	96	4
STR	29	0	4
SCL	29	0	4	96	96	0
STR	29	96	0
SCL	29	96	0	96	96	4
STR	29	192	4
SCL	29	192	4	96	96	0
STR	29	288	0
SUL	29	288	0	96	96	4
STR	30	0	4
SUL	30	0	4	96	96	0
STR	30	96	0
SCL	30	96	0	96	96	4
SCR	30	96	0	96	96	4
STR	31	0	2
SI_	31	0	2	96	48	5
STR	31	0	6
SI_	31	0	6	96	48	1
STR	31	192	0
SI_	31	192	0	96	48	5
STR	31	192	4
SI_	31	192	4	96	48	1
STR	32	0	2
SI_	32	0	2	96	48	7
STR	32	0	6
SI_	32	0	6	96	48	3
STR	32	96	6
SXR	32	96	6	96	96	7
STR	33	0	0
SCR	33	0	0	96	48	3
STR	33	96	0
SCL	33	96	0	96	48	5
STR	33	192	0
SI_	33	192	0	96	48	4
STR	33	288	0
SCL	33	288	0	96	192	1
TTP	34	0	0	C	1	M1
STR	35	0	1
SCR	35	0	1	96	24	3
STR	35	0	5
SCR	35	0	5	96	24	7
STR	35	192	3
SCL	35	192	3	96	24	1
STR	35	192	7
SCL	35	192	7	96	24	5
STR	36	0	1
SCR	36	0	1	96	24	3
STR	36	0	5
SCR	36	0	5	96	24	7
STR	36	96	5
SUL	36	96	5	96	48	1
STR	36	288	7
SI_	36	288	7	96	48	3
STR	37	0	0
SI_	37	0	0	96	48	4
STR	37	96	1
SI_	37	96	1	96	48	5
STR	37	192	2
SI_	37	192	2	96	48	6
STR	37	288	3
SI_	37	288	3	96	48	7
STR	38	0	4
SI_	38	0	4	96	48	0
STR	38	96	5
SI_	38	96	5	96	48	1
TAP	38	192	6
STR	39	0	7
SUL	39	0	7	96	48	3
TAP	39	96	3
STR	39	192	0
SUR	39	192	0	96	48	4
TAP	39	288	4
STR	40	0	7
SUL	40	0	7	96	48	3
TAP	40	96	3
STR	40	192	0
SI_	40	192	0	96	48	3
TAP	40	288	5
STR	41	0	6
SCR	41	0	6	96	96	2
STR	41	96	2
SCR	41	96	2	96	96	6
STR	41	192	6
SCR	41	192	6	96	96	2
STR	41	288	2
SXL	41	288	2	96	192	3
SLL	41	288	2	96	192	3
TAP	43	0	2
TAP	43	32	3
TAP	43	64	4
STR	43	96	2
SCR	43	96	2	96	96	5
STR	43	128	3
SCR	43	128	3	96	96	6
STR	43	160	4
SCR	43	160	4	96	96	7
TAP	44	0	2
TAP	44	32	3
TAP	44	64	4
STR	44	96	2
SCR	44	96	2	96	96	5
STR	44	128	3
SCR	44	128	3	96	96	6
STR	44	160	4
SCR	44	160	4	96	96	7
TAP	45	0	5
TAP	45	32	4
TAP	45	64	3
STR	45	96	5
SCL	45	96	5	96	96	2
STR	45	128	4
SCL	45	128	4	96	96	1
STR	45	160	3
SCL	45	160	3	96	96	0
TAP	46	0	5
TAP	46	32	4
TAP	46	64	3
STR	46	96	5
SCL	46	96	5	96	96	2
STR	46	128	4
SCL	46	128	4	96	96	1
STR	46	160	3
SCL	46	160	3	96	96	0
TAP	47	0	2
TAP	47	32	3
TAP	47	64	4
STR	47	96	2
SCR	47	96	2	96	96	5
STR	47	128	3
SCR	47	128	3	96	96	6
STR	47	160	4
SCR	47	160	4	96	96	7
TAP	48	0	2
TAP	48	32	3
TAP	48	64	4
STR	48	96	2
SCR	48	96	2	96	96	5
STR	48	128	3
SCR	48	128	3	96	96	6
STR	48	160	4
SCR	48	160	4	96	96	7
TAP	49	0	5
TAP	49	32	4
TAP	49	64	3
STR	49	96	5
SCL	49	96	5	96	96	2
STR	49	128	4
SCL	49	128	4	96	96	1
STR	49	160	3
SCL	49	160	3	96	96	0
TAP	50	0	5
TAP	50	32	4
TAP	50	64	3
STR	50	96	5
SCL	50	96	5	96	96	2
STR	50	128	4
SCL	50	128	4	96	96	1
STR	50	160	3
SCL	50	160	3	96	96	0
TAP	51	0	6
TAP	51	32	6
STR	51	96	7
SI_	51	96	7	96	96	3
TAP	51	128	7
TAP	51	192	3
STR	51	288	4
SI_	51	288	4	96	96	0
TAP	51	320	4
TAP	52	0	0
STR	52	96	1
SCR	52	96	1	96	96	5
TAP	52	128	1
TAP	52	192	5
STR	52	288	6
SI_	52	288	6	96	96	2
TAP	52	320	6
TAP	53	0	2
STR	53	96	3
SI_	53	96	3	96	96	7
TAP	53	128	3
TAP	53	192	7
STR	53	288	0
SI_	53	288	0	96	96	4
TAP	53	320	0
TAP	54	0	4
STR	54	96	5
SCR	54	96	5	96	96	1
TAP	54	128	5
TAP	54	192	1
STR	54	288	2
SI_	54	288	2	96	96	6
TAP	54	320	2
TAP	55	0	6
STR	55	96	7
SI_	55	96	7	96	96	3
TAP	55	128	7
TAP	55	192	3
STR	55	288	4
SI_	55	288	4	96	96	0
TAP	55	320	4
TAP	56	0	0
STR	56	96	1
SCR	56	96	1	96	96	5
TAP	56	128	1
TAP	56	192	5
STR	56	288	6
SI_	56	288	6	96	96	2
TAP	56	320	6
TAP	57	0	2
STR	57	96	3
SI_	57	96	3	96	96	7
TAP	57	128	3
TAP	57	192	7
STR	57	288	0
SI_	57	288	0	96	96	4
TAP	57	320	0
TAP	58	0	4
STR	58	96	5
SCR	58	96	5	96	96	1
TAP	58	128	5
BRK	58	192	1
BRK	58	264	3
BRK	58	336	5
STR	59	0	5
SI_	59	0	5	96	24	3
TAP	59	96	6
STR	59	192	7
SI_	59	192	7	96	24	5
TAP	59	288	0
STR	60	0	1
SI_	60	0	1	96	24	7
TAP	60	96	2
STR	60	192	3
SI_	60	192	3	96	24	1
TAP	60	288	4
STR	61	0	5
SI_	61	0	5	96	24	3
TAP	61	96	6
STR	61	192	7
SI_	61	192	7	96	24	5
TAP	61	288	0
STR	62	0	1
SI_	62	0	1	96	24	7
TAP	62	96	2
STR	62	192	3
SI_	62	192	3	96	24	1
TAP	62	288	4
STR	63	0	5
SV_	63	0	5	96	48	3
STR	63	48	5
SI_	63	48	5	96	24	7
STR	63	192	2
SV_	63	192	2	96	48	4
STR	63	240	2
SI_	63	240	2	96	24	0
STR	64	0	5
SV_	64	0	5	96	48	3
STR	64	48	5
SI_	64	48	5	96	24	7
STR	64	192	2
SV_	64	192	2	96	48	4
STR	64	240	2
SI_	64	240	2	96	24	0
STR	65	0	6
SV_	65	0	6	96	48	3
STR	65	48	6
SI_	65	48	6	96	24	4
STR	65	192	1
SV_	65	192	1	96	48	4
STR	65	240	1
SI_	65	240	1	96	24	3
STR	66	0	6
SV_	66	0	6	96	48	3
STR	66	48	6
SI_	66	48	6	96	24	4
BRK	66	192	0
STR	67	0	7
SCL	67	0	7	96	48	4
STR	67	96	7
SCR	67	96	7	96	48	2
STR	67	192	3
SI_	67	192	3	96	48	7
TAP	67	192	7
STR	67	288	3
SCL	67	288	3	96	48	0
SCR	67	288	3	96	48	6
STR	68	0	3
SXR	68	0	3	96	144	0
TAP	68	96	3
STR	68	96	7
SI_	68	96	7	96	48	4
STR	68	192	7
SCR	68	192	7	96	48	2
STR	68	288	7
SCL	68	288	7	96	48	4
STR	69	0	1
SI_	69	0	1	96	48	6
TAP	69	0	7
TAP	69	96	1
STR	69	96	5
SI_	69	96	5	96	48	2
STR	69	192	1
SI_	69	192	1	96	48	4
TAP	69	192	5
TAP	69	288	1
STR	69	288	5
SI_	69	288	5	96	48	0
STR	70	0	2
SCR	70	0	2	96	48	5
TAP	70	0	5
TAP	70	96	2
STR	70	96	7
SLL	70	96	7	96	96	3
SLR	70	96	7	96	96	3
TAP	70	192	7
STR	71	0	0
SCR	71	0	0	96	48	3
STR	71	96	0
SCL	71	96	0	96	48	5
TAP	71	192	0
STR	71	192	4
SI_	71	192	4	96	48	0
STR	71	288	4
SCL	71	288	4	96	48	1
SCR	71	288	4	96	48	7
STR	72	0	4
SXL	72	0	4	96	144	7
STR	72	96	0
SI_	72	96	0	96	48	3
TAP	72	96	4
STR	72	192	0
SI_	72	192	0	96	48	4
STR	72	288	0
SCR	72	288	0	96	48	3
TAP	73	0	0
STR	73	0	6
SI_	73	0	6	96	24	4
STR	73	96	1
SI_	73	96	1	96	24	3
TAP	73	96	6
TAP	73	192	1
STR	73	192	7
SI_	73	192	7	96	48	3
STR	73	288	0
SCR	73	288	0	96	192	7
TAP	73	288	7
TAP	74	0	0
TTP	74	0	0	C	1	M1
STR	75	0	6
SV_	75	0	6	96	48	0
STR	75	96	6
SI_	75	96	6	96	24	4
STR	75	192	3
SXR	75	192	3	96	48	1
TAP	75	192	6
STR	75	288	3
SI_	75	288	3	96	48	7
TAP	76	0	3
STR	76	0	5
SXR	76	0	5	96	96	5
STR	76	96	0
SI_	76	96	0	96	48	6
TAP	76	96	5
STR	76	192	0
SI_	76	192	0	96	24	2
STR	76	288	0
SI_	76	288	0	96	48	4
TAP	77	0	0
STR	77	0	6
SCR	77	0	6	96	48	1
STR	77	96	6
SLL	77	96	6	96	48	2
STR	77	192	0
SXR	77	192	0	96	48	6
TAP	77	192	6
STR	77	288	0
SV_	77	288	0	96	48	2
STR	78	0	0
SCL	78	0	0	96	48	5
TAP	78	96	0
STR	78	96	4
SSL	78	96	4	96	96	0
TAP	78	192	4
STR	79	0	1
SV_	79	0	1	96	48	7
STR	79	96	1
SI_	79	96	1	96	24	3
TAP	79	192	1
STR	79	192	4
SXL	79	192	4	96	48	6
STR	79	288	4
SI_	79	288	4	96	48	0
STR	80	0	2
SXL	80	0	2	96	96	2
TAP	80	0	4
TAP	80	96	2
STR	80	96	7
SI_	80	96	7	96	48	1
STR	80	192	7
SI_	80	192	7	96	24	5
STR	80	288	7
SI_	80	288	7	96	48	2
STR	81	0	3
SCL	81	0	3	96	48	0
TAP	81	0	7
STR	81	96	3
SLR	81	96	3	96	48	7
STR	81	192	0
SI_	81	192	0	96	48	3
TAP	81	192	3
STR	81	288	0
SCL	81	288	0	96	192	1
XTP	82	0	0
TTP	82	0	0	C	1	M1
TAP	83	0	6
TAP	83	48	5
TAP	83	96	4
STR	83	144	3
SI_	83	144	3	96	48	7
STR	83	192	2
SXR	83	192	2	96	128	4
TAP	83	240	1
TAP	84	96	1
TAP	84	144	2
TAP	84	192	3
STR	84	240	4
SI_	84	240	4	96	48	0
STR	84	288	5
SXL	84	288	5	96	128	3
TAP	84	336	6
TAP	85	192	6
TAP	85	240	5
TAP	85	288	4
STR	85	336	3
SI_	85	336	3	96	48	6
STR	86	0	2
SXL	86	0	2	96	128	7
TAP	86	48	1
TAP	86	288	1
TAP	86	336	2
TAP	87	0	3
STR	87	48	4
SI_	87	48	4	96	48	1
STR	87	96	5
SXR	87	96	5	96	128	0
TAP	87	144	6
TAP	88	0	2
TAP	88	48	1
TAP	88	96	0
STR	88	144	7
SI_	88	144	7	96	48	4
STR	88	192	6
SUR	88	192	6	96	128	1
TAP	88	240	5
TAP	89	96	5
TAP	89	144	6
TAP	89	192	7
STR	89	240	0
SI_	89	240	0	96	48	3
STR	89	288	1
SUL	89	288	1	96	128	6
TAP	89	336	2
TAP	90	192	2
TAP	90	240	1
TAP	90	288	0
STR	90	336	7
SI_	90	336	7	96	48	4
STR	91	0	6
SUR	91	0	6	96	128	1
TAP	91	48	5
TAP	91	288	5
TAP	91	336	6
TAP	92	0	7
TAP	92	48	0
STR	92	96	1
SCL	92	96	1	96	144	5
TAP	92	144	2
TAP	92	144	4
BRK	92	192	5
BRK	92	264	3
BRK	92	336	1

T_REC_TAP	218
T_REC_BRK	7
T_REC_XTP	1
T_REC_HLD	0
T_REC_XHO	0
T_REC_STR	211
T_REC_BST	0
T_REC_XST	0
T_REC_TTP	3
T_REC_THO	0
T_REC_SLD	218
T_REC_ALL	658
T_NUM_TAP	433
T_NUM_BRK	7
T_NUM_HLD	0
T_NUM_SLD	218
T_NUM_ALL	658
T_JUDGE_TAP	440
T_JUDGE_HLD	0
T_JUDGE_SLD	218
T_JUDGE_ALL	658
TTM_EACHPAIRS	37
TTM_SCR_TAP	216500
TTM_SCR_BRK	18200
TTM_SCR_HLD	0
TTM_SCR_SLD	327000
TTM_SCR_ALL	561700
TTM_SCR_S	544200
TTM_SCR_SS	561000
TTM_RAT_ACV	10012

