VERSION	0.00.00	1.03.00
FES_MODE	0
BPM_DEF	150.000	150.000	150.000	150.000
MET_DEF	4	4
RESOLUTION	384
CLK_DEF	384
COMPATIBLE_CODE	MA2

BPM	0	0	150.000
MET	0	0	4	4
MET	1	0	4	5
MET	11	0	4	4
MET	83	0	4	5

HLD	1	0	3	96
HLD	1	144	3	96
HLD	1	288	3	96
HLD	2	96	4	96
HLD	2	240	4	96
HLD	3	0	4	96
HLD	3	192	3	96
HLD	3	336	3	96
HLD	4	96	3	96
HLD	4	288	4	96
HLD	5	48	4	96
HLD	5	192	4	96
HLD	6	0	5	96
HLD	6	144	5	96
HLD	6	288	4	96
HLD	6	288	5	96
HLD	7	96	2	96
HLD	7	240	2	96
HLD	8	0	2	96
HLD	8	0	3	96
HLD	8	192	5	96
HLD	8	336	5	96
HLD	9	96	4	96
HLD	9	96	6	96
HLD	9	288	2	96
HLD	10	48	2	96
HLD	10	192	1	96
HLD	10	192	3	96
TAP	11	0	1
TAP	11	96	2
TAP	11	192	3
HLD	11	288	4	192
TAP	12	0	2
TAP	12	96	3
TAP	12	192	4
HLD	12	288	5	192
TAP	13	0	3
TAP	13	96	4
TAP	13	192	5
HLD	13	288	6	192
TAP	14	0	4
TAP	14	96	5
TAP	14	192	6
TAP	14	288	7
HLD	15	0	6	192
TAP	15	96	7
HLD	15	192	5	192
TAP	15	288	4
HLD	16	0	3	192
TAP	16	96	2
HLD	16	192	1	192
TAP	16	288	0
HLD	17	0	2	192
TAP	17	96	3
HLD	17	192	4	192
TAP	17	288	5
TAP	18	0	6
TAP	18	96	4
TAP	18	96	6
TAP	18	192	3
TAP	18	192	7
HLD	19	0	3	192
TAP	19	0	4
TAP	19	96	2
HLD	19	192	4	192
TAP	19	288	5
HLD	20	0	2	192
TAP	20	96	1
HLD	20	192	5	192
TAP	20	288	6
HLD	21	0	1	192
TAP	21	96	2
HLD	21	192	6	192
TAP	21	288	7
HLD	22	0	0	96
TAP	22	96	1
TAP	22	192	2
TAP	22	192	7
TAP	23	0	0
HLD	23	0	7	192
TAP	23	96	6
HLD	23	192	0	192
TAP	23	288	1
HLD	24	0	6	192
TAP	24	96	5
HLD	24	192	1	192
TAP	24	288	2
HLD	25	0	5	192
TAP	25	96	6
HLD	25	192	2	192
TAP	25	288	3
HLD	26	0	4	96
TAP	26	96	5
TAP	26	192	3
TAP	26	192	6
STR	27	0	7
SCL	27	0	7	96	96	4
STR	27	96	0
SCR	27	96	0	96	96	3
TAP	27	288	4
STR	28	0	3
SCL	28	0	3	96	96	0
STR	28	96	4
SCR	28	96	4	96	96	7
TAP	28	288	0
STR	29	0	1
SCR	29	0	1	96	96	4
STR	29	96	0
SCL	29	96	0	96	96	5
TAP	29	288	4
TAP	30	0	4
TAP	30	0	5
TAP	30	96	4
TAP	30	96	5
TAP	30	192	2
TAP	30	192	6
TAP	31	0	1
STR	31	0	3
SCR	31	0	3	96	96	6
STR	31	96	2
SCL	31	96	2	96	96	7
TAP	31	288	6
STR	32	0	5
SCR	32	0	5	96	96	0
STR	32	96	4
SCL	32	96	4	96	96	1
TAP	32	288	0
STR	33	0	7
SCL	33	0	7	96	96	4
STR	33	96	3
SCL	33	96	3	96	96	0
STR	33	288	4
SXL	33	288	4	96	240	1
BRK	34	0	0
STR	35	0	0
SCR	35	0	0	96	96	3
STR	35	96	7
SCL	35	96	7	96	96	4
TAP	35	288	3
STR	36	0	2
SCL	36	0	2	96	96	7
STR	36	96	3
SCR	36	96	3	96	96	6
TAP	36	288	7
STR	37	0	6
SCL	37	0	6	96	96	3
STR	37	96	7
SCR	37	96	7	96	96	2
TAP	37	288	3
TAP	38	0	2
TAP	38	0	3
TAP	38	96	2
TAP	38	96	3
TAP	38	192	1
TAP	38	192	5
TAP	39	0	2
STR	39	0	7
SCL	39	0	7	96	96	4
STR	39	96	3
SCL	39	96	3	96	96	0
TAP	39	288	4
STR	40	0	0
SCR	40	0	0	96	96	3
STR	40	96	7
SCL	40	96	7	96	96	4
TAP	40	288	3
STR	41	0	2
SCL	41	0	2	96	96	7
STR	41	96	6
SCL	41	96	6	96	96	3
STR	41	288	7
SXR	41	288	7	96	240	2
BRK	42	0	3
HLD	43	0	1	1152
HLD	43	0	3	384
THO	45	0	0	1152	C	0	M1
XTP	46	336	0
XHO	47	0	0	1152
XHO	49	0	7	864
HLD	51	0	6	288
HLD	51	192	5	288
HLD	52	0	4	96
HLD	52	192	4	96
HLD	52	192	5	96
HLD	53	0	3	288
HLD	53	0	4	96
HLD	53	192	2	288
HLD	54	0	1	96
TAP	54	192	1
TAP	54	192	2
HLD	55	0	0	96
HLD	55	0	1	480
HLD	55	192	2	96
HLD	56	0	0	96
TAP	56	192	0
TAP	56	192	1
HLD	57	0	6	480
HLD	57	0	7	96
HLD	57	192	5	96
HLD	58	0	7	96
BRK	58	192	0
HLD	59	0	3	192
TAP	59	0	4
TTP	59	96	2	B	0	M1
HLD	59	192	4	192
TTP	59	288	5	B	0	M1
HLD	60	0	2	192
TTP	60	96	1	B	0	M1
HLD	60	192	5	192
TTP	60	288	6	B	0	M1
HLD	61	0	1	192
TTP	61	96	2	B	0	M1
HLD	61	192	6	192
TTP	61	288	7	B	0	M1
HLD	62	0	1	192
TTP	62	96	0	E	0	M1
TTP	62	192	0	C	0	M1
TAP	63	0	0
HLD	63	0	7	192
TTP	63	96	6	B	0	M1
HLD	63	192	0	192
TTP	63	288	1	B	0	M1
HLD	64	0	6	192
TTP	64	96	5	B	0	M1
HLD	64	192	1	192
TTP	64	288	2	B	0	M1
HLD	65	0	5	192
TTP	65	96	6	B	0	M1
HLD	65	192	2	192
TTP	65	288	2	B	0	M1
HLD	66	0	4	96
TTP	66	96	5	B	0	M1
TTP	66	192	0	C	0	M1
TTP	66	192	1	B	0	M1
TTP	66	192	2	B	0	M1
STR	67	0	6
SCL	67	0	6	96	96	3
STR	67	96	2
SCL	67	96	2	96	96	7
HLD	67	288	3	96
STR	68	0	7
SCR	68	0	7	96	96	2
STR	68	96	4
SCR	68	96	4	96	96	7
HLD	68	288	2	96
STR	69	0	0
SCL	69	0	0	96	96	5
STR	69	96	4
SCL	69	96	4	96	96	1
TAP	69	288	5
TAP	70	0	2
TAP	70	0	4
TAP	70	96	3
TAP	70	96	5
TAP	70	192	1
TAP	70	192	7
STR	71	0	0
SCR	71	0	0	96	96	3
TAP	71	0	6
STR	71	96	5
SCR	71	96	5	96	96	0
HLD	71	288	3	96
STR	72	0	0
SCL	72	0	0	96	96	5
STR	72	96	4
SCL	72	96	4	96	96	1
HLD	72	288	5	96
STR	73	0	7
SCR	73	0	7	96	96	2
STR	73	96	4
SCR	73	96	4	96	96	7
STR	73	288	2
SXR	73	288	2	96	240	7
BRK	74	0	7
STR	75	0	7
SCL	75	0	7	96	96	4
STR	75	96	2
SCL	75	96	2	96	96	7
HLD	75	288	4	96
STR	76	0	7
SCR	76	0	7	96	96	2
STR	76	96	3
SCR	76	96	3	96	96	6
HLD	76	288	2	96
STR	77	0	1
SCL	77	0	1	96	96	6
STR	77	96	5
SCL	77	96	5	96	96	2
TAP	77	288	5
TAP	78	0	1
TAP	78	0	5
TAP	78	96	1
TAP	78	96	5
TAP	78	192	3
TAP	78	192	7
STR	79	0	0
SUR	79	0	0	96	96	4
STR	79	96	5
SCR	79	96	5	96	96	0
HLD	79	288	4	96
STR	80	0	0
SUL	80	0	0	96	96	4
STR	80	96	3
SCL	80	96	3	96	96	0
HLD	80	288	4	96
STR	81	0	7
SCR	81	0	7	96	96	2
STR	81	96	3
SUR	81	96	3	96	96	7
STR	81	288	2
SXL	81	288	2	96	240	7
BRK	82	0	7
HLD	83	0	4	96
HLD	83	0	5	96
HLD	83	144	5	96
HLD	83	144	7	96
HLD	83	288	5	96
HLD	83	288	6	96
HLD	84	96	0	96
HLD	84	96	1	96
HLD	84	240	1	96
HLD	84	240	3	96
HLD	85	0	1	96
HLD	85	0	2	96
HLD	85	192	4	96
HLD	85	192	6	96
HLD	85	336	5	96
HLD	85	336	6	96
HLD	86	96	5	96
HLD	86	96	7	96
HLD	86	288	0	96
HLD	86	288	2	96
HLD	87	48	1	96
HLD	87	48	2	96
HLD	87	192	1	96
HLD	87	192	3	96
HLD	88	0	0	96
HLD	88	96	3	48
HLD	88	144	2	96
HLD	88	240	0	144
HLD	88	288	1	96
HLD	89	96	7	96
HLD	89	192	4	48
HLD	89	240	5	96
HLD	89	336	7	144
HLD	90	0	6	96
HLD	90	192	5	96
HLD	90	288	4	48
HLD	90	336	7	96
HLD	91	48	6	144
HLD	91	96	5	96
HLD	91	288	0	96
HLD	92	0	2	48
HLD	92	48	3	96
HLD	92	144	1	48
BRK	92	192	2
BRK	92	264	0
BRK	92	264	7
BRK	92	336	1
BRK	92	336	5

T_REC_TAP	89
T_REC_BRK	10
T_REC_XTP	1
T_REC_HLD	135
T_REC_XHO	2
T_REC_STR	52
T_REC_BST	0
T_REC_XST	0
T_REC_TTP	18
T_REC_THO	1
T_REC_SLD	52
T_REC_ALL	360
T_NUM_TAP	160
T_NUM_BRK	10
T_NUM_HLD	138
T_NUM_SLD	52
T_NUM_ALL	360
T_JUDGE_TAP	170
T_JUDGE_HLD	462
T_JUDGE_SLD	52
T_JUDGE_ALL	684
TTM_EACHPAIRS	48
TTM_SCR_TAP	80000
TTM_SCR_BRK	26000
TTM_SCR_HLD	138000
TTM_SCR_SLD	78000
TTM_SCR_ALL	322000
TTM_SCR_S	311400
TTM_SCR_SS	321000
TTM_RAT_ACV	10031

