VERSION	0.00.00	1.03.00
FES_MODE	0
BPM_DEF	150.000	150.000	150.000	150.000
MET_DEF	4	4
RESOLUTION	384
CLK_DEF	384
COMPATIBLE_CODE	MA2

BPM	0	0	150.000
MET	0	0	4	4
MET	1	0	4	5
MET	11	0	4	4
MET	83	0	4	5

HLD	1	0	2	288
TAP	1	288	3
TAP	2	0	4
HLD	2	96	5	288
TAP	3	0	4
TAP	3	96	3
HLD	3	192	2	288
TAP	4	96	3
TAP	4	192	4
HLD	4	288	5	288
TAP	5	192	4
TAP	5	288	3
TAP	6	0	2
TAP	6	96	2
TAP	6	192	2
TAP	6	192	3
HLD	6	288	2	96
HLD	6	288	3	96
TAP	7	96	5
TAP	7	192	5
TAP	7	288	4
TAP	7	288	5
HLD	8	0	4	96
HLD	8	0	5	96
TAP	8	192	2
TAP	8	288	2
TAP	9	0	2
TAP	9	0	3
HLD	9	96	2	96
HLD	9	96	3	96
TAP	9	288	5
TAP	10	0	5
TAP	10	96	3
TAP	10	96	4
BRK	10	192	2
BRK	10	192	5
HLD	11	0	1	192
HLD	11	192	0	192
HLD	12	0	7	192
TAP	12	192	6
TAP	13	0	5
TAP	13	96	5
TAP	13	192	4
TAP	13	192	5
TAP	14	0	2
TAP	14	96	2
TAP	14	192	2
TAP	14	192	3
TAP	15	0	1
TAP	15	96	1
TAP	15	192	0
TAP	15	192	1
TAP	16	0	6
TAP	16	96	6
TAP	16	192	6
TAP	16	192	7
TAP	17	0	1
TAP	17	96	1
TAP	17	192	0
TAP	17	192	1
TAP	18	0	7
TAP	18	96	7
TAP	18	192	0
TAP	18	192	6
TAP	19	0	5
TAP	19	96	5
TAP	19	192	4
TAP	19	288	4
TAP	20	0	3
TAP	20	96	3
TAP	20	192	2
TAP	20	192	4
TAP	21	0	1
TAP	21	96	1
TAP	21	192	0
TAP	21	288	0
TAP	22	0	7
TAP	22	96	7
TAP	22	192	0
TAP	22	192	7
TAP	23	0	6
TAP	23	96	6
TAP	23	192	7
TAP	23	288	7
TAP	24	0	0
TAP	24	96	0
TAP	24	192	1
TAP	24	192	7
TAP	25	0	2
TAP	25	96	2
TAP	25	192	3
TAP	25	288	3
TAP	26	0	4
TAP	26	96	3
TAP	26	96	4
TAP	26	192	2
TAP	26	192	5
BRK	27	0	6
TAP	27	96	6
TAP	27	192	6
TAP	27	192	7
TAP	27	288	6
TAP	27	288	7
TAP	28	0	1
TAP	28	96	1
TAP	28	192	0
TAP	28	192	1
TAP	28	288	0
TAP	28	288	1
TAP	29	0	2
TAP	29	96	2
TAP	29	192	3
TAP	29	288	3
TAP	30	0	4
TAP	30	96	4
TAP	30	192	3
TAP	30	192	5
TAP	31	0	2
TAP	31	96	2
TAP	31	192	2
TAP	31	192	3
TAP	31	288	2
TAP	31	288	3
TAP	32	0	5
TAP	32	96	5
TAP	32	192	4
TAP	32	192	5
TAP	32	288	4
TAP	32	288	5
TAP	33	0	6
TAP	33	96	7
TAP	33	192	0
TAP	33	288	1
STR	34	0	0
SCR	34	0	0	96	144	3
STR	34	0	7
SCL	34	0	7	96	144	4
BRK	35	0	5
TAP	35	96	5
TAP	35	192	4
TAP	35	192	5
TAP	35	288	4
TAP	35	288	5
TAP	36	0	2
TAP	36	96	2
TAP	36	192	2
TAP	36	192	3
TAP	36	288	2
TAP	36	288	3
TAP	37	0	1
TAP	37	96	1
TAP	37	192	0
TAP	37	288	0
TAP	38	0	7
TAP	38	96	7
TAP	38	192	0
TAP	38	192	6
TAP	39	0	1
TAP	39	96	1
TAP	39	192	0
TAP	39	192	1
TAP	39	288	0
TAP	39	288	1
TAP	40	0	6
TAP	40	96	6
TAP	40	192	6
TAP	40	192	7
TAP	40	288	6
TAP	40	288	7
TAP	41	0	5
TAP	41	96	4
TAP	41	192	3
TAP	41	288	2
BST	42	0	3
SCL	42	0	3	96	144	0
BST	42	0	4
SCR	42	0	4	96	144	7
THO	43	0	0	1152	C	0	L1
XST	47	0	0
SXL	47	0	0	96	480	3
XST	47	0	7
SXR	47	0	7	96	480	4
XST	49	0	2
SI_	49	0	2	96	192	5
XST	50	0	6
SI_	50	0	6	96	192	2
STR	51	0	1
SCR	51	0	1	96	144	4
TAP	52	0	5
TAP	52	96	5
TAP	52	192	4
TAP	52	192	5
STR	53	0	6
SCL	53	0	6	96	144	3
TAP	54	0	2
TAP	54	96	2
TAP	54	192	2
TAP	54	192	3
STR	55	0	2
SCL	55	0	2	96	144	7
TAP	56	0	6
TAP	56	96	6
TAP	56	192	6
TAP	56	192	7
STR	57	0	5
SCR	57	0	5	96	144	0
TAP	58	0	1
TAP	58	96	1
BRK	58	192	0
BRK	58	192	7
TTP	59	0	6	E	0	L1
TTP	59	96	5	B	0	L1
TTP	59	192	4	B	0	L1
TTP	60	0	2	E	0	L1
TTP	60	96	2	B	0	L1
TTP	60	192	3	B	0	L1
TTP	61	0	6	B	0	L1
TTP	61	96	5	B	0	L1
TTP	61	192	5	E	0	L1
TTP	62	0	1	B	0	L1
TTP	62	96	2	B	0	L1
TTP	62	192	3	E	0	L1
TTP	63	0	6	E	0	L1
TTP	63	96	6	B	0	L1
TTP	63	192	7	B	0	L1
TTP	64	0	2	E	0	L1
TTP	64	96	1	B	0	L1
TTP	64	192	0	B	0	L1
TTP	65	0	5	B	0	L1
TTP	65	96	6	B	0	L1
TTP	65	192	7	E	0	L1
TTP	66	0	2	B	0	L1
TTP	66	96	1	B	0	L1
TTP	66	192	1	E	0	L1
BRK	67	0	2
TAP	67	96	2
TAP	67	96	3
TAP	67	192	2
TAP	67	288	2
TAP	67	288	3
TAP	68	0	5
TAP	68	96	4
TAP	68	96	5
TAP	68	192	5
TAP	68	288	4
TAP	68	288	5
TAP	69	0	6
TAP	69	96	6
TAP	69	192	7
TAP	69	288	7
TAP	70	0	0
TAP	70	96	0
TAP	70	192	1
TAP	70	192	7
TAP	71	0	6
TAP	71	96	6
TAP	71	96	7
TAP	71	192	6
TAP	71	288	6
TAP	71	288	7
TAP	72	0	1
TAP	72	96	0
TAP	72	96	1
TAP	72	192	1
TAP	72	288	0
TAP	72	288	1
TAP	73	0	2
TAP	73	96	3
TAP	73	192	4
TAP	73	288	5
STR	74	0	3
SI_	74	0	3	96	144	0
STR	74	0	4
SI_	74	0	4	96	144	7
BRK	75	0	1
TAP	75	96	0
TAP	75	96	1
TAP	75	192	1
TAP	75	288	0
TAP	75	288	1
TAP	76	0	6
TAP	76	96	6
TAP	76	96	7
TAP	76	192	6
TAP	76	288	6
TAP	76	288	7
TAP	77	0	5
TAP	77	96	5
TAP	77	192	4
TAP	77	288	4
TAP	78	0	3
TAP	78	96	3
TAP	78	192	2
TAP	78	192	4
TAP	79	0	5
TAP	79	96	4
TAP	79	96	5
TAP	79	192	5
TAP	79	288	4
TAP	79	288	5
TAP	80	0	2
TAP	80	96	2
TAP	80	96	3
TAP	80	192	2
TAP	80	288	2
TAP	80	288	3
TAP	81	0	1
TAP	81	96	0
TAP	81	192	7
TAP	81	288	6
BST	82	0	0
SI_	82	0	0	96	144	3
BST	82	0	7
SI_	82	0	7	96	144	4
XTP	83	0	5
TAP	83	96	5
TAP	83	192	4
TAP	83	192	5
HLD	83	288	4	96
HLD	83	288	5	96
XTP	84	96	2
TAP	84	192	2
TAP	84	288	2
TAP	84	288	3
HLD	85	0	2	96
HLD	85	0	3	96
XTP	85	192	1
TAP	85	288	1
TAP	86	0	0
TAP	86	0	1
HLD	86	96	0	96
HLD	86	96	1	96
XTP	86	288	6
TAP	87	0	6
TAP	87	96	0
TAP	87	96	7
BRK	87	192	1
BRK	87	192	6
XTP	88	0	5
TAP	88	96	4
TAP	88	192	3
HLD	88	288	2	96
HLD	88	288	4	96
XTP	89	96	2
TAP	89	192	3
TAP	89	288	4
HLD	90	0	3	96
HLD	90	0	5	96
XTP	90	192	6
TAP	90	288	7
TAP	91	0	0
HLD	91	96	1	96
HLD	91	96	7	96
XTP	91	288	0
TAP	92	0	7
TAP	92	96	0
TAP	92	96	7
HLD	92	192	1	144
HLD	92	192	6	144

T_REC_TAP	257
T_REC_BRK	10
T_REC_XTP	8
T_REC_HLD	27
T_REC_XHO	0
T_REC_STR	8
T_REC_BST	4
T_REC_XST	4
T_REC_TTP	24
T_REC_THO	1
T_REC_SLD	16
T_REC_ALL	359
T_NUM_TAP	301
T_NUM_BRK	14
T_NUM_HLD	28
T_NUM_SLD	16
T_NUM_ALL	359
T_JUDGE_TAP	315
T_JUDGE_HLD	102
T_JUDGE_SLD	16
T_JUDGE_ALL	433
TTM_EACHPAIRS	77
TTM_SCR_TAP	150500
TTM_SCR_BRK	36400
TTM_SCR_HLD	28000
TTM_SCR_SLD	24000
TTM_SCR_ALL	238900
TTM_SCR_S	230400
TTM_SCR_SS	237500
TTM_RAT_ACV	10058

