VERSION	0.00.00	1.03.00
FES_MODE	0
BPM_DEF	150.000	150.000	150.000	150.000
MET_DEF	4	4
RESOLUTION	384
CLK_DEF	384
COMPATIBLE_CODE	MA2

BPM	0	0	150.000
MET	0	0	4	4
MET	1	0	4	5
MET	11	0	4	4
MET	83	0	4	5

HLD	6	0	0	480
HLD	8	192	7	480
TAP	11	0	0
TAP	12	0	0
TAP	13	0	1
TAP	14	0	1
TAP	15	0	2
TAP	16	0	2
TAP	17	0	3
TAP	18	0	3
TAP	18	0	4
TAP	19	0	4
TAP	20	0	4
TAP	21	0	5
TAP	22	0	5
TAP	23	0	6
TAP	24	0	6
TAP	25	0	7
TAP	26	0	0
TAP	26	0	7
BRK	27	0	7
TAP	27	192	7
TAP	28	0	7
TAP	29	0	6
TAP	29	192	6
TAP	30	0	6
TAP	31	0	5
TAP	31	192	5
TAP	32	0	5
TAP	33	0	4
TAP	33	192	4
TAP	34	0	3
TAP	34	0	4
TAP	35	0	3
TAP	35	192	3
TAP	36	0	3
TAP	37	0	2
TAP	37	192	2
TAP	38	0	2
TAP	39	0	1
TAP	39	192	1
TAP	40	0	1
TAP	41	0	0
TAP	41	192	0
TAP	42	0	0
TAP	42	0	7
STR	43	0	0
SI_	43	0	0	96	288	3
STR	45	0	7
SI_	45	0	7	96	288	4
STR	47	0	0
SI_	47	0	0	96	288	4
STR	49	0	7
SI_	49	0	7	96	288	3
TTP	51	0	3	E	0	L1
TTP	52	0	2	E	0	L1
TTP	53	0	1	E	0	L1
TTP	54	0	0	E	0	L1
TTP	55	0	7	E	0	L1
TTP	56	0	6	E	0	L1
TTP	57	0	5	E	0	L1
TTP	58	0	0	C	1	L1
TAP	59	0	0
TAP	59	192	0
TAP	60	0	0
TAP	60	0	1
TAP	61	0	2
TAP	61	192	2
TAP	62	0	2
TAP	62	0	3
TAP	63	0	4
TAP	63	192	4
TAP	64	0	4
TAP	64	0	5
TAP	65	0	6
TAP	65	192	6
TAP	66	0	6
TAP	66	0	7
TAP	67	0	7
TAP	67	192	7
TAP	68	0	6
TAP	68	192	6
TAP	69	0	5
TAP	69	192	5
TAP	70	0	3
TAP	70	0	4
TAP	71	0	3
TAP	71	192	3
TAP	72	0	2
TAP	72	192	2
TAP	73	0	1
TAP	73	192	1
TAP	74	0	0
TAP	74	0	7
BRK	75	0	0
TAP	75	192	0
TAP	76	0	1
TAP	76	192	1
TAP	77	0	2
TAP	77	192	2
TAP	78	0	3
TAP	78	0	4
TAP	78	192	3
TAP	78	192	4
TAP	79	0	4
TAP	79	192	4
TAP	80	0	5
TAP	80	192	5
TAP	81	0	6
TAP	81	192	6
XTP	82	0	0
XTP	82	0	7
TAP	83	96	7
TAP	83	192	7
TAP	83	288	6
TAP	84	192	5
TAP	84	288	5
TAP	85	0	4
TAP	85	288	3
TAP	86	0	3
TAP	86	96	2
TAP	87	0	1
TAP	87	96	1
TAP	87	192	0
TAP	88	96	0
TAP	88	192	0
TAP	88	288	1
TAP	89	192	2
TAP	89	288	2
TAP	90	0	3
TAP	90	288	4
TAP	91	0	4
TAP	91	96	3
TAP	92	0	3
TAP	92	0	4
TAP	92	96	3
TAP	92	96	4
HLD	92	192	3	144
HLD	92	192	4	144

T_REC_TAP	115
T_REC_BRK	2
T_REC_XTP	2
T_REC_HLD	4
T_REC_XHO	0
T_REC_STR	4
T_REC_BST	0
T_REC_XST	0
T_REC_TTP	8
T_REC_THO	0
T_REC_SLD	4
T_REC_ALL	139
T_NUM_TAP	129
T_NUM_BRK	2
T_NUM_HLD	4
T_NUM_SLD	4
T_NUM_ALL	139
T_JUDGE_TAP	131
T_JUDGE_HLD	26
T_JUDGE_SLD	4
T_JUDGE_ALL	161
TTM_EACHPAIRS	16
TTM_SCR_TAP	64500
TTM_SCR_BRK	5200
TTM_SCR_HLD	4000
TTM_SCR_SLD	6000
TTM_SCR_ALL	79700
TTM_SCR_S	77150
TTM_SCR_SS	79500
TTM_RAT_ACV	10025

