VERSION	0.00.00	1.03.00
FES_MODE	0
BPM_DEF	138.000	138.000	138.000	138.000
MET_DEF	4	4
RESOLUTION	384
CLK_DEF	384
COMPATIBLE_CODE	MA2

BPM	0	0	138.000
MET	0	0	4	4

HLD	2	0	2	288
HLD	2	0	5	288
TAP	2	336	2
TAP	2	336	3
HLD	3	0	1	288
HLD	3	0	4	288
TAP	3	336	4
TAP	3	336	5
HLD	4	0	3	96
HLD	4	0	6	96
TAP	4	144	2
TAP	4	144	3
HLD	4	192	1	96
HLD	4	192	4	96
TAP	4	336	4
TAP	4	336	5
XTP	5	0	3
XTP	5	0	6
XTP	5	72	1
XTP	5	72	4
XTP	5	144	2
XTP	5	144	5
STR	5	192	3
SI_	5	192	3	96	48	0
STR	5	192	4
SI_	5	192	4	96	48	7
BRK	6	0	1
BRK	6	0	6
TAP	6	72	2
TAP	6	96	3
STR	6	144	4
SI_	6	144	4	96	48	0
TAP	6	192	5
XTP	6	240	4
STR	6	240	5
SI_	6	240	5	96	48	7
XTP	6	336	5
HLD	7	0	1	72
TAP	7	72	3
TAP	7	96	2
STR	7	144	5
SI_	7	144	5	96	48	7
TAP	7	192	4
STR	7	240	4
SI_	7	240	4	96	48	0
XTP	7	240	5
XTP	7	336	4
HLD	8	0	6	72
TAP	8	72	4
TAP	8	96	5
STR	8	144	3
SI_	8	144	3	96	48	1
TAP	8	192	4
XTP	8	240	3
STR	8	240	4
SI_	8	240	4	96	48	0
XTP	8	336	4
HLD	9	0	1	96
TAP	9	96	3
TAP	9	144	4
XST	9	192	4
SI_	9	192	4	96	48	1
XST	9	192	5
SI_	9	192	5	96	48	0
XTP	9	288	4
XTP	9	288	5
BRK	10	0	2
BRK	10	0	7
TAP	10	72	5
TAP	10	96	4
STR	10	144	3
SI_	10	144	3	96	48	7
TAP	10	192	2
STR	10	240	2
SI_	10	240	2	96	48	0
XTP	10	240	3
XTP	10	336	2
HLD	11	0	6	72
TAP	11	72	4
TAP	11	96	5
STR	11	144	2
SI_	11	144	2	96	48	0
TAP	11	192	3
XTP	11	240	2
STR	11	240	3
SI_	11	240	3	96	48	7
XTP	11	336	3
HLD	12	0	1	72
TAP	12	72	3
TAP	12	96	2
STR	12	144	4
SI_	12	144	4	96	48	6
TAP	12	192	3
STR	12	240	3
SI_	12	240	3	96	48	7
XTP	12	240	4
XTP	12	336	3
HLD	13	0	6	96
TAP	13	96	4
TAP	13	144	3
HLD	13	192	2	96
BRK	13	240	0
BRK	13	288	0
TAP	14	0	0
TAP	14	0	7
TAP	14	48	1
HLD	14	96	2	72
HLD	14	168	3	72
TAP	14	240	4
STR	14	288	6
SUL	14	288	6	96	72	2
TAP	14	336	7
TAP	15	0	0
TAP	15	144	1
HLD	15	168	1	72
TAP	15	240	2
TAP	15	288	2
TAP	16	0	3
TAP	16	0	6
TAP	16	48	5
HLD	16	96	4	72
HLD	16	168	3	72
TAP	16	240	2
TAP	16	288	1
TAP	17	0	0
STR	17	0	7
SI_	17	0	7	96	48	3
TAP	17	96	1
STR	17	144	0
SI_	17	144	0	96	48	4
TAP	17	240	5
TAP	17	288	5
TAP	18	0	0
TAP	18	0	7
TAP	18	48	6
TAP	18	96	4
TAP	18	96	5
TAP	18	144	2
TAP	18	168	3
TAP	18	240	1
TAP	18	288	0
TAP	18	336	7
STR	19	0	6
SCL	19	0	6	96	48	3
TAP	19	96	2
STR	19	144	1
SCR	19	144	1	96	48	4
TAP	19	240	5
TAP	19	288	6
HLD	20	0	5	96
HLD	20	0	6	96
TAP	20	192	1
TAP	20	192	4
TAP	20	264	3
TAP	20	264	6
TAP	20	336	2
STR	20	336	5
SXR	20	336	5	96	240	2
HLD	21	48	1	240
TAP	22	0	0
TAP	22	0	7
TAP	22	48	6
HLD	22	96	5	72
HLD	22	168	4	72
TAP	22	240	3
STR	22	288	1
SUR	22	288	1	96	72	5
TAP	22	336	0
TAP	23	0	7
TAP	23	144	6
HLD	23	168	6	72
TAP	23	240	5
TAP	23	288	5
TAP	24	0	1
TAP	24	0	4
TAP	24	48	2
HLD	24	96	3	72
HLD	24	168	4	72
TAP	24	240	5
TAP	24	288	6
STR	25	0	4
SXL	25	0	4	96	96	4
SXR	25	0	4	96	96	4
TAP	25	0	7
TAP	25	240	3
TAP	25	240	5
TAP	25	288	3
TAP	25	288	5
TAP	26	0	0
TAP	26	0	4
TAP	26	48	1
TAP	26	96	2
TAP	26	96	3
TAP	26	144	5
TAP	26	168	4
TAP	26	240	6
TAP	26	288	7
TAP	26	336	0
STR	27	0	1
SCR	27	0	1	96	48	4
TAP	27	72	4
TAP	27	144	6
STR	27	192	6
SCL	27	192	6	96	48	3
TAP	27	264	3
TAP	27	336	1
TAP	28	0	0
TAP	28	0	7
TAP	28	48	6
TAP	28	96	5
TAP	28	144	3
TAP	28	168	4
TAP	28	240	2
TAP	28	288	1
TAP	28	336	0
TAP	29	0	6
STR	29	0	7
SSR	29	0	7	96	144	3
TAP	29	96	6
TAP	29	96	7
STR	30	0	1
SCR	30	0	1	96	96	4
TTP	30	192	5	B	0	M1
TTP	30	288	4	E	0	M1
TTP	30	288	6	E	0	M1
STR	31	0	6
SCL	31	0	6	96	96	3
TTP	31	192	2	B	0	M1
TTP	31	288	2	E	0	M1
TTP	31	288	4	E	0	M1
HLD	32	0	1	288
TAP	32	72	2
TAP	32	144	3
TAP	32	240	5
TAP	32	288	5
HLD	33	0	6	288
TAP	33	72	5
TAP	33	144	4
TAP	33	240	2
TAP	33	288	2
STR	34	0	0
SCR	34	0	0	96	96	4
TTP	34	96	4	E	0	M1
TTP	34	192	6	E	0	M1
TTP	34	288	5	E	0	M1
TTP	34	288	7	E	0	M1
STR	35	0	7
SCL	35	0	7	96	96	3
TTP	35	96	4	E	0	M1
TTP	35	192	2	E	0	M1
TTP	35	288	1	E	0	M1
TTP	35	288	3	E	0	M1
XTP	36	0	2
XTP	36	0	4
TAP	36	96	3
TAP	36	192	4
TAP	36	288	5
TAP	37	0	3
TAP	37	96	3
TAP	37	192	4
TAP	37	288	4
TAP	38	0	1
TAP	38	48	2
TAP	38	96	3
TAP	38	144	4
TAP	38	192	5
TAP	38	240	6
TAP	38	288	0
TAP	38	288	7
TAP	39	0	2
TAP	39	0	3
TAP	39	48	3
TAP	39	48	4
TAP	39	144	4
TAP	39	144	5
STR	39	192	3
SI_	39	192	3	96	48	0
STR	39	192	4
SI_	39	192	4	96	48	7
BRK	40	0	1
BRK	40	0	6
TAP	40	192	5
TAP	40	192	7
TAP	40	240	0
TAP	40	288	1
TAP	40	288	7
TAP	40	336	6
TAP	41	0	5
TAP	41	0	7
TAP	41	48	4
STR	41	96	5
SCR	41	96	5	96	96	2
STR	41	96	6
SCR	41	96	6	96	96	2
HLD	42	0	1	672
BRK	42	0	3
TTP	42	192	4	B	0	M1
TTP	42	192	5	B	0	M1
TTP	42	192	5	E	0	M1
TTP	42	240	6	B	0	M1
TTP	42	240	7	B	0	M1
TTP	42	240	7	E	0	M1
TTP	42	288	0	B	0	M1
TTP	42	288	1	B	0	M1
TTP	42	288	1	E	0	M1
TTP	42	336	2	B	0	M1
TTP	42	336	3	B	0	M1
TTP	42	336	3	E	0	M1
TTP	43	0	4	B	0	M1
TTP	43	0	5	B	0	M1
TTP	43	0	5	E	0	M1
TTP	43	48	6	B	0	M1
TTP	43	48	7	B	0	M1
TTP	43	48	7	E	0	M1
TTP	43	96	0	B	0	M1
TTP	43	96	1	B	0	M1
TTP	43	96	1	E	0	M1
TTP	43	144	2	B	0	M1
TTP	43	144	3	B	0	M1
TTP	43	144	3	E	0	M1
XST	43	192	5
SCR	43	192	5	96	96	2
BRK	44	0	3
STR	44	192	1
SI_	44	192	1	96	48	6
STR	44	192	6
SI_	44	192	6	96	48	1
TAP	44	240	1
TAP	44	240	6
STR	44	288	1
SCR	44	288	1	96	48	3
STR	44	288	6
SCL	44	288	6	96	48	4
TTP	45	144	4	B	0	M1
TTP	45	144	5	B	0	M1
TTP	45	192	2	B	0	M1
TTP	45	192	3	B	0	M1
TAP	45	240	7
TAP	45	288	0
TAP	45	336	1
STR	46	0	2
SI_	46	0	2	96	48	4
STR	46	0	7
SI_	46	0	7	96	48	4
TAP	46	96	2
TAP	46	96	7
STR	46	192	0
SI_	46	192	0	96	48	3
STR	46	192	5
SI_	46	192	5	96	48	3
TAP	46	288	0
TAP	46	288	5
TAP	47	0	1
TAP	47	0	4
TAP	47	48	2
STR	47	96	3
SCL	47	96	3	96	120	4
TAP	47	96	6
TAP	47	144	5
TAP	47	192	4
BRK	48	0	1
BRK	48	0	6
TAP	48	192	3
HLD	48	192	4	96
TAP	48	288	3
TAP	48	312	4
TAP	48	336	3
TAP	49	0	6
TAP	49	24	7
TAP	49	72	5
TAP	49	96	4
TAP	49	144	1
TAP	49	168	0
TAP	49	216	2
TAP	49	240	3
XTP	49	288	3
XTP	49	288	4
BRK	50	0	2
BRK	50	0	7
STR	50	96	1
SCR	50	96	1	96	96	6
STR	50	192	6
SCL	50	192	6	96	96	1
STR	50	288	1
SCR	50	288	1	96	96	6
STR	51	0	6
SCL	51	0	6	96	96	1
TAP	51	96	1
XTP	51	192	4
XTP	51	264	5
XTP	51	264	7
XTP	51	336	0
XTP	51	336	2
BRK	52	0	1
BRK	52	0	6
TAP	52	96	2
TAP	52	96	5
STR	52	192	3
SI_	52	192	3	96	48	1
STR	52	192	4
SI_	52	192	4	96	48	6
TAP	52	240	2
TAP	52	240	5
STR	52	288	3
SXR	52	288	3	96	96	3
STR	52	288	4
SXL	52	288	4	96	96	4
TTP	53	144	6	B	0	M1
TTP	53	144	7	B	0	M1
TTP	53	192	0	B	0	M1
TTP	53	192	1	B	0	M1
TAP	53	240	4
TAP	53	288	5
TAP	53	336	6
STR	54	0	2
SI_	54	0	2	96	48	4
STR	54	0	7
SI_	54	0	7	96	48	4
TAP	54	96	2
TAP	54	96	7
STR	54	192	0
SI_	54	192	0	96	48	3
STR	54	192	5
SI_	54	192	5	96	48	3
TAP	54	288	0
TAP	54	288	5
HLD	55	0	3	96
HLD	55	0	4	96
TTP	55	192	0	C	1	M1
TTP	55	192	4	E	0	M1
BRK	56	0	1
BRK	56	0	6
TAP	56	72	5
TAP	56	96	4
STR	56	144	3
SI_	56	144	3	96	48	7
TAP	56	192	2
STR	56	240	2
SI_	56	240	2	96	48	0
XTP	56	240	3
XTP	56	336	2
XTP	56	336	7
HLD	57	0	6	72
TAP	57	72	4
TAP	57	96	5
STR	57	144	2
SI_	57	144	2	96	48	0
TAP	57	192	3
XTP	57	240	2
STR	57	240	3
SI_	57	240	3	96	48	7
XTP	57	336	0
XTP	57	336	3
HLD	58	0	1	72
TAP	58	72	3
TAP	58	96	2
STR	58	144	4
SI_	58	144	4	96	48	6
TAP	58	192	3
STR	58	240	3
SI_	58	240	3	96	48	7
XTP	58	240	4
XTP	58	336	3
XTP	58	336	6
HLD	59	0	5	96
TAP	59	96	4
TAP	59	144	3
XST	59	192	2
SI_	59	192	2	96	48	7
XST	59	192	3
SI_	59	192	3	96	48	6
XTP	59	288	2
XTP	59	288	3
BRK	60	0	0
BRK	60	0	5
TAP	60	72	2
TAP	60	96	3
STR	60	144	4
SI_	60	144	4	96	48	0
TAP	60	192	5
XTP	60	240	4
STR	60	240	5
SI_	60	240	5	96	48	7
XTP	60	336	0
XTP	60	336	5
HLD	61	0	1	72
TAP	61	72	3
TAP	61	96	2
STR	61	144	5
SI_	61	144	5	96	48	7
TAP	61	192	4
STR	61	240	4
SI_	61	240	4	96	48	0
XTP	61	240	5
XTP	61	336	4
XTP	61	336	7
HLD	62	0	6	72
TAP	62	72	4
TAP	62	96	5
STR	62	144	3
SI_	62	144	3	96	48	1
TAP	62	192	4
XTP	62	240	3
STR	62	240	4
SI_	62	240	4	96	48	0
XTP	62	336	1
XTP	62	336	4
HLD	63	0	2	96
TAP	63	96	3
TAP	63	144	4
XST	63	192	3
SI_	63	192	3	96	48	0
XST	63	192	4
SI_	63	192	4	96	48	7
XTP	63	288	3
XTP	63	288	4
XHO	64	0	1	288
XHO	64	0	6	288
TAP	64	336	6
TAP	64	336	7
HLD	65	0	0	288
HLD	65	0	5	288
TAP	65	336	0
TAP	65	336	1
HLD	66	0	2	288
HLD	66	0	7	288
TAP	66	336	0
TAP	66	336	7
HLD	67	0	1	96
HLD	67	0	6	96
TAP	67	192	3
TAP	67	192	4
STR	67	288	3
SXR	67	288	3	96	48	1
STR	67	288	4
SXL	67	288	4	96	48	6

T_REC_TAP	218
T_REC_BRK	20
T_REC_XTP	51
T_REC_HLD	46
T_REC_XHO	2
T_REC_STR	68
T_REC_BST	0
T_REC_XST	7
T_REC_TTP	48
T_REC_THO	0
T_REC_SLD	76
T_REC_ALL	536
T_NUM_TAP	392
T_NUM_BRK	20
T_NUM_HLD	48
T_NUM_SLD	76
T_NUM_ALL	536
T_JUDGE_TAP	412
T_JUDGE_HLD	159
T_JUDGE_SLD	76
T_JUDGE_ALL	647
TTM_EACHPAIRS	105
TTM_SCR_TAP	196000
TTM_SCR_BRK	52000
TTM_SCR_HLD	48000
TTM_SCR_SLD	114000
TTM_SCR_ALL	410000
TTM_SCR_S	395800
TTM_SCR_SS	408000
TTM_RAT_ACV	10049

