VERSION	0.00.00	1.03.00
FES_MODE	0
BPM_DEF	138.000	138.000	138.000	138.000
MET_DEF	4	4
RESOLUTION	384
CLK_DEF	384
COMPATIBLE_CODE	MA2

BPM	0	0	138.000
MET	0	0	4	4

XHO	2	0	2	192
XHO	2	0	5	192
XTP	2	336	3
XTP	2	336	4
XHO	3	0	3	192
XHO	3	0	4	192
XTP	3	336	2
XTP	3	336	5
XTP	4	0	2
XTP	4	0	5
XTP	4	144	1
XTP	4	144	5
XTP	4	192	1
XTP	4	192	5
XTP	4	336	2
XTP	4	336	4
XTP	5	0	2
XTP	5	0	4
TAP	5	192	3
TAP	5	192	4
TAP	5	288	3
TAP	5	288	4
XTP	6	0	1
XTP	6	0	6
BRK	6	240	7
BRK	6	336	7
TAP	7	48	4
TAP	7	48	6
TAP	7	144	2
TAP	7	144	3
BRK	7	240	0
BRK	7	240	7
BRK	7	336	0
BRK	7	336	7
TAP	8	48	1
TAP	8	48	3
TAP	8	144	4
TAP	8	144	5
BRK	8	240	0
BRK	8	240	7
BRK	8	336	0
BRK	8	336	7
TAP	9	48	4
TAP	9	48	6
TAP	9	144	3
TAP	9	144	4
TAP	9	192	3
TAP	9	192	4
TAP	9	288	3
TAP	9	288	4
BRK	10	0	1
BRK	10	0	6
BRK	10	240	0
BRK	10	336	0
TAP	11	48	1
TAP	11	48	3
TAP	11	144	4
TAP	11	144	5
BRK	11	240	7
BRK	11	336	7
TAP	12	48	4
TAP	12	48	6
TAP	12	144	2
TAP	12	144	3
BRK	12	240	7
BRK	12	336	0
XST	13	0	0
SI_	13	0	0	96	96	4
XTP	13	240	7
XTP	13	288	7
TAP	14	0	6
TAP	14	96	5
TAP	14	192	3
TAP	14	240	3
TAP	14	288	4
TAP	15	0	1
TAP	15	0	3
TAP	15	96	2
TAP	15	192	3
TAP	15	192	5
TAP	15	288	4
TAP	16	0	1
TAP	16	96	2
TAP	16	192	3
TAP	16	192	4
TAP	16	288	2
TAP	17	0	1
TAP	17	0	3
TAP	17	96	1
TAP	17	96	3
TAP	17	192	4
TAP	17	192	6
TAP	17	288	4
TAP	17	288	6
TAP	18	0	5
TAP	18	96	3
TAP	18	96	4
TAP	18	192	2
TAP	18	240	2
TAP	18	288	3
TAP	19	0	4
HLD	19	0	5	96
STR	19	96	6
SI_	19	96	6	96	96	1
TAP	20	0	2
TAP	20	0	7
TAP	20	192	3
TAP	20	288	3
STR	20	288	4
SCR	20	288	4	96	192	2
XTP	21	288	0
TAP	22	0	1
TAP	22	0	5
TAP	22	96	1
TAP	22	192	2
TAP	22	192	3
TAP	22	288	3
HLD	22	288	4	384
TAP	23	0	5
TAP	23	96	3
TAP	23	192	5
TAP	23	288	3
TAP	24	0	3
TAP	24	0	6
TAP	24	96	5
TAP	24	144	5
TAP	24	192	4
HLD	24	288	2	192
TAP	24	288	3
TAP	25	0	1
TAP	25	96	3
TAP	25	192	1
TAP	25	192	4
TAP	25	288	2
TAP	25	288	3
TAP	26	0	3
TAP	26	0	4
TAP	26	96	5
TAP	26	144	5
TAP	26	192	4
TAP	26	288	2
TAP	26	336	2
TAP	27	0	3
TAP	27	96	1
TAP	27	96	5
TAP	27	192	4
TAP	27	288	2
TAP	27	288	6
HLD	28	0	1	96
HLD	28	96	3	96
HLD	28	192	4	96
TAP	28	288	6
XTP	29	0	6
XTP	29	0	7
XTP	29	96	1
XTP	29	96	5
XTP	29	240	2
XTP	29	240	6
XTP	29	288	2
XTP	29	288	6
STR	30	0	7
SI_	30	0	7	96	96	3
STR	30	192	1
SI_	30	192	1	96	96	5
STR	31	0	7
SCL	31	0	7	96	96	4
STR	31	192	3
SCL	31	192	3	96	96	0
STR	32	0	7
SSR	32	0	7	96	144	3
XTP	32	288	1
STR	33	0	0
SSL	33	0	0	96	144	4
XTP	33	288	6
STR	34	0	5
SI_	34	0	5	96	96	2
STR	34	192	1
SI_	34	192	1	96	96	6
STR	35	0	5
SI_	35	0	5	96	96	2
HLD	35	192	0	192
THO	36	0	0	192	C	0	M1
TTP	37	0	2	B	0	M1
TTP	37	0	2	E	0	M1
TTP	37	0	3	B	0	M1
TTP	37	192	4	B	0	M1
TTP	37	192	5	B	0	M1
TTP	37	192	6	E	0	M1
TTP	38	0	0	E	0	M1
TTP	38	96	0	C	0	M1
TTP	38	192	4	E	0	M1
TTP	38	288	2	B	0	M1
TTP	38	288	5	B	0	M1
TAP	39	0	7
TAP	39	48	7
TAP	39	96	0
TAP	39	144	0
STR	39	192	0
SI_	39	192	0	96	48	3
STR	39	192	7
SI_	39	192	7	96	48	4
BRK	40	0	2
BRK	40	0	5
TAP	40	144	0
TAP	40	192	0
TAP	40	192	6
TAP	40	288	1
TAP	40	288	7
TAP	41	0	0
TAP	41	0	6
TAP	41	96	4
STR	41	96	5
SCR	41	96	5	96	120	2
XTP	42	0	1
XTP	42	0	7
TAP	42	144	2
TAP	42	192	2
TAP	42	192	3
TAP	42	288	4
TAP	42	288	5
TAP	43	0	6
TAP	43	0	7
TAP	43	96	0
STR	43	96	1
SCR	43	96	1	96	120	6
XTP	44	0	0
XTP	44	0	7
TAP	44	192	2
TAP	44	192	3
TAP	44	288	4
TAP	44	288	5
TAP	45	0	3
TAP	45	0	6
STR	45	96	0
SCR	45	96	0	96	96	2
STR	45	96	7
SCL	45	96	7	96	96	5
TAP	46	0	2
TAP	46	0	7
TAP	46	96	3
TAP	46	96	4
TAP	46	192	0
TAP	46	192	5
TAP	46	288	3
TAP	46	288	4
TAP	47	0	2
TAP	47	0	6
TAP	47	96	1
TAP	47	96	5
STR	47	192	0
SI_	47	192	0	96	48	4
STR	47	192	7
SI_	47	192	7	96	48	3
BRK	48	0	2
BRK	48	0	5
TAP	48	144	0
TAP	48	192	0
TAP	48	192	5
TAP	48	288	2
TAP	48	288	7
TAP	49	0	0
TAP	49	0	5
STR	49	96	2
SUL	49	96	2	96	96	5
TAP	49	96	7
XTP	50	0	3
XTP	50	0	7
TAP	50	144	6
TAP	50	192	4
TAP	50	192	6
TAP	50	288	1
TAP	50	288	3
TAP	51	0	4
TAP	51	0	6
TAP	51	96	1
TAP	51	96	3
STR	51	192	3
SI_	51	192	3	96	48	0
STR	51	192	4
SI_	51	192	4	96	48	7
BRK	52	0	1
BRK	52	0	6
TAP	52	192	0
TAP	52	192	1
TAP	52	288	2
TAP	52	288	7
TAP	53	0	1
TAP	53	0	6
STR	53	96	0
SCR	53	96	0	96	96	3
STR	53	96	7
SCL	53	96	7	96	96	4
TAP	54	0	2
TAP	54	0	7
TAP	54	96	3
TAP	54	96	4
STR	54	192	0
SCR	54	192	0	96	96	3
HLD	54	192	5	192
HLD	55	192	3	96
HLD	55	192	4	96
XTP	56	0	1
XTP	56	0	6
BRK	56	240	0
BRK	56	240	1
BRK	56	336	0
BRK	56	336	1
TAP	57	48	2
TAP	57	48	3
TAP	57	144	4
TAP	57	144	5
BRK	57	240	6
BRK	57	240	7
BRK	57	336	6
BRK	57	336	7
TAP	58	48	4
TAP	58	48	5
TAP	58	144	2
TAP	58	144	3
BRK	58	240	0
BRK	58	240	1
BRK	58	336	0
BRK	58	336	1
TAP	59	48	2
TAP	59	48	3
TAP	59	144	4
TAP	59	144	6
TAP	59	192	4
TAP	59	192	6
TAP	59	288	3
TAP	59	288	4
BRK	60	0	1
BRK	60	0	6
BRK	60	240	6
BRK	60	240	7
BRK	60	336	6
BRK	60	336	7
TAP	61	48	4
TAP	61	48	5
TAP	61	144	2
TAP	61	144	3
BRK	61	240	0
BRK	61	240	1
BRK	61	336	0
BRK	61	336	1
TAP	62	48	2
TAP	62	48	3
TAP	62	144	4
TAP	62	144	5
BRK	62	240	6
BRK	62	240	7
BRK	62	336	6
BRK	62	336	7
TAP	63	48	4
TAP	63	48	5
TAP	63	144	2
TAP	63	144	3
TAP	63	192	2
TAP	63	192	3
TAP	63	288	3
TAP	63	288	4
BRK	64	0	2
BRK	64	0	7
XTP	64	336	2
XTP	64	336	5
XHO	65	0	2	192
XHO	65	0	5	192
XTP	65	336	3
XTP	65	336	5
XHO	66	0	3	192
XHO	66	0	5	192
XTP	66	336	2
XTP	66	336	6
XHO	67	0	2	288
XTP	67	0	6
HLD	67	192	7	96
XTP	68	0	1
XTP	68	0	6

T_REC_TAP	196
T_REC_BRK	52
T_REC_XTP	46
T_REC_HLD	11
T_REC_XHO	9
T_REC_STR	25
T_REC_BST	0
T_REC_XST	1
T_REC_TTP	11
T_REC_THO	1
T_REC_SLD	26
T_REC_ALL	378
T_NUM_TAP	279
T_NUM_BRK	52
T_NUM_HLD	21
T_NUM_SLD	26
T_NUM_ALL	378
T_JUDGE_TAP	331
T_JUDGE_HLD	76
T_JUDGE_SLD	26
T_JUDGE_ALL	433
TTM_EACHPAIRS	135
TTM_SCR_TAP	139500
TTM_SCR_BRK	135200
TTM_SCR_HLD	21000
TTM_SCR_SLD	39000
TTM_SCR_ALL	334700
TTM_SCR_S	319650
TTM_SCR_SS	329500
TTM_RAT_ACV	10157

