VERSION	0.00.00	1.03.00
FES_MODE	0
BPM_DEF	138.000	138.000	138.000	138.000
MET_DEF	4	4
RESOLUTION	384
CLK_DEF	384
COMPATIBLE_CODE	MA2

BPM	0	0	138.000
MET	0	0	4	4

STR	2	0	0
SI_	2	0	0	96	144	3
STR	3	0	4
SI_	3	0	4	96	144	7
HLD	4	0	0	96
HLD	4	0	1	96
HLD	4	192	6	96
HLD	4	192	7	96
XTP	5	0	0
XTP	5	96	0
XTP	5	96	7
XTP	5	192	1
XTP	5	192	6
BRK	6	0	5
TAP	6	96	5
TAP	6	192	4
TAP	6	288	4
TAP	7	0	3
TAP	7	96	3
TAP	7	192	2
TAP	7	192	4
TAP	8	0	1
TAP	8	96	1
TAP	8	192	0
TAP	8	288	0
TAP	9	0	7
TAP	9	96	7
TAP	9	192	0
TAP	9	192	7
TAP	10	0	6
TAP	10	96	6
TAP	10	192	7
TAP	10	288	7
TAP	11	0	0
TAP	11	96	0
TAP	11	192	1
TAP	11	192	7
TAP	12	0	2
TAP	12	96	2
TAP	12	192	3
TAP	12	288	3
TAP	13	0	3
TAP	13	0	4
TAP	13	96	3
TAP	13	96	4
TAP	13	192	2
TAP	13	192	5
TAP	14	0	6
TAP	14	96	6
TAP	14	192	7
HLD	15	0	1	192
TAP	15	192	0
TAP	16	0	6
TAP	16	96	6
TAP	16	192	7
TAP	17	0	0
TAP	17	96	0
TAP	17	192	1
TAP	17	192	7
TAP	18	0	2
TAP	18	96	2
TAP	18	192	3
HLD	19	0	5	192
TAP	19	192	4
TAP	19	288	3
HLD	20	0	2	192
TAP	20	192	3
STR	20	288	3
SUR	20	288	3	96	192	0
TAP	22	0	1
TAP	22	96	1
TAP	22	192	0
TAP	22	192	1
TAP	23	0	6
TAP	23	96	6
TAP	23	192	6
TAP	23	192	7
TAP	24	0	1
TAP	24	96	1
TAP	24	192	0
TAP	24	192	1
TAP	25	0	7
TAP	25	96	7
TAP	25	192	0
TAP	25	192	6
TAP	26	0	5
TAP	26	96	5
TAP	26	192	4
TAP	26	192	5
TAP	27	0	2
TAP	27	96	2
TAP	27	192	2
TAP	27	192	3
TAP	28	0	5
TAP	28	96	5
TAP	28	192	4
TAP	28	192	5
XTP	29	0	3
XTP	29	0	4
XTP	29	96	3
XTP	29	96	4
XTP	29	192	2
XTP	29	192	5
STR	30	0	1
SI_	30	0	1	96	144	4
STR	31	0	5
SI_	31	0	5	96	144	0
STR	32	0	1
SCR	32	0	1	96	144	4
STR	33	0	5
SCR	33	0	5	96	144	0
TAP	34	0	1
TAP	34	96	1
TAP	34	192	0
TAP	34	288	0
TAP	35	0	7
TAP	35	96	7
TAP	35	192	0
TAP	35	192	6
TTP	36	0	6	B	0	L1
TTP	36	0	7	B	0	L1
TTP	36	192	4	B	0	L1
TTP	36	192	5	B	0	L1
TTP	37	0	2	B	0	L1
TTP	37	0	3	B	0	L1
TTP	37	192	0	B	0	L1
TTP	37	192	1	B	0	L1
XTP	38	0	6
TAP	38	96	7
TAP	38	192	0
TAP	38	288	1
STR	39	0	0
SI_	39	0	0	96	144	3
STR	39	0	7
SI_	39	0	7	96	144	4
BRK	40	0	2
BRK	40	0	5
TAP	40	192	6
TAP	40	288	6
TAP	40	288	7
TAP	41	0	6
TAP	41	96	6
TAP	41	96	7
TAP	41	192	5
TAP	41	288	4
BRK	42	0	3
BRK	42	0	5
TAP	42	192	2
TAP	42	288	2
TAP	42	288	3
TAP	43	0	2
TAP	43	96	2
TAP	43	96	3
TAP	43	192	1
TAP	43	288	0
BRK	44	0	1
BRK	44	0	7
TAP	44	192	6
TAP	44	288	6
STR	45	0	6
SCL	45	0	6	96	144	3
STR	45	0	7
SCR	45	0	7	96	144	2
TAP	46	0	1
TAP	46	96	0
TAP	46	192	7
TAP	46	288	6
STR	47	0	0
SI_	47	0	0	96	144	3
STR	47	0	7
SI_	47	0	7	96	144	4
BRK	48	0	2
BRK	48	0	5
TAP	48	192	1
TAP	48	288	0
TAP	48	288	1
TAP	49	0	6
TAP	49	96	6
TAP	49	96	7
TAP	49	192	5
TAP	49	288	4
TAP	49	288	5
BRK	50	0	3
BRK	50	0	6
TAP	50	192	2
TAP	50	288	2
TAP	50	288	3
TAP	51	0	5
TAP	51	96	4
TAP	51	96	5
TAP	51	192	6
TAP	51	288	6
TAP	51	288	7
BRK	52	0	0
BRK	52	0	5
TAP	52	192	1
TAP	52	288	1
STR	53	0	0
SCL	53	0	0	96	144	5
STR	53	0	1
SCR	53	0	1	96	144	4
TAP	54	0	6
TAP	54	96	0
TAP	54	96	7
STR	54	192	0
SI_	54	192	0	96	144	3
STR	54	192	7
SI_	54	192	7	96	144	4
XTP	55	192	3
XTP	55	288	4
BRK	56	0	5
TAP	56	96	5
TAP	56	192	4
TAP	56	288	4
TAP	57	0	3
TAP	57	96	3
TAP	57	192	2
TAP	57	192	4
TAP	58	0	1
TAP	58	96	1
TAP	58	192	0
TAP	58	288	0
TAP	59	0	7
TAP	59	96	7
TAP	59	192	0
TAP	59	192	7
BRK	60	0	1
TAP	60	96	1
TAP	60	192	0
TAP	60	288	0
TAP	61	0	7
TAP	61	96	7
TAP	61	192	0
TAP	61	192	6
TAP	62	0	5
TAP	62	96	5
TAP	62	192	4
TAP	62	288	4
TAP	63	0	3
TAP	63	96	3
TAP	63	192	3
TAP	63	192	4
TAP	63	288	3
TAP	63	288	4
BST	64	0	2
SI_	64	0	2	96	144	7
STR	65	0	6
SI_	65	0	6	96	144	2
STR	66	0	1
SI_	66	0	1	96	144	5
HLD	67	0	6	192
TAP	67	192	7
TAP	67	288	6
TAP	67	288	7
BRK	68	0	0
BRK	68	0	5

T_REC_TAP	169
T_REC_BRK	17
T_REC_XTP	14
T_REC_HLD	8
T_REC_XHO	0
T_REC_STR	19
T_REC_BST	1
T_REC_XST	0
T_REC_TTP	8
T_REC_THO	0
T_REC_SLD	20
T_REC_ALL	256
T_NUM_TAP	210
T_NUM_BRK	18
T_NUM_HLD	8
T_NUM_SLD	20
T_NUM_ALL	256
T_JUDGE_TAP	228
T_JUDGE_HLD	24
T_JUDGE_SLD	20
T_JUDGE_ALL	272
TTM_EACHPAIRS	51
TTM_SCR_TAP	105000
TTM_SCR_BRK	46800
TTM_SCR_HLD	8000
TTM_SCR_SLD	30000
TTM_SCR_ALL	189800
TTM_SCR_S	182400
TTM_SCR_SS	188000
TTM_RAT_ACV	10095

