VERSION	0.00.00	1.03.00
FES_MODE	0
BPM_DEF	148.000	148.000	148.000	148.000
MET_DEF	4	4
RESOLUTION	384
CLK_DEF	384
COMPATIBLE_CODE	MA2

BPM	0	0	148.000
MET	0	0	4	4

TAP	1	0	2
TAP	1	24	3
TAP	1	48	2
TAP	1	72	3
TAP	1	96	2
TAP	1	144	5
TAP	1	168	4
TAP	1	216	2
TAP	1	240	3
XTP	1	288	1
XTP	1	288	4
TAP	2	0	5
TAP	2	24	4
TAP	2	48	5
TAP	2	72	4
TAP	2	96	5
TAP	2	144	2
TAP	2	168	3
TAP	2	216	5
TAP	2	240	4
TAP	2	312	1
TAP	2	312	6
TTP	3	0	0	C	1	M1
TTP	3	0	3	B	0	M1
TTP	3	0	4	B	0	M1
HLD	3	240	6	48
HLD	3	336	5	48
HLD	4	48	4	48
HLD	4	144	3	48
XHO	4	240	2	48
TTP	4	240	4	B	0	M1
TTP	4	240	5	B	0	M1
HLD	4	336	1	48
HLD	5	48	0	48
HLD	5	144	1	48
HLD	5	240	2	48
HLD	5	336	3	48
HLD	5	336	5	48
HLD	6	48	4	48
TAP	6	144	2
TAP	6	144	5
XST	6	240	6
SI_	6	240	6	96	48	1
XST	6	336	0
SI_	6	336	0	96	48	3
SV_	6	336	0	96	48	5
XTP	7	48	0
HLD	7	144	2	48
HLD	7	144	6	48
HLD	7	240	4	48
HLD	7	336	3	48
HLD	7	336	7	48
HLD	8	48	2	48
TAP	8	144	1
TAP	8	144	3
XTP	8	256	0
XST	8	288	0
SI_	8	288	0	96	48	4
XTP	9	64	5
XTP	9	96	5
XTP	9	192	6
XST	9	288	6
SUR	9	288	6	96	48	4
XST	9	288	7
SI_	9	288	7	96	48	1
XHO	10	144	1	96
XHO	10	144	6	96
XTP	11	48	3
XTP	11	48	4
XTP	11	120	3
XTP	11	120	4
XTP	11	240	2
XTP	11	240	5
XTP	11	312	2
XTP	11	312	5
XTP	12	48	1
XTP	12	72	6
XTP	12	144	1
XTP	12	144	6
XTP	12	168	1
XTP	12	168	6
XST	12	312	0
SI_	12	312	0	96	48	4
XST	12	312	7
SI_	12	312	7	96	48	3
XTP	13	120	3
XTP	13	120	6
XTP	13	168	2
XTP	13	168	5
XTP	13	216	1
XTP	13	216	4
XTP	13	264	2
XTP	13	264	5
XTP	13	312	3
XTP	13	312	6
XTP	13	336	3
XTP	13	336	6
TTP	14	96	0	C	1	M1
TTP	14	96	4	B	0	M1
TTP	14	96	5	B	0	M1
TTP	14	96	6	B	0	M1
TTP	14	96	7	B	0	M1
TTP	15	0	0	B	0	M1
TTP	15	0	0	C	1	M1
TTP	15	0	1	B	0	M1
TTP	15	0	2	B	0	M1
TTP	15	0	3	B	0	M1
TTP	15	240	0	C	1	M1
XTP	15	240	7
XTP	15	252	6
XTP	15	264	5
XTP	15	276	4
XTP	15	288	3
XTP	15	300	2
XTP	15	312	1
XTP	15	324	0
XTP	15	336	7
XTP	15	348	6
XTP	15	360	5
XTP	15	372	4
XTP	16	0	3
XTP	16	12	2
XTP	16	24	1
XTP	16	36	0
XTP	16	48	7
XTP	16	60	6
XTP	16	72	5
XTP	16	84	4
XTP	16	96	3
XTP	16	108	2
XTP	16	120	1
XTP	16	132	0
XTP	16	144	7
XTP	16	156	6
XTP	16	168	5
XTP	16	180	4
XTP	16	192	3
XTP	16	204	2
XTP	16	216	1
XTP	16	228	0
XTP	16	240	7
XTP	16	252	6
XTP	16	264	5
XTP	16	276	4
XTP	16	288	3
XTP	16	300	2
XTP	16	312	1
XTP	16	324	0
XTP	16	336	7
XTP	16	348	6
XTP	16	360	5
XTP	16	372	4
XST	17	0	3
SF_	17	0	3	96	24	7
XTP	17	96	3
TTP	17	108	0	C	1	M1
TAP	17	240	0
TAP	17	240	6
STR	17	288	0
SCR	17	288	0	96	96	4
TAP	17	288	6
STR	18	0	4
SCR	18	0	4	96	96	0
TAP	18	96	0
TAP	18	192	4
TAP	18	240	4
TAP	18	288	0
XTP	19	0	2
XTP	19	0	6
STR	19	96	5
SI_	19	96	5	96	48	1
STR	19	192	2
SI_	19	192	2	96	48	6
TAP	19	288	4
TAP	19	336	4
XTP	20	0	3
XTP	20	0	5
XTP	20	48	2
XTP	20	48	6
XTP	20	96	1
XTP	20	96	7
BRK	20	144	0
TAP	20	240	3
TAP	20	240	5
TAP	20	288	3
TAP	20	288	5
XST	21	0	4
SF_	21	0	4	96	24	0
XTP	21	96	4
TTP	21	108	0	C	1	M1
TAP	21	240	1
TAP	21	240	7
TAP	21	336	0
TAP	21	336	6
STR	22	0	0
SI_	22	0	0	96	48	3
STR	22	0	6
SI_	22	0	6	96	48	3
XST	22	96	0
SXR	22	96	0	96	144	4
XTP	22	96	6
HLD	22	192	5	96
XHO	23	0	7	96
TAP	23	96	4
TAP	23	144	4
TAP	23	192	3
TAP	23	240	3
TAP	23	288	2
TAP	23	336	1
XTP	24	0	0
XTP	24	0	4
TAP	24	240	2
TAP	24	240	4
STR	24	288	1
SI_	24	288	1	96	48	5
STR	24	288	3
SI_	24	288	3	96	48	7
TAP	25	0	1
TAP	25	0	3
XHO	25	96	7	96
TAP	25	192	4
TAP	25	240	4
TAP	25	288	3
TAP	25	288	6
TAP	25	336	3
TAP	25	336	6
TAP	26	48	2
HLD	26	48	7	144
TAP	26	192	3
STR	26	288	4
SI_	26	288	4	96	48	0
STR	26	288	6
SI_	26	288	6	96	48	2
TAP	27	0	4
TAP	27	0	6
XHO	27	96	0	96
TAP	27	192	3
TAP	27	240	3
TAP	27	288	1
TAP	27	288	4
TAP	27	336	1
TAP	27	336	4
TAP	28	48	3
TAP	28	48	6
TAP	28	144	0
TAP	28	144	5
STR	28	240	2
SCL	28	240	2	96	96	5
STR	28	240	7
SI_	28	240	7	96	48	3
TAP	28	336	2
TAP	28	336	7
TAP	29	192	2
TAP	29	192	3
TAP	29	240	1
TAP	29	240	4
TAP	29	288	2
TAP	29	288	3
TAP	29	336	2
TAP	29	336	3
HLD	30	48	0	144
TAP	30	48	5
TAP	30	192	4
STR	30	288	1
SI_	30	288	1	96	48	5
STR	30	288	3
SI_	30	288	3	96	48	7
TAP	31	0	1
TAP	31	0	3
XHO	31	96	7	96
TAP	31	192	4
TAP	31	240	4
TAP	31	288	3
TAP	31	288	6
TAP	31	336	3
TAP	31	336	6
TAP	32	48	1
TAP	32	48	4
TAP	32	144	2
TAP	32	144	7
TAP	32	240	0
TAP	32	240	4
STR	32	288	0
SCR	32	288	0	96	48	3
STR	32	288	4
SCR	32	288	4	96	48	7
XTP	33	0	0
XTP	33	0	4
HLD	33	96	6	96
HLD	33	192	4	96
HLD	33	288	3	96
STR	34	0	1
SCL	34	0	1	96	48	6
TAP	34	96	4
STR	34	144	5
SCL	34	144	5	96	48	2
TAP	34	240	0
TAP	34	288	0
TAP	35	0	2
TAP	35	0	3
TAP	35	96	5
STR	35	144	5
SCR	35	144	5	96	96	1
STR	35	240	1
SCR	35	240	1	96	96	5
TAP	35	336	5
TAP	36	48	1
HLD	36	96	1	96
TAP	36	192	3
TAP	36	240	3
TAP	36	288	0
TAP	36	288	4
STR	37	0	6
SCL	37	0	6	96	96	1
STR	37	96	1
SUR	37	96	1	96	96	6
TAP	37	192	0
HLD	37	288	0	96
HLD	38	0	7	96
TAP	38	96	5
TAP	38	144	4
TAP	38	192	3
STR	38	288	2
SCL	38	288	2	96	48	7
STR	38	288	3
SCR	38	288	3	96	48	6
STR	39	96	4
SCL	39	96	4	96	48	1
STR	39	96	5
SCR	39	96	5	96	48	0
TAP	39	288	2
TAP	39	288	3
TAP	39	336	2
TAP	39	336	3
TAP	40	48	4
TAP	40	96	4
TAP	40	144	3
TAP	40	192	3
TAP	40	192	5
STR	40	288	2
SI_	40	288	2	96	48	5
STR	40	288	6
SI_	40	288	6	96	48	1
XTP	41	0	2
XTP	41	0	6
BRK	41	96	2
BRK	41	96	6
XTP	41	192	2
XTP	41	192	6
XTP	41	240	1
XTP	41	240	5
XTP	41	288	2
XTP	41	288	6
XST	41	336	1
SI_	41	336	1	96	48	4
XST	41	336	5
SI_	41	336	5	96	48	0
TAP	42	48	1
TAP	42	48	5
XTP	42	144	7
XTP	42	192	7
STR	42	288	0
SI_	42	288	0	96	48	3
STR	42	288	4
SI_	42	288	4	96	48	7
TAP	43	0	0
TAP	43	0	4
BRK	43	96	1
BRK	43	96	5
TAP	43	192	2
TAP	43	192	6
TAP	43	240	2
TAP	43	240	6
TAP	43	288	3
TAP	43	288	5
TAP	43	336	3
TAP	43	336	5
STR	44	0	4
SF_	44	0	4	96	48	0
TAP	44	240	2
TAP	44	240	6
STR	44	288	2
SCR	44	288	2	96	48	5
STR	44	288	6
SCR	44	288	6	96	48	1
TAP	45	0	2
TAP	45	0	6
BRK	45	96	0
BRK	45	96	4
HLD	45	192	3	48
HLD	45	192	7	48
HLD	45	288	2	48
HLD	45	288	4	48
HLD	46	0	5	48
HLD	46	0	6	48
HLD	46	96	0	48
HLD	46	96	3	48
TAP	46	192	1
STR	46	240	1
SCR	46	240	1	96	96	5
STR	46	336	5
SCR	46	336	5	96	96	1
TAP	47	48	1
TAP	47	144	5
TAP	47	240	7
TAP	47	288	0
TAP	47	288	6
TAP	47	336	1
STR	47	336	5
SUL	47	336	5	96	144	2
HLD	48	48	0	240
XTP	48	288	4
XTP	48	336	4
TAP	49	0	2
TAP	49	24	3
TAP	49	72	1
TAP	49	96	0
TAP	49	144	6
TAP	49	168	7
TAP	49	216	5
TAP	49	240	4
TAP	49	288	3
TAP	49	288	6
TAP	50	0	5
TAP	50	24	4
TAP	50	72	6
TAP	50	96	7
TAP	50	144	1
TAP	50	168	0
TAP	50	216	2
TAP	50	240	3
STR	50	288	1
SI_	50	288	1	96	48	4
STR	50	288	4
SI_	50	288	4	96	48	6
TAP	51	0	1
STR	51	0	4
SF_	51	0	4	96	24	0
TAP	51	96	4
TTP	51	108	0	C	1	M1
XTP	51	240	1
XTP	51	240	7
XTP	51	288	1
XTP	51	288	7
STR	52	0	3
SI_	52	0	3	96	48	1
STR	52	0	5
SI_	52	0	5	96	48	7
XTP	52	96	3
XTP	52	96	5
STR	52	192	2
SI_	52	192	2	96	48	0
STR	52	192	4
SI_	52	192	4	96	48	6
XTP	52	288	2
XTP	52	288	4
BRK	53	0	7
STR	53	96	2
SI_	53	96	2	96	48	6
STR	53	192	5
SI_	53	192	5	96	48	1
TAP	53	288	3
TAP	53	336	3
XTP	54	0	2
XTP	54	0	4
XTP	54	48	1
XTP	54	48	5
XTP	54	96	0
XTP	54	96	6
BRK	54	144	7
TAP	54	240	4
TAP	54	240	5
STR	54	288	3
SI_	54	288	3	96	48	1
STR	54	288	6
SI_	54	288	6	96	48	3
STR	55	0	3
SF_	55	0	3	96	24	7
TAP	55	0	6
TAP	55	96	3
TTP	55	108	0	C	1	M1
TAP	55	240	0
TAP	55	240	6
TAP	55	336	1
TAP	55	336	7
STR	56	0	1
SV_	56	0	1	96	48	4
STR	56	0	7
SV_	56	0	7	96	48	4
XTP	56	96	1
XST	56	96	7
SXL	56	96	7	96	144	3
HLD	56	192	2	96
XHO	57	0	0	96
TAP	57	96	3
TAP	57	144	3
TAP	57	192	4
TAP	57	240	4
TAP	57	288	5
TAP	57	336	6
XTP	58	0	3
XTP	58	0	7
TAP	58	240	2
TAP	58	240	4
STR	58	288	1
SI_	58	288	1	96	48	5
STR	58	288	3
SI_	58	288	3	96	48	7
TAP	59	0	1
TAP	59	0	3
TAP	59	192	4
TAP	59	192	5
TAP	59	240	3
TAP	59	240	6
TAP	59	288	4
TAP	59	288	5
TAP	59	336	4
TAP	59	336	5
TAP	60	48	2
HLD	60	48	7	144
TAP	60	192	3
STR	60	288	4
SI_	60	288	4	96	48	0
STR	60	288	6
SI_	60	288	6	96	48	2
TAP	61	0	4
TAP	61	0	6
XHO	61	96	0	96
TAP	61	192	3
TAP	61	240	3
TAP	61	288	1
TAP	61	288	4
TAP	61	336	1
TAP	61	336	4
TAP	62	48	3
TAP	62	48	6
TAP	62	144	0
TAP	62	144	5
HLD	62	240	2	96
HLD	62	240	6	96
BST	63	0	1
SV_	63	0	1	96	48	4
BST	63	0	7
SV_	63	0	7	96	48	4
TAP	63	96	1
TAP	63	96	7
XTP	63	192	2
XTP	63	192	6
XTP	63	240	2
XTP	63	240	6
TAP	63	336	4
STR	64	0	5
SLR	64	0	5	96	96	3
TAP	64	48	5
STR	64	96	3
SI_	64	96	3	96	48	1
XTP	64	192	0
XTP	64	288	0
STR	65	0	4
SI_	65	0	4	96	48	0
STR	65	0	5
SI_	65	0	5	96	48	7
TAP	65	48	4
TAP	65	48	5
STR	65	192	0
SI_	65	192	0	96	48	4
STR	65	192	1
SI_	65	192	1	96	48	7
TAP	65	240	0
TAP	65	240	1
TTP	66	0	1	B	0	M1
TTP	66	0	2	B	0	M1
TTP	66	48	3	B	0	M1
TTP	66	48	4	B	0	M1
TTP	66	96	5	B	0	M1
TTP	66	96	6	B	0	M1
THO	66	144	0	48	C	1	M1
HLD	67	0	0	96
HLD	67	0	6	96
TAP	67	144	1
TAP	67	192	3
TAP	67	192	5
TAP	67	240	6
HLD	67	288	1	96
HLD	67	288	7	96
TAP	68	48	6
TAP	68	96	2
TAP	68	96	4
TAP	68	144	1
HLD	68	192	0	48
HLD	68	192	6	48
HLD	68	288	1	48
HLD	68	288	5	48
TAP	69	0	2
TAP	69	24	3
TAP	69	48	2
TAP	69	72	3
TAP	69	96	2
TAP	69	144	7
TAP	69	168	0
TAP	69	216	0
TAP	69	240	7
TAP	69	288	1
TAP	69	288	5
TAP	70	0	2
TAP	70	24	3
TAP	70	72	6
TAP	70	96	7
TAP	70	144	5
TAP	70	168	4
TAP	70	216	1
TAP	70	240	0
TAP	70	288	2
TAP	70	288	7
TAP	71	0	5
TAP	71	24	4
TAP	71	48	5
TAP	71	72	4
TAP	71	96	5
TAP	71	144	0
TAP	71	168	7
TAP	71	216	7
TAP	71	240	0
TAP	71	288	2
TAP	71	288	6
TAP	72	0	5
TAP	72	24	4
TAP	72	72	1
TAP	72	96	0
TAP	72	144	2
TAP	72	168	3
TAP	72	216	6
TAP	72	240	7
BST	72	288	0
SCR	72	288	0	96	144	7
BRK	72	288	5
XST	73	288	1
SI_	73	288	1	96	48	5
XST	73	288	4
SI_	73	288	4	96	48	7
XTP	74	0	1
XST	74	0	4
SI_	74	0	4	96	24	0
SCL	74	0	4	96	24	0
XTP	74	96	4
TTP	74	108	0	C	1	M1
TAP	74	240	7
TAP	74	288	7
TAP	74	336	0
HLD	75	0	1	24
HLD	75	0	5	24
HLD	75	48	2	24
HLD	75	48	7	24
HLD	75	96	0	24
HLD	75	96	6	24
HLD	75	144	1	24
HLD	75	144	7	24
HLD	75	192	0	24
HLD	75	192	2	24
HLD	75	240	1	24
HLD	75	240	7	24
STR	75	288	2
SCL	75	288	2	96	48	7
STR	75	288	6
SCL	75	288	6	96	48	3
XTP	76	0	2
XTP	76	0	6
STR	76	96	0
SCR	76	96	0	96	48	3
STR	76	96	4
SI_	76	96	4	96	48	7
XTP	76	192	0
XTP	76	192	4
STR	76	288	6
SI_	76	288	6	96	96	2
STR	77	0	2
SCL	77	0	2	96	96	4
XTP	77	96	3
XTP	77	144	3
XTP	77	240	2
STR	77	288	3
SI_	77	288	3	96	48	0
STR	77	288	6
SI_	77	288	6	96	48	2
STR	78	0	3
SI_	78	0	3	96	24	7
SCR	78	0	3	96	24	7
XTP	78	0	6
XTP	78	96	3
TTP	78	108	0	C	1	M1
STR	78	240	0
SI_	78	240	0	96	48	4
STR	78	288	7
SI_	78	288	7	96	48	3
STR	78	336	0
SI_	78	336	0	96	48	2
STR	79	0	7
SI_	79	0	7	96	48	5
STR	79	48	0
SXL	79	48	0	96	144	3
TAP	79	96	7
TAP	79	144	0
TAP	79	240	5
HLD	79	288	5	96
TAP	80	0	3
TAP	80	48	2
TAP	80	96	1
TAP	80	144	0
XTP	80	192	0
XTP	80	204	1
XTP	80	216	2
XTP	80	228	3
XTP	80	240	4
XTP	80	252	5
XTP	80	264	6
XTP	80	276	7
XTP	80	288	0
XTP	80	300	1
XTP	80	312	2
XTP	80	324	3
XTP	80	336	4
XTP	80	348	5
XTP	80	360	6
XTP	80	372	7
XHO	81	0	0	576
TTP	82	192	0	B	0	M1
TTP	82	192	0	C	1	M1
TTP	82	192	7	B	0	M1

T_REC_TAP	273
T_REC_BRK	10
T_REC_XTP	154
T_REC_HLD	60
T_REC_XHO	10
T_REC_STR	74
T_REC_BST	3
T_REC_XST	16
T_REC_TTP	31
T_REC_THO	1
T_REC_SLD	96
T_REC_ALL	728
T_NUM_TAP	548
T_NUM_BRK	13
T_NUM_HLD	71
T_NUM_SLD	96
T_NUM_ALL	728
T_JUDGE_TAP	561
T_JUDGE_HLD	115
T_JUDGE_SLD	96
T_JUDGE_ALL	772
TTM_EACHPAIRS	162
TTM_SCR_TAP	274000
TTM_SCR_BRK	33800
TTM_SCR_HLD	71000
TTM_SCR_SLD	144000
TTM_SCR_ALL	522800
TTM_SCR_S	505900
TTM_SCR_SS	521500
TTM_RAT_ACV	10024

