VERSION	0.00.00	1.03.00
FES_MODE	0
BPM_DEF	148.000	148.000	148.000	148.000
MET_DEF	4	4
RESOLUTION	384
CLK_DEF	384
COMPATIBLE_CODE	MA2

BPM	0	0	148.000
MET	0	0	4	4

TAP	1	0	0
TAP	1	48	0
TAP	1	96	1
TAP	1	96	7
TAP	1	144	1
TAP	1	144	7
TAP	1	240	2
TAP	1	240	6
XTP	1	288	2
XTP	1	288	6
TAP	2	0	7
TAP	2	48	7
TAP	2	96	0
TAP	2	96	6
TAP	2	144	0
TAP	2	144	6
XTP	2	240	2
XTP	2	240	3
XTP	2	312	4
XTP	2	312	5
TTP	3	0	0	C	1	M1
TTP	3	0	0	E	0	M1
TTP	3	0	4	E	0	M1
HLD	4	0	5	1152
TTP	4	96	2	E	0	M1
TTP	4	192	0	C	0	M1
TTP	4	288	6	E	0	M1
TTP	5	0	3	E	0	M1
TTP	5	96	3	B	0	M1
TTP	5	192	4	B	0	M1
TTP	5	288	5	E	0	M1
TTP	6	0	1	E	0	M1
TTP	6	96	0	B	0	M1
TTP	6	192	7	B	0	M1
TTP	6	288	7	E	0	M1
HLD	7	0	1	1152
TTP	7	96	6	E	0	M1
TTP	7	192	0	C	0	M1
TTP	7	288	2	E	0	M1
TTP	8	0	5	E	0	M1
TTP	8	96	4	B	0	M1
TTP	8	192	3	B	0	M1
TTP	8	288	3	E	0	M1
TTP	9	0	7	E	0	M1
TTP	9	96	7	B	0	M1
TTP	9	192	0	B	0	M1
TTP	9	288	1	E	0	M1
TAP	10	0	6
TAP	10	96	2
TAP	10	96	4
TAP	10	192	3
TAP	10	192	6
TAP	10	288	1
TAP	10	288	4
TAP	11	0	3
HLD	11	0	5	288
TAP	11	96	2
TAP	11	192	1
STR	11	288	0
SUL	11	288	0	96	192	7
TTP	12	288	0	C	1	M1
TTP	12	288	0	E	0	M1
TTP	12	288	6	B	0	M1
TTP	12	288	6	E	0	M1
TTP	12	288	7	B	0	M1
TTP	13	144	0	B	0	M1
TTP	13	144	0	C	1	M1
TTP	13	144	0	E	0	M1
TTP	13	144	1	B	0	M1
TTP	13	144	2	E	0	M1
TTP	14	96	0	C	1	M1
TTP	14	96	2	B	0	M1
TTP	14	96	3	B	0	M1
TTP	14	96	4	B	0	M1
TTP	14	96	4	E	0	M1
TTP	14	96	5	B	0	M1
THO	15	0	0	480	C	1	M1
TTP	15	0	1	B	0	M1
TTP	15	0	2	B	0	M1
TTP	15	0	2	E	0	M1
TTP	15	0	5	B	0	M1
TTP	15	0	6	B	0	M1
TTP	15	0	6	E	0	M1
BRK	17	0	0
BRK	17	0	7
TTP	17	96	0	C	1	M1
TTP	17	96	1	B	0	M1
TTP	17	96	2	E	0	M1
TTP	17	96	6	B	0	M1
TTP	17	96	6	E	0	M1
TAP	17	288	0
TAP	17	288	7
TAP	18	0	1
TAP	18	0	2
TAP	18	96	0
TAP	18	96	3
TAP	18	192	1
TAP	18	192	2
TAP	18	288	0
TAP	18	288	3
BRK	19	0	2
BRK	19	0	6
HLD	19	96	0	96
HLD	19	192	2	96
STR	19	288	4
SCR	19	288	4	96	192	3
TAP	20	288	0
TAP	20	288	7
BRK	21	0	3
BRK	21	0	4
TTP	21	96	0	C	1	M1
TTP	21	96	1	B	0	M1
TTP	21	96	2	E	0	M1
TTP	21	96	6	B	0	M1
TTP	21	96	6	E	0	M1
TAP	21	288	0
TAP	21	288	7
TAP	22	0	5
TAP	22	0	6
TAP	22	96	4
TAP	22	96	7
TAP	22	192	5
TAP	22	192	6
TAP	22	288	4
STR	22	288	7
SCL	22	288	7	96	384	0
THO	23	0	0	384	C	1	M1
TAP	24	288	3
TAP	24	288	4
BRK	25	0	2
BRK	25	0	7
HLD	25	192	2	96
TAP	25	288	3
TAP	25	336	2
TAP	26	48	1
TAP	26	48	4
TAP	26	192	0
TAP	26	288	0
XTP	27	0	2
XTP	27	0	6
HLD	27	192	5	96
TAP	27	288	4
TAP	27	336	5
TAP	28	48	2
TAP	28	48	6
TAP	28	144	1
TAP	28	144	3
TAP	28	240	6
TAP	28	240	7
BRK	28	336	0
BRK	28	336	5
HLD	29	192	5	96
TAP	29	288	4
TAP	29	336	5
TAP	30	48	3
TAP	30	48	6
TAP	30	192	7
TAP	30	288	7
XTP	31	0	1
XTP	31	0	5
HLD	31	192	2	96
TAP	31	288	3
TAP	31	336	2
TAP	32	48	1
TAP	32	48	5
TAP	32	144	4
TAP	32	144	6
HLD	32	240	1	96
HLD	32	240	3	96
XTP	33	0	0
XTP	33	0	7
TAP	33	96	1
TAP	33	192	2
TAP	33	192	3
TAP	33	288	4
STR	34	0	5
SCL	34	0	5	96	144	2
STR	34	0	6
SUL	34	0	6	96	144	1
TAP	35	0	0
TAP	35	0	7
TAP	35	96	2
TAP	35	144	2
TAP	35	240	4
TAP	35	240	5
TAP	35	336	2
HLD	35	336	7	144
TAP	36	96	0
TAP	36	192	1
TAP	36	192	6
TAP	36	288	2
TAP	36	288	5
XTP	37	0	3
XTP	37	0	4
TAP	37	96	5
TAP	37	192	6
TAP	37	192	7
TAP	37	288	0
STR	38	0	1
SUR	38	0	1	96	144	6
STR	38	0	2
SCR	38	0	2	96	144	5
TAP	39	0	0
TAP	39	0	7
TAP	39	96	5
TAP	39	144	5
TAP	39	240	2
TAP	39	240	3
XTP	39	336	0
XHO	39	336	5	144
HLD	40	96	7	96
HLD	40	192	0	96
HLD	40	288	2	96
XST	41	0	3
SI_	41	0	3	96	48	7
TAP	41	192	0
TAP	41	288	1
TAP	41	288	7
HLD	42	0	2	96
TAP	42	0	6
TAP	42	96	3
TAP	42	192	1
HLD	42	192	5	96
TAP	42	288	4
XTP	43	0	0
XST	43	0	6
SI_	43	0	6	96	48	2
TAP	43	192	1
TAP	43	288	0
TAP	43	288	2
HLD	44	0	1	96
TAP	44	0	7
TAP	44	96	2
HLD	44	192	2	96
TAP	44	192	6
TAP	44	288	3
XST	45	0	1
SI_	45	0	1	96	48	5
XTP	45	0	7
TAP	45	192	6
TAP	45	288	5
TAP	45	288	7
TAP	46	0	0
HLD	46	0	6	96
TAP	46	96	5
TAP	46	192	1
HLD	46	192	5	96
TAP	46	288	4
TAP	47	0	2
TAP	47	48	2
TAP	47	96	3
TAP	47	192	5
TAP	47	240	4
TAP	47	288	3
TAP	47	288	6
TAP	48	0	5
TAP	48	48	5
TAP	48	96	4
TAP	48	192	2
TAP	48	240	3
TAP	48	288	2
XTP	48	336	1
XST	48	336	4
SCR	48	336	4	96	240	3
TAP	50	0	1
TAP	50	48	0
TAP	50	96	7
TAP	50	144	2
TAP	50	144	6
TAP	50	240	1
TAP	50	240	5
XTP	50	288	1
XTP	50	288	5
BST	51	0	2
SI_	51	0	2	96	48	7
BST	51	0	6
SI_	51	0	6	96	48	4
TAP	51	288	0
TAP	51	288	4
TAP	52	0	2
TAP	52	48	2
TAP	52	96	1
TAP	52	96	3
TAP	52	192	5
TAP	52	240	5
TAP	52	288	4
TAP	52	288	6
BRK	53	0	1
BRK	53	0	5
HLD	53	96	7	96
HLD	53	192	5	96
TAP	53	288	3
XTP	54	0	0
XTP	54	0	1
XTP	54	48	2
XTP	54	48	7
XTP	54	96	3
XTP	54	96	6
BRK	54	144	4
BRK	54	144	5
XTP	54	240	2
XTP	54	240	6
XTP	54	288	2
XTP	54	288	6
BST	55	0	1
SI_	55	0	1	96	48	3
BST	55	0	5
SI_	55	0	5	96	48	0
TAP	55	288	3
TAP	55	288	7
TAP	56	0	1
TAP	56	48	1
TAP	56	96	0
TAP	56	96	2
TAP	56	192	6
TAP	56	240	6
TAP	56	288	5
TAP	56	288	7
BRK	57	0	2
BRK	57	0	6
TAP	57	96	1
TAP	57	144	1
TAP	57	192	0
TAP	57	240	0
TAP	57	288	7
TAP	57	336	7
BRK	58	0	1
BRK	58	0	6
TAP	58	240	3
TAP	58	288	2
TAP	58	288	4
XHO	59	0	1	192
XTP	59	0	5
TAP	59	192	3
TAP	59	240	1
TAP	59	288	2
TAP	59	336	3
TAP	60	48	1
TAP	60	48	5
TAP	60	192	0
TAP	60	288	0
XTP	61	0	2
XHO	61	0	6	192
TAP	61	192	4
TAP	61	240	6
TAP	61	288	5
TAP	61	336	4
TAP	62	48	2
TAP	62	48	6
TAP	62	144	1
TAP	62	144	3
HLD	62	240	4	96
HLD	62	240	6	96
XTP	63	0	0
XTP	63	0	7
XTP	63	96	3
XTP	63	96	4
TAP	63	192	1
TAP	63	240	1
TAP	63	288	0
TAP	64	0	6
TAP	64	48	6
TAP	64	96	7
TAP	64	192	3
TAP	64	240	3
TAP	64	288	4
HLD	65	0	1	96
TAP	65	0	3
BRK	65	96	0
TAP	65	192	4
HLD	65	192	6	96
BRK	65	288	7
TAP	66	0	1
TAP	66	0	3
TAP	66	96	4
STR	66	96	6
SCR	66	96	6	96	96	1
HLD	67	0	3	192
TAP	67	192	4
TAP	67	240	4
TAP	67	288	3
HLD	68	0	5	96
HLD	68	96	4	96
HLD	68	192	3	96
TAP	68	288	2
TAP	69	0	7
TAP	69	48	7
TAP	69	96	0
TAP	69	96	6
TAP	69	144	0
TAP	69	144	6
TAP	69	240	1
TAP	69	240	5
XTP	69	288	1
XTP	69	288	5
TAP	70	0	0
TAP	70	48	0
TAP	70	96	1
TAP	70	96	7
TAP	70	144	1
TAP	70	144	7
TAP	70	240	2
TAP	70	240	6
XTP	70	288	2
XTP	70	288	6
TAP	71	0	4
TAP	71	0	5
TAP	71	48	4
TAP	71	48	5
TAP	71	96	3
TAP	71	96	6
TAP	71	144	3
TAP	71	144	6
TAP	71	240	2
TAP	71	240	7
XTP	71	288	2
XTP	71	288	7
TAP	72	0	2
TAP	72	0	3
TAP	72	48	2
TAP	72	48	3
TAP	72	96	1
TAP	72	96	4
TAP	72	144	1
TAP	72	144	4
TAP	72	240	0
TAP	72	240	5
XTP	72	288	0
XST	72	288	5
SXR	72	288	5	96	288	2
BST	74	0	1
SI_	74	0	1	96	48	5
BST	74	0	3
SI_	74	0	3	96	48	7
TAP	74	288	2
TAP	74	288	6
TAP	75	0	1
TAP	75	48	0
TAP	75	96	2
TAP	75	96	7
TAP	75	192	6
TAP	75	240	7
TAP	75	288	0
TAP	75	288	5
BRK	76	0	6
BRK	76	0	7
TAP	76	96	2
TAP	76	96	3
TAP	76	192	4
TAP	76	192	5
TAP	76	288	0
TAP	76	288	1
XTP	77	0	3
XTP	77	0	4
XTP	77	48	2
XTP	77	48	5
XTP	77	96	1
XTP	77	96	6
BRK	77	144	0
BRK	77	144	7
XTP	77	240	1
XTP	77	240	5
XTP	77	288	1
XTP	77	288	5
BST	78	0	4
SI_	78	0	4	96	48	0
BST	78	0	6
SI_	78	0	6	96	48	2
TAP	78	288	3
TAP	78	288	4
TAP	79	0	1
TAP	79	48	0
TAP	79	96	2
TAP	79	96	7
TAP	79	192	6
TAP	79	240	7
TAP	79	288	0
TAP	79	288	5
BRK	80	0	3
BRK	80	0	4
XTP	80	96	0
XTP	80	96	7
XTP	80	144	0
XTP	80	144	7
XTP	80	192	1
XTP	80	192	6
XTP	80	240	1
XTP	80	240	6
XTP	80	288	2
XTP	80	288	5
XTP	80	336	2
XTP	80	336	5
THO	81	0	0	576	C	1	M1

T_REC_TAP	266
T_REC_BRK	26
T_REC_XTP	65
T_REC_HLD	31
T_REC_XHO	3
T_REC_STR	8
T_REC_BST	8
T_REC_XST	5
T_REC_TTP	57
T_REC_THO	3
T_REC_SLD	21
T_REC_ALL	493
T_NUM_TAP	401
T_NUM_BRK	34
T_NUM_HLD	37
T_NUM_SLD	21
T_NUM_ALL	493
T_JUDGE_TAP	435
T_JUDGE_HLD	154
T_JUDGE_SLD	21
T_JUDGE_ALL	610
TTM_EACHPAIRS	144
TTM_SCR_TAP	200500
TTM_SCR_BRK	88400
TTM_SCR_HLD	37000
TTM_SCR_SLD	31500
TTM_SCR_ALL	357400
TTM_SCR_S	343400
TTM_SCR_SS	354000
TTM_RAT_ACV	10096

