VERSION	0.00.00	1.03.00
FES_MODE	0
BPM_DEF	148.000	148.000	148.000	148.000
MET_DEF	4	4
RESOLUTION	384
CLK_DEF	384
COMPATIBLE_CODE	MA2

BPM	0	0	148.000
MET	0	0	4	4

TAP	1	0	1
TAP	1	96	1
TAP	1	192	0
TAP	1	192	1
TAP	2	0	6
TAP	2	96	7
TAP	2	192	0
TAP	2	288	1
HLD	3	0	2	384
HLD	4	0	3	384
HLD	5	0	4	384
TAP	6	0	5
HLD	7	0	6	384
HLD	8	0	7	384
HLD	9	0	0	384
TAP	10	0	1
STR	11	0	2
SCL	11	0	2	96	144	7
STR	12	0	6
SUL	12	0	6	96	144	2
STR	13	0	1
SUR	13	0	1	96	144	5
STR	14	0	6
SCL	14	0	6	96	144	3
TAP	15	0	2
TAP	15	96	2
TAP	15	192	2
TAP	15	192	3
TAP	16	0	3
TAP	16	0	4
TAP	16	96	3
TAP	16	96	4
TAP	16	192	2
TAP	16	192	5
BRK	17	0	6
TAP	17	96	6
TAP	17	192	6
TAP	17	192	7
TAP	17	288	6
TAP	17	288	7
TAP	18	0	1
TAP	18	96	1
TAP	18	192	0
TAP	18	192	1
TAP	18	288	0
TAP	18	288	1
TAP	19	0	2
TAP	19	96	2
TAP	19	192	3
TAP	19	288	3
XTP	20	0	3
XST	20	0	4
SI_	20	0	4	96	144	7
BRK	21	0	1
TAP	21	96	1
TAP	21	192	0
TAP	21	192	1
TAP	21	288	0
TAP	21	288	1
TAP	22	0	6
TAP	22	96	6
TAP	22	192	6
TAP	22	192	7
TAP	22	288	6
TAP	22	288	7
TAP	23	0	5
TAP	23	96	5
TAP	23	192	4
TAP	23	288	4
XST	24	0	3
SCL	24	0	3	96	144	0
XST	24	0	4
SCR	24	0	4	96	144	7
HLD	25	0	6	192
TAP	25	192	7
TAP	25	288	0
STR	26	0	1
SI_	26	0	1	96	144	4
HLD	27	0	5	192
TAP	27	192	4
TAP	27	288	3
XTP	28	0	3
XTP	28	0	4
XTP	28	96	2
XTP	28	96	5
XTP	28	192	1
XTP	28	192	6
XTP	28	288	0
XTP	28	288	7
XHO	29	0	1	192
TAP	29	192	0
TAP	29	288	7
STR	30	0	6
SI_	30	0	6	96	144	2
HLD	31	0	1	192
TAP	31	192	0
TAP	31	288	7
XTP	32	0	0
XTP	32	0	7
XTP	32	96	1
XTP	32	96	6
XTP	32	192	2
XTP	32	192	5
XTP	32	288	3
XTP	32	288	4
HLD	33	0	5	192
HLD	33	192	4	192
TAP	34	0	5
TAP	34	96	5
TAP	34	192	4
TAP	34	192	5
TAP	35	0	5
TAP	35	96	5
TAP	35	192	4
TAP	35	288	4
TAP	36	0	3
TAP	36	96	3
TAP	36	192	2
TAP	36	192	4
HLD	37	0	2	192
HLD	37	192	3	192
TAP	38	0	2
TAP	38	96	2
TAP	38	192	2
TAP	38	192	3
TAP	39	0	2
TAP	39	96	2
TAP	39	192	3
TAP	39	288	3
TAP	40	0	4
TAP	40	96	4
TAP	40	192	3
TAP	40	192	5
TTP	41	0	6	E	0	L1
TTP	41	96	5	B	0	L1
TTP	41	192	4	B	0	L1
TTP	41	288	3	B	0	L1
TTP	42	0	2	B	0	L1
TTP	42	96	2	E	0	L1
TTP	43	0	6	E	0	L1
TTP	43	96	6	B	0	L1
TTP	43	192	7	B	0	L1
TTP	43	288	0	B	0	L1
TTP	44	0	1	B	0	L1
TTP	44	96	2	E	0	L1
TTP	45	0	5	B	0	L1
TTP	45	96	6	B	0	L1
TTP	45	192	7	B	0	L1
TTP	45	288	0	B	0	L1
TTP	46	0	1	B	0	L1
TTP	46	96	2	B	0	L1
XST	47	0	4
SI_	47	0	4	96	144	7
STR	48	0	0
SI_	48	0	0	96	144	3
TAP	49	0	5
TAP	49	96	5
TAP	49	192	4
TAP	49	192	5
TAP	50	0	3
TAP	50	0	4
TAP	50	96	3
TAP	50	96	4
TAP	50	192	2
TAP	50	192	5
BRK	51	0	1
TAP	51	96	1
TAP	51	192	0
TAP	51	192	1
TAP	51	288	0
TAP	51	288	1
TAP	52	0	6
TAP	52	96	6
TAP	52	192	6
TAP	52	192	7
TAP	52	288	6
TAP	52	288	7
TAP	53	0	5
TAP	53	96	5
TAP	53	192	4
TAP	53	288	4
STR	54	0	3
SI_	54	0	3	96	144	0
TAP	54	0	4
BRK	55	0	6
TAP	55	96	6
TAP	55	192	6
TAP	55	192	7
TAP	55	288	6
TAP	55	288	7
TAP	56	0	1
TAP	56	96	1
TAP	56	192	0
TAP	56	192	1
TAP	56	288	0
TAP	56	288	1
TAP	57	0	2
TAP	57	96	2
TAP	57	192	3
TAP	57	288	3
XST	58	0	3
SCL	58	0	3	96	144	0
XST	58	0	4
SCR	58	0	4	96	144	7
HLD	59	0	1	192
TAP	59	192	0
TAP	59	288	7
STR	60	0	6
SI_	60	0	6	96	144	3
HLD	61	0	2	192
TAP	61	192	3
TAP	61	288	4
XTP	62	0	3
XTP	62	0	4
XTP	62	96	2
XTP	62	96	5
XTP	62	192	1
XTP	62	192	6
HLD	63	0	4	96
HLD	63	0	5	96
HLD	63	192	2	96
HLD	63	192	3	96
TAP	64	0	5
TAP	64	96	5
TAP	64	192	4
TAP	64	192	5
HLD	65	0	6	96
HLD	65	0	7	96
HLD	65	192	0	96
HLD	65	192	1	96
TAP	66	0	7
TAP	66	96	7
TAP	66	192	0
TAP	66	192	6
STR	67	0	5
SCR	67	0	5	96	144	0
STR	68	0	1
SCR	68	0	1	96	144	4
TAP	69	0	5
TAP	69	96	5
TAP	69	192	4
TAP	69	192	5
TAP	70	0	2
TAP	70	96	2
TAP	70	192	2
TAP	70	192	3
TAP	71	0	0
TAP	71	0	1
TAP	71	96	0
TAP	71	96	1
TAP	71	192	0
TAP	71	192	1
TAP	72	0	0
TAP	72	0	7
TAP	72	96	0
TAP	72	96	7
STR	72	192	0
SSL	72	192	0	96	288	4
TAP	72	192	7
BRK	74	0	5
TAP	74	96	4
TAP	74	96	5
TAP	74	192	5
TAP	74	288	4
TAP	74	288	5
TAP	75	0	2
TAP	75	96	2
TAP	75	96	3
TAP	75	192	2
TAP	75	288	2
TAP	75	288	3
TAP	76	0	1
TAP	76	96	1
TAP	76	192	0
TAP	76	288	0
XTP	77	0	0
XST	77	0	7
SI_	77	0	7	96	144	4
BRK	78	0	2
TAP	78	96	2
TAP	78	96	3
TAP	78	192	2
TAP	78	288	2
TAP	78	288	3
TAP	79	0	5
TAP	79	96	4
TAP	79	96	5
TAP	79	192	5
TAP	79	288	4
TAP	79	288	5
TAP	80	0	6
TAP	80	96	6
TAP	80	192	7
TAP	80	288	7
XST	81	0	0
SCR	81	0	0	96	288	6
TTP	82	192	0	C	1	L1

T_REC_TAP	184
T_REC_BRK	6
T_REC_XTP	24
T_REC_HLD	23
T_REC_XHO	1
T_REC_STR	12
T_REC_BST	0
T_REC_XST	8
T_REC_TTP	19
T_REC_THO	0
T_REC_SLD	20
T_REC_ALL	297
T_NUM_TAP	247
T_NUM_BRK	6
T_NUM_HLD	24
T_NUM_SLD	20
T_NUM_ALL	297
T_JUDGE_TAP	253
T_JUDGE_HLD	104
T_JUDGE_SLD	20
T_JUDGE_ALL	377
TTM_EACHPAIRS	67
TTM_SCR_TAP	123500
TTM_SCR_BRK	15600
TTM_SCR_HLD	24000
TTM_SCR_SLD	30000
TTM_SCR_ALL	193100
TTM_SCR_S	186750
TTM_SCR_SS	192500
TTM_RAT_ACV	10031

