VERSION	0.00.00	1.03.00
FES_MODE	0
BPM_DEF	144.000	144.000	144.000	144.000
MET_DEF	4	4
RESOLUTION	384
CLK_DEF	384
COMPATIBLE_CODE	MA2

BPM	0	0	144.000
MET	0	0	4	4

XTP	1	360	4
XTP	1	372	3
XHO	2	0	2	1152
TTP	3	0	5	E	0	M1
TTP	3	372	3	B	0	M1
TTP	4	0	3	E	0	M1
TAP	5	180	4
TAP	5	192	3
STR	5	288	2
SI_	5	288	2	96	24	7
STR	5	288	5
SI_	5	288	5	96	24	0
XTP	6	0	2
XTP	6	0	5
TTP	6	12	0	B	0	M1
TTP	6	12	0	C	1	M1
TTP	6	12	7	B	0	M1
HLD	7	0	7	384
HLD	8	0	1	384
HLD	9	0	3	384
STR	10	0	5
SCL	10	0	5	96	288	2
STR	11	0	7
SCL	11	0	7	96	288	4
STR	12	0	0
SCR	12	0	0	96	288	3
HLD	13	0	4	192
TAP	13	192	3
BRK	13	240	1
BRK	13	240	6
TAP	14	0	4
TAP	14	96	3
HLD	14	96	5	72
HLD	14	168	4	72
TAP	14	240	3
TAP	14	288	2
TAP	15	0	3
HLD	15	96	2	72
TAP	15	96	4
HLD	15	168	3	72
TAP	15	240	4
TAP	15	288	5
TAP	16	0	4
TAP	16	96	3
HLD	16	96	5	72
HLD	16	168	4	72
TAP	16	240	3
TAP	16	288	2
TAP	17	0	3
HLD	17	96	2	72
TAP	17	96	4
HLD	17	168	3	72
TAP	17	240	4
TAP	17	288	5
TAP	17	320	5
TAP	17	352	4
TAP	17	352	6
TAP	18	0	4
TAP	18	0	6
TAP	18	48	3
TAP	18	96	2
TAP	18	96	4
TAP	18	144	5
TAP	18	192	4
TAP	18	192	6
TAP	18	240	3
TAP	18	288	2
TAP	18	288	4
TAP	18	336	1
TAP	18	360	1
TAP	19	0	3
TAP	19	48	4
TAP	19	96	3
TAP	19	96	5
TAP	19	144	2
TAP	19	192	1
TAP	19	192	3
TAP	19	240	4
TAP	19	288	3
TAP	19	288	5
TAP	19	336	6
TAP	19	360	6
TAP	20	0	4
TAP	20	24	4
TAP	20	48	3
TAP	20	72	3
TAP	20	96	1
TAP	20	120	1
TAP	20	144	7
TAP	20	168	7
TAP	20	192	0
TAP	20	216	0
TAP	20	240	6
TAP	20	264	6
TAP	20	288	4
TAP	20	300	3
TAP	20	312	2
TAP	20	324	1
TAP	20	336	0
TAP	20	348	7
TAP	20	360	6
TAP	20	372	5
TAP	21	0	4
TAP	21	208	4
TAP	21	224	3
TAP	21	240	4
TAP	21	256	3
TAP	21	272	4
TAP	21	288	3
TAP	21	304	5
XHO	22	0	2	48
TAP	22	0	4
TAP	22	48	5
TAP	22	96	4
HLD	22	96	6	48
TAP	22	144	3
HLD	22	192	2	48
TAP	22	192	4
TAP	22	240	5
TAP	22	288	4
HLD	22	288	6	48
TAP	22	336	3
XHO	23	0	2	48
TAP	23	0	4
TAP	23	48	5
TAP	23	96	4
HLD	23	96	6	48
TAP	23	144	3
HLD	23	192	2	48
TAP	23	192	4
TAP	23	240	5
TAP	23	288	6
TAP	23	312	6
TTP	23	360	2	B	0	M1
TTP	23	360	2	E	0	M1
TTP	23	360	3	B	0	M1
TTP	23	360	4	E	0	M1
TTP	24	24	1	B	0	M1
TTP	24	24	1	E	0	M1
TTP	24	24	2	B	0	M1
TTP	24	24	3	E	0	M1
XTP	24	96	7
TTP	24	168	4	B	0	M1
TTP	24	168	4	E	0	M1
TTP	24	168	5	B	0	M1
TTP	24	168	6	E	0	M1
TTP	24	216	5	B	0	M1
TTP	24	216	5	E	0	M1
TTP	24	216	6	B	0	M1
TTP	24	216	7	E	0	M1
XHO	24	288	1	72
TAP	24	360	3
TAP	25	48	3
TAP	25	48	4
TAP	25	96	1
TAP	25	96	6
TAP	25	192	5
TAP	25	216	5
TAP	25	240	4
TAP	25	264	6
STR	25	288	2
SCR	25	288	2	96	48	5
TAP	25	312	2
TAP	25	336	3
STR	26	0	6
SCR	26	0	6	96	48	1
TAP	26	96	2
TTP	26	192	3	B	0	M1
TTP	26	192	4	B	0	M1
TAP	26	288	0
TAP	26	288	7
TAP	26	336	1
HLD	26	336	6	96
TAP	27	48	4
TAP	27	96	3
TAP	27	96	5
TAP	27	144	2
TAP	27	192	1
STR	27	192	7
SI_	27	192	7	96	48	3
STR	27	288	2
SI_	27	288	2	96	48	5
TAP	27	288	7
TAP	28	0	2
HLD	28	0	6	96
TAP	28	96	4
TAP	28	168	3
TAP	28	168	4
TAP	28	216	2
TAP	28	216	5
STR	28	288	0
SCR	28	288	0	96	48	3
STR	28	288	7
SCL	28	288	7	96	48	4
TAP	28	336	1
TAP	28	336	6
STR	29	0	0
SUR	29	0	0	96	192	3
STR	29	0	7
SUL	29	0	7	96	192	4
TTP	30	0	4	B	0	M1
TTP	30	12	5	B	0	M1
TTP	30	24	6	B	0	M1
TTP	30	36	7	B	0	M1
TTP	30	48	0	B	0	M1
TTP	30	60	1	B	0	M1
TTP	30	72	2	B	0	M1
XTP	30	96	3
TAP	30	192	3
TAP	30	288	3
TAP	31	0	3
TTP	31	0	4	B	0	M1
TTP	31	12	5	B	0	M1
TTP	31	24	6	B	0	M1
TTP	31	36	7	B	0	M1
TTP	31	48	0	B	0	M1
TTP	31	60	1	B	0	M1
TTP	31	72	2	B	0	M1
XTP	31	96	3
TAP	31	192	3
TAP	31	288	3
TAP	32	0	3
TTP	32	0	4	B	0	M1
TTP	32	12	5	B	0	M1
TTP	32	24	6	B	0	M1
TTP	32	36	7	B	0	M1
TTP	32	48	0	B	0	M1
TTP	32	60	1	B	0	M1
TTP	32	72	2	B	0	M1
XTP	32	96	3
TAP	32	192	3
TAP	32	288	3
TAP	33	0	3
TTP	33	0	4	B	0	M1
TTP	33	12	5	B	0	M1
TTP	33	24	6	B	0	M1
TTP	33	36	7	B	0	M1
TTP	33	48	0	B	0	M1
TTP	33	60	1	B	0	M1
TTP	33	72	2	B	0	M1
XTP	33	96	3
TAP	33	192	3
TAP	33	192	4
TAP	33	288	3
TAP	33	288	4
TAP	34	0	4
TTP	34	0	5	E	0	M1
TTP	34	12	6	E	0	M1
TTP	34	24	7	E	0	M1
TTP	34	36	0	E	0	M1
TTP	34	48	1	E	0	M1
TAP	34	96	4
TAP	34	192	3
TAP	34	288	3
TAP	35	0	3
TTP	35	0	3	E	0	M1
TTP	35	12	2	E	0	M1
TTP	35	24	1	E	0	M1
TTP	35	36	0	E	0	M1
TTP	35	48	7	E	0	M1
TAP	35	96	3
TAP	35	192	4
STR	35	288	4
SI_	35	288	4	96	48	7
TAP	36	0	3
TAP	36	0	4
TAP	36	96	2
TAP	36	96	6
TAP	36	168	1
TAP	36	168	3
TAP	36	240	5
TAP	36	240	6
TAP	36	312	0
TAP	36	312	1
HLD	37	0	4	64
HLD	37	64	6	64
HLD	37	128	7	64
HLD	37	192	0	64
HLD	37	256	2	64
TAP	37	320	3
TAP	38	0	1
STR	38	0	4
SCR	38	0	4	96	96	0
STR	38	96	0
SCR	38	96	0	96	96	4
TAP	38	192	4
TAP	38	288	0
TAP	38	336	1
TAP	38	360	1
STR	39	0	3
SCR	39	0	3	96	96	7
STR	39	96	7
SCR	39	96	7	96	96	3
TAP	39	192	3
TAP	39	288	7
TAP	39	336	1
TAP	39	360	1
STR	40	0	4
SCR	40	0	4	96	96	0
STR	40	96	0
SCR	40	96	0	96	96	4
STR	40	192	4
SLR	40	192	4	96	96	0
STR	40	288	0
SLR	40	288	0	96	96	4
TAP	41	0	4
TAP	41	96	0
STR	41	192	0
SF_	41	192	0	96	48	4
XTP	42	0	3
STR	42	0	5
SCR	42	0	5	96	144	4
TAP	42	96	4
TTP	42	180	2	B	0	M1
TTP	42	192	1	B	0	M1
TAP	42	288	0
TAP	42	360	3
STR	43	0	3
SCL	43	0	3	96	144	4
TAP	43	96	4
TTP	43	192	2	B	0	M1
TTP	43	192	3	B	0	M1
TAP	43	288	7
STR	44	0	5
SCL	44	0	5	96	144	7
TAP	44	96	0
TTP	44	180	3	E	0	M1
TTP	44	192	2	B	0	M1
TAP	44	288	3
STR	45	0	2
SCR	45	0	2	96	144	0
TAP	45	96	7
TAP	45	168	3
TAP	45	192	3
TAP	45	240	4
TAP	45	288	4
TAP	45	336	3
TAP	45	336	5
STR	46	0	2
SI_	46	0	2	96	48	5
STR	46	0	6
SI_	46	0	6	96	48	1
BRK	46	96	2
BRK	46	96	6
STR	47	0	0
SCR	47	0	0	96	288	3
TAP	47	192	5
TAP	47	288	6
TAP	48	0	7
TAP	48	96	6
TAP	48	192	3
TAP	48	192	5
TAP	48	288	3
TAP	48	288	5
XTP	49	0	4
XTP	49	12	3
XTP	49	24	2
TTP	49	96	2	E	0	M1
TTP	49	144	3	E	0	M1
TTP	49	192	4	E	0	M1
STR	50	0	4
SCR	50	0	4	96	288	7
TAP	50	192	3
TAP	50	288	2
TAP	51	0	1
TAP	51	96	0
TAP	51	96	1
TAP	51	192	2
TAP	51	192	3
TAP	51	288	4
TAP	51	288	5
STR	52	0	6
SCL	52	0	6	96	48	3
STR	52	0	7
SCR	52	0	7	96	48	2
BRK	52	96	6
BRK	52	96	7
STR	52	192	0
SCL	52	192	0	96	48	5
STR	52	192	1
SCR	52	192	1	96	48	4
BRK	52	288	0
BRK	52	288	1
STR	53	0	0
SCR	53	0	0	96	288	7
STR	53	0	7
SCL	53	0	7	96	288	0
TAP	55	0	4
TAP	55	48	3
TAP	55	96	2
TAP	55	144	1
HLD	55	192	1	96
TAP	55	240	3
TAP	55	288	4
TAP	56	0	4
TAP	56	48	5
TAP	56	96	6
HLD	56	144	6	96
TAP	56	192	4
TAP	56	240	4
TAP	56	288	3
TAP	56	336	2
HLD	57	0	2	96
TAP	57	48	3
TAP	57	96	4
TAP	57	192	3
TAP	57	240	4
HLD	57	288	5	96
TAP	58	0	4
HLD	58	48	3	144
TAP	58	192	4
TAP	59	0	2
TAP	59	48	2
TAP	59	96	3
TAP	59	144	4
TAP	59	192	5
TAP	59	240	5
TAP	59	288	4
TAP	59	336	3
HLD	60	0	2	96
HLD	60	96	0	96
HLD	60	192	7	96
HLD	60	288	5	96
STR	61	0	3
SCL	61	0	3	96	96	0
STR	61	192	4
SCR	61	192	4	96	96	7
HLD	62	0	0	192
BRK	62	192	7
TTP	63	0	4	E	0	M1
TTP	63	0	5	E	0	M1
TTP	63	12	3	E	0	M1
TTP	63	24	2	E	0	M1
TTP	63	36	1	E	0	M1
TTP	63	48	0	E	0	M1
TTP	63	192	3	E	0	M1
TTP	63	192	4	E	0	M1
TTP	63	204	5	E	0	M1
TTP	63	216	6	E	0	M1
TTP	63	228	7	E	0	M1
TTP	63	240	0	E	0	M1
TTP	64	0	4	E	0	M1
TTP	64	0	5	E	0	M1
TTP	64	12	3	E	0	M1
TTP	64	24	2	E	0	M1
TTP	64	36	1	E	0	M1
TTP	64	48	0	E	0	M1
TAP	64	192	7
TAP	64	288	5
TTP	65	0	3	E	0	M1
TTP	65	0	4	E	0	M1
TTP	65	12	5	E	0	M1
TTP	65	24	6	E	0	M1
TTP	65	36	7	E	0	M1
TTP	65	48	0	E	0	M1
TTP	65	192	4	E	0	M1
TTP	65	192	5	E	0	M1
TTP	65	204	3	E	0	M1
TTP	65	216	2	E	0	M1
TTP	65	228	1	E	0	M1
TTP	65	240	0	E	0	M1
TTP	66	0	3	E	0	M1
TTP	66	0	4	E	0	M1
TTP	66	12	5	E	0	M1
TTP	66	24	6	E	0	M1
TTP	66	36	7	E	0	M1
TTP	66	48	0	E	0	M1
HLD	66	192	0	192
TAP	68	192	3
TAP	68	240	2
TAP	68	288	4
TAP	68	336	5
HLD	69	0	1	96
HLD	69	96	3	96
HLD	69	192	4	96
STR	69	288	6
SCR	69	288	6	96	576	4
BRK	70	0	0
BST	72	192	3
SI_	72	192	3	96	48	1
BST	72	192	4
SI_	72	192	4	96	48	6
BST	72	288	3
SI_	72	288	3	96	48	7
BST	72	288	4
SI_	72	288	4	96	48	0
BRK	73	0	3
BRK	73	0	4
STR	73	96	1
SCL	73	96	1	96	48	6
TAP	73	96	6
TAP	73	192	1
STR	73	192	4
SCL	73	192	4	96	48	1
TAP	73	288	4
STR	73	288	7
SCL	73	288	7	96	48	4
STR	74	0	2
SCL	74	0	2	96	48	7
TAP	74	0	7
TAP	74	96	2
STR	74	96	5
SCL	74	96	5	96	48	2
STR	74	192	0
SCL	74	192	0	96	48	5
TAP	74	192	5
TAP	74	288	0
STR	74	288	3
SCL	74	288	3	96	48	0
TAP	75	0	3
STR	75	0	6
SCL	75	0	6	96	48	3
TAP	75	96	1
TAP	75	96	6
TAP	75	192	0
HLD	75	240	0	96
TAP	75	336	7
STR	76	0	7
SI_	76	0	7	96	48	4
STR	76	96	7
SI_	76	96	7	96	48	2
TAP	76	192	7
TAP	76	264	3
TAP	76	288	3
TAP	76	336	2
TAP	76	336	4
HLD	77	0	1	96
TAP	77	0	5
TAP	77	96	4
STR	77	144	3
SV_	77	144	3	96	48	6
STR	77	240	3
SV_	77	240	3	96	48	0
TAP	77	336	3
XTP	77	336	6
HLD	78	0	7	96
TAP	78	96	4
TAP	78	144	3
TAP	78	192	3
TAP	78	264	2
TAP	78	264	4
TAP	78	336	1
TAP	78	336	5
STR	79	0	1
SI_	79	0	1	96	48	7
TAP	79	0	5
TAP	79	96	1
STR	79	96	6
SI_	79	96	6	96	48	2
STR	79	192	3
SI_	79	192	3	96	48	5
TAP	79	192	6
TAP	79	288	3
STR	79	288	7
SCL	79	288	7	96	144	1
TTP	80	0	0	C	1	M1
TAP	80	0	7
TAP	80	144	7
TAP	80	192	7
TAP	80	240	1
TAP	80	240	6
TAP	80	288	2
TAP	80	288	5
STR	81	0	1
SI_	81	0	1	96	48	5
TAP	81	0	6
TAP	81	96	1
STR	81	96	7
SI_	81	96	7	96	48	4
STR	81	192	3
SI_	81	192	3	96	48	7
TAP	81	192	7
TAP	81	288	3
STR	81	288	5
SI_	81	288	5	96	48	1
STR	82	0	2
SI_	82	0	2	96	48	5
TAP	82	0	5
TAP	82	96	2
STR	82	96	6
SI_	82	96	6	96	48	1
STR	82	192	3
SI_	82	192	3	96	48	0
TAP	82	192	6
TAP	82	288	3
STR	82	288	6
SI_	82	288	6	96	48	4
STR	83	0	2
SI_	83	0	2	96	48	0
TAP	83	0	6
TAP	83	96	2
STR	83	96	3
SI_	83	96	3	96	48	7
STR	83	192	0
SI_	83	192	0	96	48	4
TAP	83	192	3
TAP	83	288	0
XST	83	288	7
SCL	83	288	7	96	144	1
BRK	84	0	3
TAP	84	0	7
TAP	84	192	7
TAP	84	264	4
STR	84	288	4
SI_	84	288	4	96	48	1
SI_	84	288	4	96	48	7
TAP	84	336	3
TAP	84	336	5
TAP	85	0	4
HLD	85	144	2	48
HLD	85	144	6	48
TAP	85	240	1
TAP	85	240	5
STR	85	288	3
SI_	85	288	3	96	48	0
SI_	85	288	3	96	48	6
TAP	85	336	2
TAP	85	336	4
TAP	86	0	3
TAP	86	144	4
TAP	86	168	4
TAP	86	192	3
TAP	86	264	1
TAP	86	264	4
TAP	86	336	3
TAP	86	336	6
STR	87	0	0
SCR	87	0	0	96	48	3
TAP	87	48	7
TAP	87	96	6
STR	87	144	5
SCR	87	144	5	96	48	0
TAP	87	192	4
TAP	87	240	3
STR	87	288	2
SCR	87	288	2	96	48	5
TAP	87	336	1
TAP	88	0	0
STR	88	48	7
SCR	88	48	7	96	48	2
TAP	88	96	6
TAP	88	144	5
STR	88	192	4
SCR	88	192	4	96	48	7
TAP	88	240	3
TAP	88	288	2
TAP	88	336	1
XTP	89	0	0
XTP	89	0	7
XTP	89	48	1
XTP	89	48	6
XST	89	96	2
SCR	89	96	2	96	48	4
XST	89	96	5
SCR	89	96	5	96	48	7
XTP	89	192	2
XTP	89	192	5
TAP	89	288	7
TAP	89	360	0
TAP	89	360	6
TAP	90	48	1
TAP	90	48	5
TAP	90	96	2
HLD	90	96	6	72
TAP	90	168	0
TAP	90	240	1
TAP	90	240	7
TAP	90	312	2
TAP	90	312	6
THO	91	0	0	1152	C	0	M1
TTP	91	0	3	B	0	M1
TTP	91	0	4	B	0	M1
TTP	91	0	5	B	0	M1
XTP	94	96	1
XTP	94	96	6
STR	94	192	0
SCR	94	192	0	96	48	3
STR	94	192	7
SCL	94	192	7	96	48	4
XTP	94	288	0
XTP	94	288	7
TAP	95	0	1
TAP	95	0	6
STR	95	48	2
SI_	95	48	2	96	48	6
TAP	95	72	3
TAP	95	96	1
TAP	95	144	2
TAP	95	192	4
STR	95	240	5
SI_	95	240	5	96	48	1
TAP	95	264	4
TAP	95	288	6
TAP	95	336	5
TTP	96	48	3	B	0	M1
TTP	96	48	3	E	0	M1
TAP	96	48	7
TAP	96	120	0
TTP	96	120	4	B	0	M1
TTP	96	120	5	E	0	M1
TTP	96	192	2	B	0	M1
TTP	96	192	3	E	0	M1
TAP	96	192	6
STR	96	264	1
SCR	96	264	1	96	408	0
TTP	96	264	5	B	0	M1
TTP	96	264	5	E	0	M1
TTP	96	336	0	B	0	M1
TTP	96	336	0	C	1	M1
TTP	96	336	7	B	0	M1

T_REC_TAP	328
T_REC_BRK	13
T_REC_XTP	24
T_REC_HLD	44
T_REC_XHO	4
T_REC_STR	79
T_REC_BST	4
T_REC_XST	3
T_REC_TTP	122
T_REC_THO	1
T_REC_SLD	88
T_REC_ALL	710
T_NUM_TAP	556
T_NUM_BRK	17
T_NUM_HLD	49
T_NUM_SLD	88
T_NUM_ALL	710
T_JUDGE_TAP	573
T_JUDGE_HLD	158
T_JUDGE_SLD	88
T_JUDGE_ALL	819
TTM_EACHPAIRS	112
TTM_SCR_TAP	278000
TTM_SCR_BRK	44200
TTM_SCR_HLD	49000
TTM_SCR_SLD	132000
TTM_SCR_ALL	503200
TTM_SCR_S	486500
TTM_SCR_SS	501500
TTM_RAT_ACV	10033

