VERSION	0.00.00	1.03.00
FES_MODE	0
BPM_DEF	144.000	144.000	144.000	144.000
MET_DEF	4	4
RESOLUTION	384
CLK_DEF	384
COMPATIBLE_CODE	MA2

BPM	0	0	144.000
MET	0	0	4	4

STR	2	0	2
SUR	2	0	2	96	288	4
HLD	2	0	5	1152
HLD	4	0	3	672
TAP	5	192	4
TAP	5	288	4
TTP	6	0	0	C	1	M1
TTP	6	0	1	B	0	M1
TTP	6	0	6	B	0	M1
TAP	6	288	6
HLD	7	0	6	384
TAP	7	288	4
HLD	8	0	4	384
TAP	8	288	3
HLD	9	0	3	384
TAP	9	288	1
HLD	10	0	1	480
TAP	10	288	2
HLD	11	0	2	96
HLD	11	192	2	96
HLD	11	192	3	96
HLD	12	0	3	96
HLD	12	0	4	96
HLD	12	192	4	96
HLD	12	192	5	96
HLD	13	0	3	96
HLD	13	0	4	96
TAP	13	192	2
TAP	13	192	5
BRK	13	240	2
BRK	13	240	5
TAP	14	0	4
TAP	14	96	3
HLD	14	96	5	576
TAP	14	240	4
TAP	14	288	4
TAP	15	48	6
TAP	15	96	6
TAP	15	240	4
TAP	15	288	4
TAP	16	0	3
HLD	16	96	2	576
TAP	16	96	4
TAP	16	240	3
TAP	16	288	3
TAP	17	48	1
TAP	17	96	1
TAP	17	240	3
TAP	17	288	3
TAP	18	0	2
TAP	18	0	3
TAP	18	96	3
TAP	18	96	4
TAP	18	192	4
TAP	18	192	5
TAP	18	288	3
HLD	18	288	6	288
TAP	19	0	4
TAP	19	96	4
TAP	19	192	5
TAP	19	288	4
STR	19	288	7
SXR	19	288	7	96	288	3
XTP	20	0	3
STR	20	288	1
SI_	20	288	1	96	48	5
BRK	21	0	7
TAP	21	288	3
TAP	21	288	4
HLD	22	0	3	96
XTP	22	0	5
TAP	22	96	4
TAP	22	192	2
TAP	22	192	4
TAP	22	288	2
TAP	22	288	3
TAP	22	336	1
TAP	23	0	1
HLD	23	0	3	96
TAP	23	96	2
TAP	23	192	2
TAP	23	192	4
TAP	23	288	3
TAP	23	288	5
XTP	23	360	2
XTP	23	360	6
XHO	24	24	2	72
XTP	24	24	6
XTP	24	96	4
XTP	24	168	1
XTP	24	168	5
XTP	24	216	1
XTP	24	216	5
XTP	24	288	2
XTP	24	288	4
XTP	24	360	3
XTP	24	360	5
XTP	25	48	2
XTP	25	48	6
XTP	25	96	2
XST	25	96	6
SCL	25	96	6	96	96	3
TAP	26	0	1
TAP	26	96	2
TAP	26	96	3
HLD	26	192	4	144
TAP	26	192	5
TAP	26	288	6
TAP	27	0	7
TAP	27	96	5
TAP	27	96	6
TAP	27	192	4
TAP	27	192	5
TAP	27	240	4
TAP	27	288	5
TAP	28	0	2
TAP	28	0	3
HLD	28	96	1	72
XTP	28	168	0
XTP	28	216	0
XTP	28	288	1
XTP	28	288	7
XTP	28	336	2
XTP	28	336	6
XHO	29	0	3	288
BRK	29	0	5
STR	29	288	6
SI_	29	288	6	96	96	3
STR	30	0	2
SI_	30	0	2	96	96	7
STR	30	288	0
SI_	30	288	0	96	96	3
STR	31	0	4
SI_	31	0	4	96	96	7
STR	31	288	6
SI_	31	288	6	96	96	1
STR	32	0	2
SI_	32	0	2	96	96	5
STR	32	288	7
SI_	32	288	7	96	96	4
STR	33	0	3
SI_	33	0	3	96	96	0
STR	33	288	1
SCR	33	288	1	96	96	4
STR	34	0	5
SCR	34	0	5	96	96	0
STR	34	288	2
SCL	34	288	2	96	96	7
STR	35	0	6
SCL	35	0	6	96	96	3
TAP	35	288	0
TAP	36	0	1
TAP	36	0	3
HLD	36	96	2	72
HLD	36	168	3	72
HLD	36	240	4	72
STR	36	312	5
SCR	36	312	5	96	168	2
TTP	37	0	0	C	1	M1
XTP	37	288	3
XTP	37	288	4
BRK	38	0	1
BRK	38	0	6
TAP	38	96	2
TAP	38	144	3
HLD	38	192	4	96
TAP	38	288	5
TAP	39	0	3
HLD	39	0	6	96
TAP	39	96	7
HLD	39	192	1	96
TAP	39	192	5
STR	39	288	0
SCR	39	288	0	96	192	5
XTP	40	192	0
STR	40	288	0
SCR	40	288	0	96	192	5
BRK	41	0	7
XTP	41	192	6
XTP	41	288	6
XTP	41	288	7
TAP	42	0	1
TAP	42	0	5
TAP	42	96	6
TAP	42	144	7
HLD	42	192	0	96
TAP	42	288	1
TAP	43	0	2
TAP	43	0	3
TAP	43	96	4
TAP	43	96	5
TAP	43	192	6
TAP	43	192	7
STR	43	288	0
SI_	43	288	0	96	48	5
HLD	43	288	1	96
STR	44	96	3
SI_	44	96	3	96	48	0
HLD	44	96	4	96
STR	44	288	6
SI_	44	288	6	96	48	3
HLD	44	288	7	96
STR	45	96	0
SI_	45	96	0	96	48	5
STR	45	96	1
SI_	45	96	1	96	48	4
XTP	45	288	3
HLD	45	288	6	192
TTP	46	96	0	C	1	M1
THO	48	0	0	384	C	0	M1
TAP	49	192	0
TAP	49	192	7
TAP	49	288	3
TAP	49	288	4
HLD	50	0	1	192
BRK	50	0	6
HLD	50	192	3	192
HLD	51	0	4	192
HLD	51	192	6	192
TTP	52	0	4	B	0	M1
TTP	52	0	5	B	0	M1
TTP	52	192	2	B	0	M1
TTP	52	192	2	E	0	M1
TTP	52	192	3	B	0	M1
THO	53	0	0	384	C	0	M1
TTP	54	0	1	B	0	M1
TTP	54	0	6	B	0	M1
STR	55	0	7
SI_	55	0	7	96	384	4
STR	56	0	3
SI_	56	0	3	96	384	0
STR	57	0	6
SI_	57	0	6	96	384	3
STR	58	0	2
SI_	58	0	2	96	384	7
STR	59	0	4
SCR	59	0	4	96	384	7
STR	60	0	0
SCR	60	0	0	96	384	3
STR	61	0	7
SCL	61	0	7	96	384	4
HLD	62	0	3	192
TAP	62	192	4
TAP	62	288	0
TAP	62	288	7
TAP	63	0	1
STR	63	0	6
SCR	63	0	6	96	384	1
BST	64	0	2
SCR	64	0	2	96	384	5
STR	65	0	6
SCR	65	0	6	96	384	1
STR	66	0	2
SCR	66	0	2	96	384	5
HLD	67	0	7	576
HLD	68	0	0	384
TAP	69	0	7
TAP	69	96	1
TAP	69	96	6
TAP	69	192	2
TAP	69	192	5
STR	69	288	3
SCL	69	288	3	96	768	4
STR	69	288	4
SCR	69	288	4	96	768	3
STR	72	192	3
SI_	72	192	3	96	48	0
STR	72	192	4
SI_	72	192	4	96	48	7
BRK	73	0	1
BRK	73	0	6
TAP	73	96	2
TAP	73	96	3
TAP	73	192	4
TAP	73	192	5
STR	73	288	3
SI_	73	288	3	96	48	7
STR	73	288	6
SI_	73	288	6	96	48	3
STR	74	96	1
SI_	74	96	1	96	48	4
STR	74	96	4
SI_	74	96	4	96	48	0
TAP	74	288	3
TAP	74	288	7
TAP	75	0	2
TAP	75	0	6
TAP	75	96	0
TAP	75	96	4
TAP	75	192	1
TAP	75	192	3
STR	75	240	1
SLR	75	240	1	96	144	7
TAP	75	240	3
TAP	75	336	4
HLD	76	0	4	192
XTP	76	192	0
TAP	76	288	1
TAP	76	288	3
BST	77	0	2
SCR	77	0	2	96	48	5
TAP	77	96	6
HLD	77	144	6	96
TAP	77	240	7
TAP	77	336	0
TAP	77	336	5
TAP	78	0	0
TAP	78	0	5
TAP	78	96	1
TAP	78	144	1
XTP	78	192	2
XTP	78	192	4
XTP	78	264	3
XTP	78	264	5
XTP	78	336	2
XTP	78	336	6
XST	79	0	2
SI_	79	0	2	96	48	7
XST	79	0	6
SI_	79	0	6	96	48	3
TAP	79	192	0
TAP	79	192	4
STR	79	288	1
SXR	79	288	1	96	240	4
TAP	79	288	5
XTP	80	288	3
XTP	80	288	5
BRK	81	0	2
STR	81	0	6
SI_	81	0	6	96	48	4
TAP	81	96	2
TAP	81	192	0
STR	81	192	3
SI_	81	192	3	96	48	7
TAP	81	288	1
TAP	82	0	2
STR	82	0	6
SI_	82	0	6	96	48	4
TAP	82	96	2
TAP	82	192	0
STR	82	192	3
SI_	82	192	3	96	48	7
TAP	82	288	2
TAP	83	0	4
TAP	83	0	6
TAP	83	96	2
TAP	83	96	3
TAP	83	192	0
TAP	83	192	1
TAP	83	288	6
TAP	83	288	7
BRK	84	0	0
BRK	84	0	5
TAP	84	192	2
TAP	84	192	4
TAP	84	288	3
TAP	84	288	5
XHO	85	0	7	384
TAP	85	336	0
TAP	86	0	0
TAP	86	96	4
TAP	86	96	6
TAP	86	192	1
TAP	86	192	3
TAP	86	288	0
TAP	86	288	7
BST	87	0	1
SI_	87	0	1	96	48	4
BRK	87	0	5
TAP	87	96	0
STR	87	192	3
SI_	87	192	3	96	48	7
TAP	87	192	6
TAP	87	288	4
STR	88	0	1
SI_	88	0	1	96	48	4
TAP	88	0	5
TAP	88	96	0
STR	88	192	3
SI_	88	192	3	96	48	7
TAP	88	192	6
TAP	88	288	4
BRK	89	0	1
BST	89	0	5
SI_	89	0	5	96	48	0
TAP	89	96	4
TAP	89	192	2
STR	89	192	7
SI_	89	192	7	96	48	3
STR	89	288	0
SCR	89	288	0	96	192	5
XTP	90	0	4
TAP	90	192	6
TAP	90	288	6
HLD	91	0	1	384
BRK	91	0	7
HLD	92	0	2	96
HLD	92	96	3	96
HLD	92	192	4	96
STR	92	288	5
SCR	92	288	5	96	288	2
STR	93	288	7
SI_	93	288	7	96	48	3
XTP	94	0	2
STR	94	192	1
SI_	94	192	1	96	48	6
STR	94	192	5
SI_	94	192	5	96	48	2
BRK	95	0	0
BRK	95	0	4
TAP	95	96	4
TAP	95	96	5
BRK	95	144	3
BRK	95	144	7
TAP	95	240	2
TAP	95	240	3
TAP	95	288	0
TAP	95	288	4
BRK	95	336	0
BRK	95	336	4
XTP	96	48	5
XTP	96	48	6
XTP	96	120	3
XTP	96	120	4
BRK	96	192	1
XTP	96	192	2
XTP	96	264	0
BRK	96	264	7
BRK	96	336	1
BRK	96	336	5

T_REC_TAP	168
T_REC_BRK	26
T_REC_XTP	47
T_REC_HLD	46
T_REC_XHO	3
T_REC_STR	56
T_REC_BST	4
T_REC_XST	3
T_REC_TTP	12
T_REC_THO	2
T_REC_SLD	63
T_REC_ALL	430
T_NUM_TAP	286
T_NUM_BRK	30
T_NUM_HLD	51
T_NUM_SLD	63
T_NUM_ALL	430
T_JUDGE_TAP	316
T_JUDGE_HLD	245
T_JUDGE_SLD	63
T_JUDGE_ALL	624
TTM_EACHPAIRS	114
TTM_SCR_TAP	143000
TTM_SCR_BRK	78000
TTM_SCR_HLD	51000
TTM_SCR_SLD	94500
TTM_SCR_ALL	366500
TTM_SCR_S	352600
TTM_SCR_SS	363500
TTM_RAT_ACV	10082

