VERSION	0.00.00	1.03.00
FES_MODE	0
BPM_DEF	144.000	144.000	144.000	144.000
MET_DEF	4	4
RESOLUTION	384
CLK_DEF	384
COMPATIBLE_CODE	MA2

BPM	0	0	144.000
MET	0	0	4	4

STR	2	0	3
SCL	2	0	3	96	816	4
THO	6	0	0	1152	C	0	L1
HLD	10	0	1	384
HLD	11	0	0	384
HLD	12	0	7	384
TAP	13	0	6
HLD	14	0	5	192
TAP	14	192	4
HLD	15	0	2	192
TAP	15	192	3
HLD	16	0	5	192
TAP	16	192	4
TAP	17	0	3
TAP	17	96	3
TAP	17	192	2
TAP	17	192	4
TAP	18	0	5
TAP	18	96	6
TAP	18	192	7
TAP	18	288	0
TAP	19	0	1
TAP	19	96	2
TAP	19	192	3
TAP	19	288	4
TAP	20	0	5
TAP	20	48	5
TAP	20	96	5
TAP	20	192	6
TAP	20	240	6
TAP	20	288	6
BST	21	0	0
SCR	21	0	0	96	144	3
BST	21	0	7
SCL	21	0	7	96	144	4
TAP	22	0	2
TAP	22	96	2
TAP	22	192	3
TAP	22	288	3
TAP	23	0	4
TAP	23	96	4
XHO	23	192	3	168
XHO	23	192	5	168
XTP	24	168	2
XTP	24	168	4
XTP	25	0	1
TAP	25	96	0
TAP	25	96	7
TAP	25	192	1
TAP	25	192	6
TAP	26	0	5
TAP	26	96	5
TAP	26	192	4
TAP	26	288	4
TAP	27	0	3
TAP	27	96	3
TAP	27	192	2
TAP	27	192	4
TAP	28	0	1
TAP	28	96	1
TAP	28	192	0
TAP	28	288	0
XST	29	0	0
SI_	29	0	0	96	144	4
XTP	29	0	7
STR	30	0	5
SV_	30	0	5	96	144	0
STR	31	0	1
SI_	31	0	1	96	144	5
STR	32	0	6
SI_	32	0	6	96	144	2
STR	33	0	1
SV_	33	0	1	96	144	4
XTP	34	0	5
TAP	34	96	5
TAP	34	192	4
TAP	34	192	5
XTP	35	0	2
TAP	35	96	2
TAP	35	192	2
TAP	35	192	3
XTP	36	0	1
TAP	36	96	0
TAP	36	192	7
TAP	36	288	6
STR	37	0	5
SCL	37	0	5	96	144	2
TAP	38	0	1
TAP	38	96	1
TAP	38	192	0
TAP	38	192	1
TAP	38	288	0
TAP	38	288	1
TAP	39	0	2
TAP	39	96	3
TAP	39	192	2
TAP	39	192	4
TAP	40	0	5
TAP	40	96	5
TAP	40	192	4
TAP	40	192	5
TAP	40	288	4
TAP	40	288	5
TAP	41	0	6
TAP	41	96	7
TAP	41	192	0
TAP	41	192	7
TAP	42	0	6
TAP	42	96	6
TAP	42	192	6
TAP	42	192	7
TAP	42	288	6
TAP	42	288	7
TAP	43	0	5
TAP	43	96	4
TAP	43	192	3
TAP	43	192	5
TAP	44	0	2
TAP	44	96	2
TAP	44	192	2
TAP	44	192	3
TAP	44	288	2
TAP	44	288	3
TAP	45	0	1
TAP	45	96	0
TAP	45	192	0
TAP	45	192	7
HLD	45	288	0	96
HLD	45	288	7	96
TTP	46	96	0	C	1	L1
TTP	47	0	2	B	0	L1
TTP	47	192	3	B	0	L1
TTP	48	0	4	B	0	L1
TTP	48	192	5	B	0	L1
TTP	49	0	1	B	0	L1
TTP	49	0	6	B	0	L1
TTP	50	0	5	B	0	L1
TTP	50	192	4	B	0	L1
TTP	51	0	3	B	0	L1
TTP	51	192	2	B	0	L1
TTP	52	0	1	B	0	L1
TTP	52	0	6	B	0	L1
TTP	52	192	2	B	0	L1
TTP	52	192	5	B	0	L1
THO	53	0	0	384	C	0	L1
XHO	55	0	6	384
HLD	56	0	7	384
HLD	57	0	0	384
TAP	58	0	1
HLD	59	0	2	384
HLD	60	0	3	384
HLD	61	0	4	384
TAP	62	0	5
STR	63	0	6
SUL	63	0	6	96	144	2
STR	64	0	1
SUR	64	0	1	96	144	5
STR	65	0	6
SXL	65	0	6	96	384	3
TTP	67	0	3	E	0	L1
TTP	68	0	5	E	0	L1
TTP	69	0	2	B	0	L1
TTP	69	0	5	B	0	L1
TTP	69	192	1	E	0	L1
TTP	69	192	7	E	0	L1
THO	70	0	0	768	C	0	L1
BRK	73	0	1
TAP	73	96	1
TAP	73	192	0
TAP	73	192	1
TAP	73	288	2
TAP	73	288	7
TAP	74	0	6
TAP	74	96	6
TAP	74	192	6
TAP	74	192	7
TAP	74	288	0
TAP	74	288	5
TAP	75	0	1
TAP	75	96	1
TAP	75	192	2
TAP	75	288	2
TAP	76	0	3
TAP	76	96	3
TAP	76	96	4
TAP	76	192	2
TAP	76	192	5
HLD	77	0	6	96
TAP	77	96	7
TAP	77	192	6
TAP	77	192	7
HLD	78	0	1	96
TAP	78	96	0
TAP	78	192	0
TAP	78	192	1
TAP	79	0	6
TAP	79	96	6
TAP	79	192	7
TAP	79	288	7
TAP	80	0	0
TAP	80	0	7
TAP	80	96	0
TAP	80	96	7
TAP	80	192	1
TAP	80	192	6
BRK	81	0	5
TAP	81	48	5
TAP	81	96	5
TAP	81	192	4
TAP	81	192	5
TAP	81	288	3
TAP	81	288	6
TAP	82	0	2
TAP	82	48	2
TAP	82	96	2
TAP	82	192	2
TAP	82	192	3
TAP	82	288	1
TAP	82	288	4
XTP	83	0	5
XTP	83	96	6
XTP	83	192	7
XTP	83	288	0
XTP	84	0	1
XTP	84	0	6
TAP	84	96	2
TAP	84	96	5
TAP	84	192	3
TAP	84	192	4
STR	85	0	3
SI_	85	0	3	96	144	0
STR	85	0	4
SI_	85	0	4	96	144	7
HLD	86	0	0	96
HLD	86	0	7	96
TAP	86	192	0
TAP	86	192	7
TAP	86	288	0
TAP	86	288	7
BRK	87	0	6
TAP	87	96	6
TAP	87	96	7
TAP	87	192	1
TAP	87	288	0
TAP	87	288	1
TAP	88	0	2
TAP	88	96	2
TAP	88	96	3
TAP	88	192	5
TAP	88	288	4
TAP	88	288	5
TAP	89	0	6
TAP	89	96	7
TAP	89	192	0
TAP	89	288	1
TAP	90	0	2
TAP	90	96	3
TAP	90	96	4
TAP	90	192	2
TAP	90	192	5
STR	91	0	6
SUL	91	0	6	96	144	2
STR	92	0	1
SUR	92	0	1	96	144	5
HLD	93	0	6	192
HLD	93	192	7	192
HLD	94	0	0	192
TAP	94	192	1
TAP	94	288	2
XTP	95	0	3
XTP	95	0	4
TAP	95	96	5
TAP	95	144	5
TAP	95	192	4
TAP	95	288	2
TAP	95	336	2
TAP	96	0	3
TAP	96	96	1
TAP	96	96	4
XTP	96	192	2
XTP	96	192	5
XTP	96	264	2
XTP	96	264	5
XST	96	336	2
SCL	96	336	2	96	336	4
XTP	96	336	5

T_REC_TAP	182
T_REC_BRK	3
T_REC_XTP	20
T_REC_HLD	20
T_REC_XHO	3
T_REC_STR	13
T_REC_BST	2
T_REC_XST	2
T_REC_TTP	21
T_REC_THO	3
T_REC_SLD	17
T_REC_ALL	286
T_NUM_TAP	238
T_NUM_BRK	5
T_NUM_HLD	26
T_NUM_SLD	17
T_NUM_ALL	286
T_JUDGE_TAP	243
T_JUDGE_HLD	164
T_JUDGE_SLD	17
T_JUDGE_ALL	424
TTM_EACHPAIRS	56
TTM_SCR_TAP	119000
TTM_SCR_BRK	13000
TTM_SCR_HLD	26000
TTM_SCR_SLD	25500
TTM_SCR_ALL	183500
TTM_SCR_S	177550
TTM_SCR_SS	183000
TTM_RAT_ACV	10027

