VERSION	0.00.00	1.03.00
FES_MODE	0
BPM_DEF	144.000	144.000	144.000	144.000
MET_DEF	4	4
RESOLUTION	384
CLK_DEF	384
COMPATIBLE_CODE	MA2

BPM	0	0	144.000
MET	0	0	4	4

XTP	6	0	0
TAP	7	0	0
TAP	8	0	0
TAP	10	0	7
TAP	11	0	7
TAP	12	0	7
TAP	14	0	0
TAP	14	192	0
TAP	15	0	1
TAP	16	0	2
TAP	16	192	2
TAP	17	0	3
TAP	18	0	4
TAP	18	192	4
TAP	19	0	5
TAP	20	0	6
TAP	20	192	6
BRK	21	0	0
BRK	21	0	7
TAP	22	0	6
TAP	22	192	6
TAP	23	0	5
XHO	23	192	3	480
XHO	23	192	4	480
XTP	25	192	3
XTP	25	192	4
TAP	26	192	2
TAP	27	0	2
TAP	27	192	1
HLD	28	0	0	384
HLD	28	0	7	384
STR	30	0	0
SI_	30	0	0	96	288	3
STR	32	0	7
SI_	32	0	7	96	288	4
STR	34	0	0
SI_	34	0	0	96	288	4
STR	36	0	7
SI_	36	0	7	96	288	3
BRK	38	0	0
TAP	38	192	0
TAP	39	0	1
TAP	39	192	1
TAP	40	0	2
TAP	40	192	2
XTP	41	0	3
XTP	41	0	4
XTP	41	192	3
XTP	41	192	4
TAP	42	0	4
TAP	42	192	4
TAP	43	0	5
TAP	43	192	5
TAP	44	0	6
TAP	44	192	6
TAP	45	0	7
HLD	45	192	0	288
HLD	45	192	7	288
TAP	48	0	0
TAP	48	0	7
TAP	48	192	0
TAP	48	192	7
TAP	49	0	0
TAP	49	0	7
HLD	50	0	0	384
HLD	50	0	1	384
HLD	52	0	6	384
HLD	52	0	7	384
XTP	54	0	6
XTP	54	0	7
TTP	55	0	7	E	0	L1
TTP	56	0	6	E	0	L1
TTP	57	0	5	E	0	L1
TTP	58	0	4	E	0	L1
TTP	59	0	3	E	0	L1
TTP	60	0	2	E	0	L1
TTP	61	0	1	E	0	L1
TTP	62	0	0	C	0	L1
TTP	63	0	0	B	0	L1
TTP	63	0	1	B	0	L1
TTP	64	0	2	B	0	L1
TTP	64	0	3	B	0	L1
TTP	65	0	4	B	0	L1
TTP	65	0	5	B	0	L1
TTP	66	0	6	B	0	L1
TTP	66	0	7	B	0	L1
HLD	67	0	0	384
HLD	69	0	0	960
HLD	69	0	7	960
BRK	73	0	7
TAP	73	96	7
TAP	73	192	7
TAP	74	0	6
TAP	74	192	6
TAP	75	0	5
TAP	75	96	5
TAP	75	192	5
TAP	76	0	3
TAP	76	0	4
TAP	76	192	3
TAP	76	192	4
TAP	77	0	3
TAP	77	96	3
TAP	77	192	3
TAP	78	0	2
TAP	78	192	2
TAP	79	0	1
TAP	79	96	1
TAP	79	192	1
XTP	80	0	0
XTP	80	0	7
TAP	81	0	0
TAP	81	96	0
TAP	81	192	0
TAP	82	0	1
TAP	82	192	2
TAP	83	0	3
TAP	83	96	3
TAP	83	192	3
TAP	84	0	3
TAP	84	0	4
TAP	84	192	3
TAP	84	192	4
TAP	85	0	5
TAP	85	96	5
TAP	85	192	5
TAP	86	0	6
XTP	86	192	0
XTP	86	192	7
BRK	87	0	6
TAP	87	96	6
TAP	87	192	6
TAP	88	0	5
TAP	88	96	5
TAP	88	192	5
TAP	89	0	4
TAP	89	96	4
TAP	89	192	4
TAP	90	0	3
TAP	90	0	4
TAP	90	96	3
TAP	90	96	4
TAP	90	192	3
TAP	90	192	4
XHO	91	0	2	192
TAP	92	0	2
TAP	92	192	2
TAP	93	0	1
TAP	93	192	1
XTP	94	0	0
XTP	94	0	7
TTP	95	0	0	B	0	L1
TTP	95	0	7	B	0	L1
TTP	95	192	1	B	0	L1
TTP	95	192	6	B	0	L1
THO	96	0	0	336	C	1	L1

T_REC_TAP	93
T_REC_BRK	5
T_REC_XTP	15
T_REC_HLD	11
T_REC_XHO	3
T_REC_STR	4
T_REC_BST	0
T_REC_XST	0
T_REC_TTP	20
T_REC_THO	1
T_REC_SLD	4
T_REC_ALL	156
T_NUM_TAP	132
T_NUM_BRK	5
T_NUM_HLD	15
T_NUM_SLD	4
T_NUM_ALL	156
T_JUDGE_TAP	137
T_JUDGE_HLD	139
T_JUDGE_SLD	4
T_JUDGE_ALL	280
TTM_EACHPAIRS	24
TTM_SCR_TAP	66000
TTM_SCR_BRK	13000
TTM_SCR_HLD	15000
TTM_SCR_SLD	6000
TTM_SCR_ALL	100000
TTM_SCR_S	96550
TTM_SCR_SS	99500
TTM_RAT_ACV	10050

