VERSION	0.00.00	1.03.00
FES_MODE	0
BPM_DEF	155.000	155.000	155.000	155.000
MET_DEF	4	4
RESOLUTION	384
CLK_DEF	384
COMPATIBLE_CODE	MA2

BPM	0	0	155.000
MET	0	0	4	4

BRK	2	0	3
STR	2	0	4
SCR	2	0	4	96	1248	3
TTP	2	336	6	E	0	M1
TTP	3	0	5	E	0	M1
TTP	3	336	2	E	0	M1
TTP	4	0	3	E	0	M1
TTP	4	336	6	E	0	M1
TTP	5	0	5	E	0	M1
TAP	5	288	3
TAP	5	288	4
TAP	6	0	3
HLD	6	0	4	96
TAP	6	96	2
TAP	6	144	3
HLD	6	192	5	96
XTP	6	288	4
TAP	7	0	3
HLD	7	0	4	96
TAP	7	96	2
TAP	7	144	3
HLD	7	192	5	96
XTP	7	288	4
TAP	8	0	3
HLD	8	0	4	96
TAP	8	96	2
TAP	8	144	3
HLD	8	192	5	96
XTP	8	288	4
TAP	9	0	3
HLD	9	0	5	96
TAP	9	96	3
HLD	9	144	2	96
TAP	9	144	4
TAP	9	240	4
HLD	9	288	3	96
XST	9	288	5
SI_	9	288	5	96	48	3
TAP	10	96	2
TAP	10	192	3
TAP	10	192	5
TAP	10	288	2
TAP	10	288	4
TAP	11	0	4
TAP	11	0	5
TAP	11	96	2
TAP	11	96	3
TAP	11	192	3
TAP	11	192	4
TAP	11	288	4
STR	11	288	6
SI_	11	288	6	96	48	4
TAP	12	0	4
TAP	12	96	2
TAP	12	96	3
TAP	12	192	1
TAP	12	192	2
TAP	12	288	0
TAP	12	288	1
TAP	13	0	0
TAP	13	0	7
HLD	13	96	6	96
STR	13	96	7
SCR	13	96	7	96	144	3
TAP	14	0	5
TAP	14	48	5
TAP	14	96	4
TAP	14	144	4
TAP	14	192	3
TAP	14	240	3
TAP	14	288	2
TAP	14	336	2
TAP	15	0	2
TAP	15	0	3
TAP	15	48	4
TAP	15	96	1
TAP	15	144	2
TAP	15	192	3
TAP	15	192	5
TAP	15	240	6
TAP	15	288	2
TAP	15	336	3
TAP	16	0	4
TAP	16	0	6
TAP	16	48	6
TAP	16	96	3
TAP	16	96	5
TAP	16	144	3
TAP	16	192	2
TAP	16	192	4
TAP	16	240	4
STR	16	288	1
SXL	16	288	1	96	192	5
TAP	16	288	3
TAP	17	0	0
TAP	17	0	1
XST	17	192	7
SI_	17	192	7	96	48	3
BST	17	288	0
SCL	17	288	0	96	48	5
BST	18	0	4
SLR	18	0	4	96	96	3
STR	18	96	3
SLR	18	96	3	96	120	0
TAP	18	144	2
XST	18	192	1
SI_	18	192	1	96	24	4
TAP	18	288	1
TAP	19	0	2
TAP	19	24	3
TAP	19	48	2
TAP	19	72	3
STR	19	96	2
SI_	19	96	2	96	48	7
TAP	19	144	1
XTP	19	192	0
TAP	19	288	3
STR	19	288	6
SI_	19	288	6	96	48	2
BST	20	0	1
SCL	20	0	1	96	48	6
STR	20	96	4
SXL	20	96	4	96	96	3
XTP	20	192	0
TAP	20	288	1
TAP	20	336	1
TAP	21	0	1
TAP	21	24	3
TAP	21	48	1
TAP	21	72	3
STR	21	96	1
SI_	21	96	1	96	48	3
TAP	21	120	2
STR	21	144	1
SI_	21	144	1	96	48	5
TAP	21	168	2
BST	21	288	0
SCL	21	288	0	96	48	5
BST	22	0	4
SLR	22	0	4	96	96	3
STR	22	96	3
SLR	22	96	3	96	120	0
TAP	22	144	2
XST	22	192	1
SI_	22	192	1	96	24	4
TAP	22	288	1
TAP	23	0	2
TAP	23	24	3
TAP	23	48	2
TAP	23	72	3
TAP	23	96	1
TAP	23	120	3
TAP	23	144	1
XTP	23	192	0
XTP	23	192	7
TAP	23	240	6
TAP	23	264	6
TAP	23	288	5
TAP	23	312	5
TAP	23	336	4
TAP	23	360	4
TAP	24	0	3
TAP	24	48	1
TAP	24	48	2
TAP	24	96	0
STR	24	96	1
SI_	24	96	1	96	48	5
XTP	24	192	1
STR	24	192	7
SI_	24	192	7	96	48	3
TAP	24	288	0
TAP	24	288	7
TAP	25	0	1
TAP	25	0	5
TAP	25	48	2
TAP	25	48	6
STR	25	96	3
SI_	25	96	3	96	48	0
STR	25	96	7
SI_	25	96	7	96	48	4
TAP	25	192	3
TAP	25	192	7
BRK	25	288	1
BRK	25	288	5
XHO	26	0	2	48
XHO	26	0	3	48
HLD	26	96	1	48
HLD	26	96	4	48
TAP	26	192	2
TAP	26	192	3
TAP	26	240	4
TAP	26	264	2
TAP	26	264	4
TAP	26	312	3
TAP	26	336	3
TAP	26	336	6
HLD	27	0	4	48
HLD	27	0	5	48
HLD	27	96	3	48
HLD	27	96	6	48
TAP	27	192	4
TAP	27	192	5
TAP	27	240	3
TAP	27	264	3
TAP	27	264	5
TAP	27	312	4
TAP	27	336	1
TAP	27	336	4
XHO	28	0	2	48
XHO	28	0	3	48
HLD	28	96	1	48
HLD	28	96	4	48
TAP	28	192	2
TAP	28	192	3
TAP	28	240	4
TAP	28	264	2
TAP	28	264	4
TAP	28	312	3
TAP	28	336	3
TAP	28	336	6
HLD	29	0	4	48
HLD	29	0	5	48
STR	29	96	3
SF_	29	96	3	96	48	7
TAP	29	96	6
BRK	29	288	1
BRK	29	288	5
BRK	30	0	4
BRK	30	0	5
TAP	30	48	6
TAP	30	96	4
TAP	30	96	5
TAP	30	144	6
TAP	30	192	4
TAP	30	192	5
TAP	30	240	6
TAP	30	264	4
TAP	30	264	6
TAP	30	312	1
TAP	30	336	1
TAP	30	336	3
TAP	31	0	2
TAP	31	0	3
TAP	31	48	1
TAP	31	96	2
TAP	31	96	3
TAP	31	144	1
TAP	31	192	2
TAP	31	192	3
TAP	31	240	1
TAP	31	264	1
TAP	31	264	3
TAP	31	312	6
TAP	31	336	4
TAP	31	336	6
TAP	32	0	3
TAP	32	0	4
TAP	32	48	2
TAP	32	72	3
TAP	32	96	2
TAP	32	144	6
TAP	32	168	5
TAP	32	192	6
TAP	32	240	1
TAP	32	264	2
TAP	32	288	1
TAP	32	336	5
TAP	32	360	2
TAP	33	0	6
TAP	33	24	1
TAP	33	48	6
TAP	33	72	1
STR	33	96	7
SI_	33	96	7	96	48	3
TAP	33	120	0
TAP	33	144	7
TAP	33	168	0
TAP	33	192	7
BRK	33	288	1
BRK	33	288	5
STR	34	0	6
SCL	34	0	6	96	48	3
TAP	34	24	7
TAP	34	72	7
TAP	34	96	6
TAP	34	144	0
STR	34	192	1
SCR	34	192	1	96	48	4
TAP	34	216	0
TAP	34	264	0
TAP	34	288	1
TAP	34	336	7
TAP	35	0	6
TAP	35	0	7
TAP	35	48	5
TAP	35	72	4
STR	35	96	6
SI_	35	96	6	96	48	2
TAP	35	144	1
TAP	35	144	7
TAP	35	192	2
TAP	35	192	6
TAP	35	288	3
TAP	35	288	5
TAP	35	336	2
TAP	35	336	6
TAP	36	0	1
STR	36	0	7
SI_	36	0	7	96	48	3
TAP	36	48	6
TAP	36	96	5
TAP	36	96	7
TAP	36	144	6
TAP	36	192	2
STR	36	192	7
SI_	36	192	7	96	48	3
TAP	36	240	6
TAP	36	288	5
TAP	36	288	7
TAP	36	336	6
TAP	37	0	1
STR	37	0	7
SI_	37	0	7	96	48	2
TAP	37	48	0
TAP	37	96	5
STR	37	96	7
SI_	37	96	7	96	48	3
TAP	37	144	6
TAP	37	192	3
TAP	37	192	7
TAP	37	288	1
TAP	37	288	5
XST	38	0	7
SI_	38	0	7	96	48	3
STR	38	48	2
SCL	38	48	2	96	48	7
XST	38	96	7
SCL	38	96	7	96	48	4
TAP	38	144	2
XST	38	192	3
SI_	38	192	3	96	48	0
SI_	38	192	3	96	48	6
XTP	38	288	3
XST	39	0	0
SI_	39	0	0	96	48	4
STR	39	48	5
SCR	39	48	5	96	48	0
XST	39	96	0
SCR	39	96	0	96	48	3
TAP	39	144	5
XST	39	192	4
SI_	39	192	4	96	48	1
SI_	39	192	4	96	48	7
XTP	39	288	4
XTP	40	0	2
XTP	40	0	6
TAP	40	48	3
TAP	40	48	5
TAP	40	96	2
TAP	40	96	4
TAP	40	144	1
TAP	40	144	5
STR	40	192	0
SI_	40	192	0	96	48	4
STR	40	240	6
SI_	40	240	6	96	48	2
TAP	40	288	0
TAP	40	336	6
BRK	41	0	7
TAP	41	96	6
TAP	41	120	0
TAP	41	144	5
TAP	41	168	1
BRK	41	192	3
BRK	41	264	4
BRK	41	264	6
BRK	41	336	0
BRK	41	336	7
STR	42	0	1
SCR	42	0	1	96	48	4
TAP	42	24	0
TAP	42	72	0
TAP	42	96	1
TAP	42	144	7
STR	42	192	6
SCL	42	192	6	96	48	3
TAP	42	216	7
TAP	42	264	7
TAP	42	288	6
TAP	42	336	1
STR	43	0	2
SCL	43	0	2	96	48	7
TAP	43	24	3
TAP	43	72	3
TAP	43	96	2
TAP	43	144	5
TAP	43	192	4
TAP	43	192	6
TAP	43	240	7
TAP	43	288	1
TAP	43	288	3
TAP	43	336	0
STR	44	0	5
SCR	44	0	5	96	48	0
TAP	44	24	4
TAP	44	72	4
TAP	44	96	5
TAP	44	144	2
TAP	44	192	1
TAP	44	192	3
TAP	44	240	1
TAP	44	240	3
TAP	44	288	2
STR	44	288	4
SCR	44	288	4	96	144	2
TAP	44	336	3
TAP	44	336	5
TAP	45	0	4
TAP	45	0	6
XTP	45	144	7
XHO	45	192	7	96
XTP	45	288	0
XTP	45	336	0
STR	46	0	6
SCL	46	0	6	96	48	3
TAP	46	24	7
TAP	46	72	7
TAP	46	96	6
TAP	46	144	1
STR	46	192	2
SCL	46	192	2	96	48	7
TAP	46	216	3
TAP	46	264	3
TAP	46	288	2
TAP	46	336	5
TAP	47	0	4
TAP	47	0	6
TAP	47	48	7
TAP	47	96	1
TAP	47	96	3
TAP	47	144	0
TAP	47	192	4
TAP	47	192	5
TAP	47	240	7
TAP	47	288	2
TAP	47	288	3
TAP	47	336	0
STR	48	0	4
SI_	48	0	4	96	48	0
TAP	48	48	5
STR	48	96	2
SI_	48	96	2	96	48	7
TAP	48	144	1
STR	48	192	5
SI_	48	192	5	96	48	0
TAP	48	240	6
TAP	48	288	1
TAP	48	336	1
TAP	49	0	1
TAP	49	24	5
TAP	49	48	2
TAP	49	72	4
STR	49	96	1
SSR	49	96	1	96	144	5
TAP	49	120	5
TAP	49	144	2
TAP	49	168	4
XTP	49	192	1
XST	50	0	3
SCL	50	0	3	96	1056	4
XTP	50	0	4
TTP	52	0	0	E	0	M1
TTP	52	96	7	E	0	M1
TTP	52	192	6	E	0	M1
TTP	52	288	5	E	0	M1
XST	53	0	3
SCL	53	0	3	96	960	4
TTP	54	0	0	E	0	M1
TTP	54	96	1	E	0	M1
TTP	54	192	2	E	0	M1
TTP	54	288	3	E	0	M1
XST	55	0	3
SCL	55	0	3	96	192	1
HLD	56	0	2	96
HLD	56	0	4	96
HLD	56	192	3	96
HLD	56	192	5	96
TAP	57	0	2
TAP	57	0	5
TAP	57	48	4
TAP	57	96	2
TAP	57	96	5
TAP	57	144	3
STR	57	192	2
SI_	57	192	2	96	48	4
STR	57	192	5
SI_	57	192	5	96	48	3
STR	58	0	1
SI_	58	0	1	96	48	3
TAP	58	48	1
STR	58	96	4
SI_	58	96	4	96	48	6
TAP	58	144	4
STR	58	192	1
SI_	58	192	1	96	48	3
TAP	58	240	1
STR	58	288	4
SI_	58	288	4	96	48	6
TAP	58	336	4
STR	59	0	1
SI_	59	0	1	96	48	3
TAP	59	48	1
STR	59	96	4
SI_	59	96	4	96	48	6
TAP	59	144	4
STR	59	192	2
SI_	59	192	2	96	48	5
XTP	59	288	7
STR	60	0	6
SI_	60	0	6	96	48	4
TAP	60	48	6
STR	60	96	3
SI_	60	96	3	96	48	1
TAP	60	144	3
STR	60	192	6
SI_	60	192	6	96	48	4
TAP	60	240	6
STR	60	288	3
SI_	60	288	3	96	48	1
TAP	60	336	3
STR	61	0	6
SI_	61	0	6	96	48	4
TAP	61	48	6
STR	61	96	3
SI_	61	96	3	96	48	1
TAP	61	144	3
STR	61	192	5
SI_	61	192	5	96	48	2
XTP	61	288	0
TAP	62	0	1
TAP	62	0	3
TAP	62	48	2
TAP	62	96	2
TAP	62	144	2
TAP	62	192	4
TAP	62	192	6
TAP	62	240	5
TAP	62	288	5
TAP	62	336	5
TAP	63	0	2
TAP	63	0	3
TAP	63	48	1
TAP	63	96	1
TAP	63	144	1
TAP	63	192	4
TAP	63	192	5
TAP	63	240	6
TAP	63	288	6
TAP	63	336	6
TAP	64	0	3
TAP	64	24	4
TAP	64	48	3
TAP	64	72	4
TAP	64	96	3
TAP	64	120	4
TAP	64	144	3
TAP	64	168	4
TAP	64	192	1
TAP	64	224	3
TAP	64	256	2
TAP	64	288	6
TAP	64	320	4
TAP	64	352	5
BRK	65	0	0
TAP	65	0	4
BRK	65	96	1
TAP	65	96	7
BRK	65	192	2
STR	65	192	3
SI_	65	192	3	96	48	0
SI_	65	192	3	96	48	6
TAP	65	240	1
TAP	65	240	5
BST	65	288	3
SCL	65	288	3	96	96	5
XTP	66	0	3
XTP	66	0	7
TAP	66	96	4
TAP	66	144	2
TAP	66	168	3
TAP	66	192	0
TAP	66	216	7
TAP	66	240	4
TAP	66	264	5
STR	66	288	1
SI_	66	288	1	96	48	5
TAP	66	312	3
STR	66	336	0
SI_	66	336	0	96	48	4
TAP	66	360	7
TAP	67	0	1
TAP	67	48	0
TAP	67	96	3
TAP	67	144	6
TAP	67	144	7
TAP	67	168	6
TAP	67	168	7
TAP	67	216	1
TAP	67	240	0
TAP	67	240	2
STR	67	288	3
SCL	67	288	3	96	96	5
TAP	67	336	4
XTP	68	0	3
XTP	68	0	5
TAP	68	96	4
TAP	68	144	2
TAP	68	168	3
TAP	68	192	0
TAP	68	216	7
TAP	68	240	4
TAP	68	264	5
TAP	68	288	1
TAP	68	312	0
TAP	68	336	3
TAP	68	360	6
BRK	69	0	4
XTP	69	0	5
XTP	69	48	2
BRK	69	48	3
BRK	69	96	1
XTP	69	96	6
XTP	69	144	0
BRK	69	144	2
BRK	69	168	0
XTP	69	168	2
XTP	69	216	5
BRK	69	216	7
BRK	69	240	5
XTP	69	240	7
STR	69	288	4
SCR	69	288	4	96	96	2
TAP	69	336	3
XTP	70	0	2
XTP	70	0	4
TAP	70	96	3
TAP	70	144	5
TAP	70	168	4
TAP	70	192	7
TAP	70	216	0
TAP	70	240	3
TAP	70	264	2
STR	70	288	6
SI_	70	288	6	96	48	2
TAP	70	312	4
STR	70	336	7
SI_	70	336	7	96	48	3
TAP	70	360	0
STR	71	0	6
SCL	71	0	6	96	48	3
TAP	71	48	7
TAP	71	96	6
TAP	71	144	2
TAP	71	168	2
TAP	71	216	0
TAP	71	216	1
TAP	71	240	2
TAP	71	240	7
STR	71	288	6
SI_	71	288	6	96	48	2
STR	71	336	3
SI_	71	336	3	96	48	7
STR	72	0	6
SCL	72	0	6	96	48	3
TAP	72	48	3
TAP	72	96	6
TAP	72	144	2
TAP	72	168	2
TAP	72	216	0
TAP	72	216	1
TAP	72	240	2
TAP	72	240	7
TAP	72	288	6
TAP	72	336	1
TAP	72	336	5
TAP	73	0	2
TAP	73	0	3
TAP	73	48	7
STR	73	96	4
SUL	73	96	4	96	96	3
TAP	73	96	6
TAP	73	144	0
TAP	73	192	2
TAP	73	192	4
XHO	73	288	1	96
BST	74	0	0
SI_	74	0	0	96	48	4
TAP	74	192	3
BST	74	192	5
SV_	74	192	5	96	48	0
STR	74	240	2
SI_	74	240	2	96	48	7
TAP	74	288	5
TAP	74	336	2
XTP	75	0	6
TAP	75	48	4
TAP	75	48	5
XTP	75	72	3
XTP	75	72	6
TAP	75	120	2
TAP	75	120	3
XTP	75	144	1
XTP	75	144	4
STR	75	192	0
SI_	75	192	0	96	48	4
STR	75	240	7
SUR	75	240	7	96	48	3
STR	75	288	0
SCL	75	288	0	96	48	5
BRK	75	336	7
XTP	76	0	0
TAP	76	96	2
TAP	76	96	4
TAP	76	144	1
TAP	76	168	0
TAP	76	192	2
TAP	76	216	7
TAP	76	240	4
TAP	76	264	5
STR	76	288	3
SF_	76	288	3	96	96	7
BRK	77	192	0
XTP	77	192	6
XTP	77	200	5
XTP	77	208	4
XTP	77	216	3
XTP	77	264	1
BRK	77	264	7
XTP	77	272	2
XTP	77	280	3
XTP	77	288	4
BRK	77	336	0
BRK	77	336	6
BRK	78	0	1
BRK	78	0	5
TAP	78	48	2
TAP	78	72	4
TAP	78	96	3
TAP	78	120	5
TAP	78	144	1
TAP	78	168	0
BRK	78	192	1
TAP	78	204	2
TAP	78	216	3
TAP	78	240	6
TAP	78	264	7
BRK	78	288	6
TAP	78	300	5
TAP	78	312	4
TAP	78	336	1
TAP	78	360	0
BRK	79	0	2
TAP	79	12	3
TAP	79	24	4
TAP	79	48	6
TAP	79	72	7
BRK	79	96	5
TAP	79	108	4
TAP	79	120	3
TAP	79	144	1
TAP	79	168	0
TAP	79	192	2
TAP	79	216	2
TAP	79	240	3
TAP	79	264	3
TAP	79	288	4
TAP	79	312	4
TAP	79	336	6
TAP	79	360	6
STR	80	0	0
SI_	80	0	0	96	48	4
STR	80	48	5
SI_	80	48	5	96	48	1
STR	80	96	0
SCL	80	96	0	96	48	5
TAP	80	144	5
STR	80	192	0
SCR	80	192	0	96	48	3
STR	80	240	4
SI_	80	240	4	96	48	0
TAP	80	288	0
TAP	80	336	4
TAP	81	0	1
TAP	81	24	1
TAP	81	48	7
TAP	81	72	7
TAP	81	96	4
TAP	81	120	6
TAP	81	144	2
TAP	81	168	3
TAP	81	192	7
TAP	81	216	5
TAP	81	240	2
TAP	81	264	0
STR	81	288	1
SCR	81	288	1	96	192	0
TAP	81	312	7
TAP	81	336	0
TTP	82	0	0	C	1	M1
TAP	82	336	3
HLD	83	0	2	96
STR	83	96	5
SI_	83	96	5	96	48	2
HLD	83	192	1	192
TAP	83	336	4
HLD	84	0	5	96
STR	84	96	2
SI_	84	96	2	96	48	5
HLD	84	192	6	144
TAP	84	336	4
HLD	85	0	3	96
TAP	85	96	4
TAP	85	192	2
TAP	85	192	5
TAP	85	240	3
TAP	85	264	3
TAP	85	288	4
TAP	85	312	4
TAP	85	336	3
TAP	85	360	3
STR	86	0	4
SLL	86	0	4	96	144	5
TAP	86	96	5
HLD	86	192	6	192
TAP	86	336	3
HLD	87	0	2	96
STR	87	96	5
SI_	87	96	5	96	48	2
HLD	87	192	1	144
TAP	87	336	4
HLD	88	0	2	96
STR	88	0	5
SI_	88	0	5	96	48	2
STR	88	192	5
SI_	88	192	5	96	48	2
TAP	88	288	2
TAP	89	0	0
TAP	89	0	7
TAP	89	48	5
TAP	89	72	4
TAP	89	96	6
TAP	89	120	2
TAP	89	144	3
TAP	89	168	1
TAP	89	192	0
TAP	89	192	4
TAP	89	216	1
TAP	89	216	5
STR	89	240	2
SI_	89	240	2	96	24	5
STR	89	240	6
SI_	89	240	6	96	24	1
TAP	89	264	3
TAP	89	264	7

T_REC_TAP	511
T_REC_BRK	36
T_REC_XTP	46
T_REC_HLD	33
T_REC_XHO	6
T_REC_STR	86
T_REC_BST	8
T_REC_XST	13
T_REC_TTP	15
T_REC_THO	0
T_REC_SLD	110
T_REC_ALL	864
T_NUM_TAP	671
T_NUM_BRK	44
T_NUM_HLD	39
T_NUM_SLD	110
T_NUM_ALL	864
T_JUDGE_TAP	715
T_JUDGE_HLD	70
T_JUDGE_SLD	110
T_JUDGE_ALL	895
TTM_EACHPAIRS	149
TTM_SCR_TAP	335500
TTM_SCR_BRK	114400
TTM_SCR_HLD	39000
TTM_SCR_SLD	165000
TTM_SCR_ALL	653900
TTM_SCR_S	630050
TTM_SCR_SS	649500
TTM_RAT_ACV	10067

