VERSION	0.00.00	1.03.00
FES_MODE	0
BPM_DEF	155.000	155.000	155.000	155.000
MET_DEF	4	4
RESOLUTION	384
CLK_DEF	384
COMPATIBLE_CODE	MA2

BPM	0	0	155.000
MET	0	0	4	4

THO	2	0	0	1344	C	0	M1
TTP	2	0	2	B	0	M1
TTP	2	0	3	B	0	M1
TTP	2	0	4	B	0	M1
TTP	2	0	5	B	0	M1
TTP	3	0	0	B	0	M1
TTP	3	0	7	B	0	M1
TTP	4	0	1	B	0	M1
TTP	4	0	6	B	0	M1
TTP	5	0	2	B	0	M1
TTP	5	0	5	B	0	M1
STR	6	0	7
SCL	6	0	7	96	192	2
XTP	6	288	7
STR	7	0	0
SCR	7	0	0	96	192	5
XTP	7	288	0
STR	8	0	7
SCL	8	0	7	96	192	2
XTP	8	288	7
STR	9	0	0
SCR	9	0	0	96	192	5
STR	9	288	0
SI_	9	288	0	96	48	3
SI_	9	288	0	96	48	5
XTP	10	96	4
TAP	10	192	4
TAP	10	288	3
TAP	10	288	5
TAP	10	336	2
TAP	11	0	2
TAP	11	96	1
TAP	11	192	1
TAP	11	288	0
TAP	11	288	4
TAP	11	336	5
TAP	12	0	5
TAP	12	96	6
TAP	12	192	6
TAP	12	288	3
TAP	12	288	7
TAP	12	336	2
TAP	13	0	2
STR	13	96	1
SI_	13	96	1	96	48	5
HLD	13	96	6	192
XTP	13	288	0
TAP	14	0	1
TAP	14	48	1
TAP	14	96	4
TAP	14	144	4
TAP	14	192	3
TAP	14	240	3
TAP	14	288	7
TAP	14	336	7
TAP	15	0	0
TAP	15	48	0
TAP	15	96	6
TAP	15	144	6
TAP	15	192	2
TAP	15	240	2
TAP	15	288	4
TAP	15	336	4
TAP	16	0	0
TAP	16	48	1
TAP	16	96	2
TAP	16	144	3
TAP	16	192	4
TAP	16	240	5
TAP	16	288	6
TAP	16	336	7
STR	17	0	0
SI_	17	0	0	96	48	4
BRK	17	192	7
STR	17	288	2
SI_	17	288	2	96	48	5
STR	17	288	6
SI_	17	288	6	96	48	1
HLD	18	96	0	48
HLD	18	96	4	48
TAP	18	192	3
TAP	18	192	7
TAP	18	240	3
TAP	18	240	7
TAP	18	288	2
STR	18	288	6
SSL	18	288	6	96	144	2
TAP	19	192	0
STR	19	288	1
SI_	19	288	1	96	48	6
STR	19	288	5
SI_	19	288	5	96	48	2
HLD	20	96	3	48
HLD	20	96	7	48
TAP	20	192	0
TAP	20	192	4
TAP	20	240	0
TAP	20	240	4
STR	20	288	1
SSL	20	288	1	96	144	5
TAP	20	288	5
TAP	21	192	6
STR	21	288	1
SI_	21	288	1	96	48	4
STR	21	288	5
SI_	21	288	5	96	48	0
HLD	22	96	3	48
HLD	22	96	7	48
TAP	22	192	2
TAP	22	192	6
TAP	22	240	2
TAP	22	240	6
STR	22	288	1
SXL	22	288	1	96	144	1
STR	22	288	5
SCL	22	288	5	96	144	1
TAP	23	192	0
TAP	23	240	7
STR	23	288	2
SI_	23	288	2	96	48	7
STR	23	288	6
SI_	23	288	6	96	48	3
HLD	24	96	0	48
HLD	24	96	4	48
TAP	24	192	1
TAP	24	192	5
TAP	24	240	1
TAP	24	240	5
STR	24	288	2
SCL	24	288	2	96	144	6
STR	24	288	6
SXR	24	288	6	96	144	6
TAP	25	192	0
STR	25	288	1
SI_	25	288	1	96	48	7
STR	25	288	5
SI_	25	288	5	96	48	3
TAP	26	96	0
TAP	26	96	4
TAP	26	192	1
HLD	26	192	5	72
HLD	26	264	6	72
TAP	26	336	7
TAP	27	0	7
TAP	27	96	0
TAP	27	96	6
HLD	27	192	1	72
TAP	27	192	5
HLD	27	264	2	72
TAP	27	336	3
XTP	28	0	3
TAP	28	96	2
TAP	28	96	4
HLD	28	192	1	72
TAP	28	192	5
HLD	28	264	2	72
TAP	28	336	3
TAP	29	0	3
STR	29	96	1
SCR	29	96	1	96	48	3
STR	29	96	5
SCR	29	96	5	96	48	7
STR	29	288	2
SI_	29	288	2	96	48	4
STR	29	288	6
SI_	29	288	6	96	48	0
TAP	30	96	3
TAP	30	96	7
HLD	30	192	2	72
TAP	30	192	6
HLD	30	264	1	72
TAP	30	336	0
TAP	31	0	0
TAP	31	96	1
TAP	31	96	7
TAP	31	192	2
HLD	31	192	6	72
HLD	31	264	5	72
TAP	31	336	4
TAP	32	0	4
TAP	32	48	3
TAP	32	96	3
TAP	32	144	3
TAP	32	144	4
TAP	32	192	3
TAP	32	192	4
TAP	32	240	2
TAP	32	240	5
TAP	32	288	2
TAP	32	288	5
TAP	32	336	1
TAP	32	336	6
STR	33	0	1
SI_	33	0	1	96	48	4
STR	33	0	6
SI_	33	0	6	96	48	3
THO	33	192	0	96	C	1	M1
TTP	33	192	2	B	0	M1
TTP	33	192	3	B	0	M1
TTP	33	192	4	B	0	M1
TTP	33	192	5	B	0	M1
XTP	34	0	7
XTP	34	48	7
XTP	34	96	0
XTP	34	144	0
TAP	34	192	1
TAP	34	192	5
TAP	34	240	6
TAP	34	288	2
TAP	34	288	7
TAP	34	336	3
STR	35	0	4
SCL	35	0	4	96	48	1
TAP	35	0	6
STR	35	96	7
SCL	35	96	7	96	48	4
XHO	35	192	1	96
XTP	35	288	4
TAP	35	336	5
TAP	36	0	3
TAP	36	0	6
TAP	36	48	7
TAP	36	96	2
TAP	36	96	6
TAP	36	144	1
TAP	36	192	0
TAP	36	192	4
TAP	36	240	5
TAP	36	288	2
TAP	36	288	6
TAP	36	336	1
TAP	37	0	0
TAP	37	0	3
TAP	37	48	0
TAP	37	48	3
TAP	37	96	1
TAP	37	96	4
TAP	37	144	2
TAP	37	144	5
STR	37	192	3
SCL	37	192	3	96	48	0
HLD	37	192	6	192
XTP	38	0	0
XTP	38	48	0
STR	38	96	1
SCR	38	96	1	96	48	4
STR	38	96	5
SCR	38	96	5	96	48	0
HLD	38	288	3	96
TAP	38	288	7
TAP	39	0	4
TAP	39	48	5
STR	39	96	2
SCL	39	96	2	96	48	7
STR	39	96	6
SCL	39	96	6	96	48	3
TAP	39	288	0
HLD	39	288	4	96
TAP	40	0	3
TAP	40	48	2
TAP	40	96	1
HLD	40	96	5	96
TAP	40	192	4
TAP	40	240	4
TAP	40	288	3
TAP	40	336	2
TAP	40	336	5
TAP	41	0	2
TAP	41	0	5
TAP	41	96	3
TAP	41	96	4
TAP	41	192	0
TAP	41	192	7
XTP	41	240	1
XTP	41	240	6
XHO	41	264	1	72
XHO	41	264	6	72
TAP	42	0	2
HLD	42	0	5	96
TAP	42	96	2
TAP	42	144	1
TAP	42	192	0
TAP	42	192	4
TAP	42	240	5
STR	42	288	6
SCL	42	288	6	96	48	3
STR	42	288	7
SCR	42	288	7	96	48	2
XTP	43	96	1
XTP	43	96	4
TAP	43	144	5
TAP	43	192	4
TAP	43	192	6
TAP	43	240	3
TAP	43	288	2
STR	43	288	4
SCR	43	288	4	96	48	7
TAP	44	0	3
TAP	44	96	3
TAP	44	192	2
TAP	44	192	4
TAP	44	240	5
STR	44	288	3
SCL	44	288	3	96	48	0
TAP	44	288	6
TAP	45	0	4
STR	45	96	4
SXL	45	96	4	96	144	3
HLD	45	192	0	96
TAP	46	0	0
TAP	46	96	5
TAP	46	144	6
TAP	46	192	3
TAP	46	192	7
TAP	46	240	2
STR	46	288	0
SCL	46	288	0	96	48	5
STR	46	288	1
SCR	46	288	1	96	48	4
XTP	47	96	3
XTP	47	96	6
TAP	47	144	2
TAP	47	192	1
TAP	47	192	3
TAP	47	240	4
STR	47	288	3
SCL	47	288	3	96	48	0
TAP	47	288	5
TAP	48	0	4
TAP	48	96	5
TAP	48	192	3
TAP	48	192	6
TAP	48	240	2
TAP	48	288	1
STR	48	288	7
SXR	48	288	7	96	96	7
XTP	49	0	3
XST	49	96	3
SXR	49	96	3	96	96	3
STR	50	0	7
SI_	50	0	7	96	1056	4
TAP	52	0	3
TAP	52	96	3
TAP	52	192	2
TAP	52	288	2
STR	54	0	0
SI_	54	0	0	96	1056	3
TAP	54	0	4
TAP	54	96	4
TAP	54	192	5
TAP	54	288	5
TAP	56	0	4
TAP	56	96	4
TAP	56	192	5
TAP	56	288	5
TAP	57	0	6
TAP	57	96	6
XST	57	192	7
SI_	57	192	7	96	48	3
HLD	58	0	2	48
HLD	58	96	1	48
HLD	58	96	3	48
HLD	58	192	4	48
HLD	58	288	2	48
HLD	58	288	5	48
HLD	59	0	3	48
HLD	59	96	2	48
HLD	59	96	4	48
HLD	59	192	5	48
HLD	59	288	4	48
HLD	59	288	6	48
XHO	60	0	5	48
XHO	60	96	4	48
XHO	60	96	6	48
XHO	60	192	3	48
XHO	60	288	2	48
XHO	60	288	5	48
HLD	61	0	4	48
HLD	61	96	3	96
STR	61	96	5
SXL	61	96	5	96	192	4
TAP	62	0	2
TAP	62	48	2
TAP	62	96	2
TAP	62	144	2
TAP	62	192	3
TAP	62	192	5
TAP	62	240	6
TAP	62	288	6
TAP	62	336	6
TAP	63	0	2
TAP	63	0	5
TAP	63	48	1
TAP	63	96	1
TAP	63	144	1
TAP	63	192	2
TAP	63	192	6
TAP	63	240	7
TAP	63	288	7
TAP	63	336	7
TAP	64	0	1
TAP	64	24	6
TAP	64	48	1
TAP	64	72	6
TAP	64	96	1
TAP	64	120	6
TAP	64	144	1
TAP	64	168	6
XTP	64	192	0
XTP	64	224	0
XTP	64	256	0
XTP	64	288	7
XTP	64	320	7
XTP	64	352	7
BRK	65	0	0
BRK	65	96	1
BRK	65	192	2
STR	65	192	3
SI_	65	192	3	96	48	7
BST	65	288	0
SCR	65	288	0	96	144	6
TTP	66	0	0	C	1	M1
TAP	66	144	7
TAP	66	192	7
TAP	66	240	0
TAP	66	240	6
TAP	66	288	1
TAP	66	288	5
TAP	66	336	2
TAP	66	336	4
HLD	67	0	3	96
TAP	67	48	4
HLD	67	96	6	96
TAP	67	144	4
HLD	67	192	2	96
TAP	67	240	4
STR	67	288	7
SCL	67	288	7	96	144	1
TTP	68	0	0	C	1	M1
TAP	68	144	0
TAP	68	192	0
TAP	68	240	1
TAP	68	240	7
TAP	68	288	2
TAP	68	288	6
TAP	68	336	3
TAP	68	336	5
TAP	69	0	3
TAP	69	0	5
TAP	69	48	2
TAP	69	48	6
TAP	69	96	2
TAP	69	96	6
TAP	69	144	5
TAP	69	168	4
TAP	69	216	2
TAP	69	240	3
TAP	69	288	1
BST	69	288	4
SCR	69	288	4	96	144	2
TTP	70	0	0	C	1	M1
TAP	70	144	7
TAP	70	192	7
TAP	70	240	0
TAP	70	240	6
TAP	70	288	1
TAP	70	288	5
TAP	70	336	0
TAP	70	336	6
HLD	71	0	7	96
TAP	71	48	0
HLD	71	96	2	96
TAP	71	144	0
HLD	71	192	6	96
TAP	71	240	0
TAP	71	288	3
TAP	72	0	3
TAP	72	0	5
TAP	72	48	2
TAP	72	96	1
TAP	72	96	3
TAP	72	144	4
TAP	72	192	3
TAP	72	192	5
TAP	72	240	2
TAP	72	288	1
TAP	72	288	3
TAP	72	336	4
TAP	73	0	3
TAP	73	0	5
XTP	73	48	6
TAP	73	96	2
TAP	73	96	4
XTP	73	144	1
TAP	73	192	3
TAP	73	192	5
XTP	73	240	6
BST	73	288	0
SXL	73	288	0	96	192	4
BRK	73	336	0
BRK	74	0	7
XHO	74	192	5	192
TAP	75	0	3
TAP	75	72	2
TAP	75	72	4
TAP	75	144	3
TAP	75	144	5
HLD	75	192	2	48
HLD	75	192	6	48
BST	75	288	7
SCL	75	288	7	96	144	1
BRK	75	336	7
TTP	76	0	0	C	1	M1
TAP	76	144	0
TAP	76	192	0
TAP	76	240	1
TAP	76	240	7
TAP	76	288	2
STR	76	288	6
SLL	76	288	6	96	144	2
TAP	77	192	1
TAP	77	264	7
STR	77	288	0
SCR	77	288	0	96	144	6
TAP	77	336	0
TTP	78	0	0	C	1	M1
TAP	78	144	7
TAP	78	192	7
TAP	78	240	0
TAP	78	240	6
TAP	78	288	1
TAP	78	288	5
TAP	78	336	2
TAP	78	336	4
TAP	79	0	3
TAP	79	48	3
TAP	79	96	4
TAP	79	96	5
TAP	79	144	6
TAP	79	144	7
TAP	79	192	0
TAP	79	192	1
TAP	79	240	2
TAP	79	240	3
BST	79	288	4
SCL	79	288	4	96	144	6
BRK	79	288	5
TTP	80	0	0	C	1	M1
TAP	80	192	3
TAP	80	240	3
TAP	80	288	4
TAP	80	336	4
STR	81	0	2
SI_	81	0	2	96	48	5
TAP	81	48	2
STR	81	96	6
SI_	81	96	6	96	48	3
TAP	81	144	6
STR	81	192	1
SI_	81	192	1	96	48	6
TAP	81	240	1
STR	81	288	5
SCR	81	288	5	96	384	4
TAP	81	336	5
TTP	82	0	0	C	1	M1
HLD	83	336	2	336
HLD	84	0	4	240
HLD	84	336	5	336
HLD	85	0	3	288
STR	86	0	4
SI_	86	0	4	96	144	7
HLD	86	336	2	336
HLD	87	0	4	240
HLD	87	336	5	336
HLD	88	0	3	240
TAP	88	336	2
TAP	89	0	2
TAP	89	0	4
TAP	89	48	5
TAP	89	96	3
TAP	89	96	6
TAP	89	144	2
TAP	89	192	1
TAP	89	192	5
TAP	89	240	6
THO	89	288	0	48	C	0	M1

T_REC_TAP	331
T_REC_BRK	8
T_REC_XTP	29
T_REC_HLD	55
T_REC_XHO	10
T_REC_STR	57
T_REC_BST	5
T_REC_XST	2
T_REC_TTP	21
T_REC_THO	3
T_REC_SLD	65
T_REC_ALL	586
T_NUM_TAP	440
T_NUM_BRK	13
T_NUM_HLD	68
T_NUM_SLD	65
T_NUM_ALL	586
T_JUDGE_TAP	453
T_JUDGE_HLD	171
T_JUDGE_SLD	65
T_JUDGE_ALL	689
TTM_EACHPAIRS	129
TTM_SCR_TAP	220000
TTM_SCR_BRK	33800
TTM_SCR_HLD	68000
TTM_SCR_SLD	97500
TTM_SCR_ALL	419300
TTM_SCR_S	405500
TTM_SCR_SS	418000
TTM_RAT_ACV	10031

