VERSION	0.00.00	1.03.00
FES_MODE	0
BPM_DEF	155.000	155.000	155.000	155.000
MET_DEF	4	4
RESOLUTION	384
CLK_DEF	384
COMPATIBLE_CODE	MA2

BPM	0	0	155.000
MET	0	0	4	4

STR	2	0	7
SI_	2	0	7	96	144	3
STR	3	0	1
SI_	3	0	1	96	144	5
STR	4	0	6
SI_	4	0	6	96	144	3
STR	5	0	2
SI_	5	0	2	96	144	7
HLD	6	0	6	192
TAP	6	192	7
XTP	6	288	0
HLD	7	0	1	192
TAP	7	192	0
XTP	7	288	7
HLD	8	0	6	192
TAP	8	192	7
XTP	8	288	0
TAP	9	0	1
TAP	9	96	1
TAP	9	192	0
TAP	9	192	7
TAP	10	0	6
XTP	10	96	6
TAP	10	192	6
TAP	10	192	7
TAP	11	0	1
TAP	11	96	1
TAP	11	192	0
TAP	11	192	1
TAP	12	0	2
TAP	12	96	2
TAP	12	192	2
TAP	12	192	3
TAP	13	0	4
TAP	13	96	4
TAP	13	192	3
TAP	13	192	4
TAP	13	288	3
TAP	13	288	4
TAP	14	0	2
TAP	14	96	1
TAP	14	192	0
TAP	14	288	7
TAP	15	0	6
TAP	15	96	5
TAP	15	192	4
TAP	15	288	3
TAP	16	0	2
TAP	16	48	2
TAP	16	96	2
TAP	16	192	1
TAP	16	240	1
TAP	16	288	1
TAP	17	0	0
TAP	17	0	7
TAP	17	96	1
TAP	17	96	6
TAP	17	192	2
TAP	17	192	5
TAP	17	288	3
TAP	17	288	4
BST	18	0	5
SV_	18	0	5	96	144	0
TAP	19	0	1
TAP	19	96	1
TAP	19	192	0
TAP	19	288	0
STR	20	0	1
SLR	20	0	1	96	192	5
TAP	21	0	6
TAP	21	96	6
TAP	21	192	7
TAP	21	288	7
BST	22	0	6
SLL	22	0	6	96	192	2
TAP	23	0	1
TAP	23	96	1
TAP	23	192	0
TAP	23	288	0
TAP	24	0	1
TAP	24	96	0
TAP	24	192	6
TAP	24	288	7
TAP	25	0	0
TAP	25	0	7
TAP	25	96	0
TAP	25	96	7
TAP	25	192	1
TAP	25	192	6
BRK	26	0	5
TAP	26	96	5
TAP	26	192	4
TAP	26	288	4
TAP	27	0	5
TAP	27	96	4
TAP	27	192	3
TAP	27	192	5
TAP	28	0	2
TAP	28	96	2
TAP	28	192	3
TAP	28	288	3
TAP	29	0	2
TAP	29	96	3
TAP	29	192	2
TAP	29	192	4
TAP	30	0	1
TAP	30	96	1
TAP	30	192	0
TAP	30	288	0
TAP	31	0	1
TAP	31	96	0
TAP	31	192	1
TAP	31	192	7
TAP	32	0	6
TAP	32	96	6
TAP	32	96	7
TAP	32	192	1
TAP	32	288	0
TAP	32	288	1
TAP	33	0	7
TAP	33	48	7
TAP	33	96	7
BRK	33	192	1
BRK	33	192	6
TTP	34	0	6	E	0	L1
TTP	34	96	5	B	0	L1
TTP	34	192	4	B	0	L1
TTP	35	0	2	E	0	L1
TTP	35	96	2	B	0	L1
TTP	35	192	3	B	0	L1
TTP	36	0	7	E	0	L1
TTP	36	96	6	B	0	L1
TTP	36	192	5	B	0	L1
TTP	37	0	1	E	0	L1
TTP	37	96	1	B	0	L1
TTP	37	192	2	B	0	L1
TTP	38	0	6	E	0	L1
TTP	38	96	6	B	0	L1
TTP	38	192	7	B	0	L1
TTP	39	0	2	E	0	L1
TTP	39	96	1	B	0	L1
TTP	39	192	0	B	0	L1
TTP	40	0	5	E	0	L1
TTP	40	96	5	B	0	L1
TTP	40	192	6	B	0	L1
TTP	41	0	3	E	0	L1
TTP	41	96	2	B	0	L1
TTP	41	192	1	B	0	L1
XTP	42	0	7
XTP	42	96	7
TAP	42	192	6
TAP	42	288	6
TAP	43	0	5
TAP	43	96	5
TAP	43	192	4
TAP	43	192	6
TAP	44	0	2
TAP	44	96	2
TAP	44	192	1
TAP	44	192	3
TAP	45	0	4
TAP	45	96	4
XTP	45	192	3
XTP	45	192	5
TAP	46	0	2
TAP	46	96	2
TAP	46	192	1
TAP	46	288	1
TAP	47	0	0
TAP	47	96	0
TAP	47	192	1
TAP	47	192	7
TAP	48	0	6
TAP	48	96	5
TAP	48	192	4
TAP	48	288	3
TAP	49	0	3
TAP	49	0	4
TAP	49	48	3
TAP	49	48	4
TAP	49	96	3
TAP	49	96	4
TAP	49	192	2
TAP	49	192	5
STR	49	288	3
SXR	49	288	3	96	480	0
STR	49	288	4
SXL	49	288	4	96	480	7
STR	52	0	6
SXL	52	0	6	96	384	3
STR	54	0	2
SXL	54	0	2	96	384	7
STR	56	0	6
SXL	56	0	6	96	384	3
TAP	58	0	2
TAP	58	96	2
TAP	58	192	3
TAP	58	288	3
TAP	59	0	4
TAP	59	96	4
TAP	59	192	3
TAP	59	192	5
TAP	60	0	6
TAP	60	96	6
TAP	60	192	7
TAP	60	288	7
TAP	61	0	0
TAP	61	96	0
TAP	61	192	1
TAP	61	192	7
TAP	62	0	1
TAP	62	96	0
TAP	62	96	1
TAP	62	192	2
TAP	62	288	2
TAP	62	288	3
TAP	63	0	5
TAP	63	96	4
TAP	63	96	5
TAP	63	192	6
TAP	63	288	6
TAP	63	288	7
TAP	64	0	0
TAP	64	48	0
TAP	64	96	0
TAP	64	192	7
TAP	64	240	7
TAP	64	288	7
XTP	65	0	0
TAP	65	0	7
XTP	65	96	1
TAP	65	96	6
XTP	65	192	2
TAP	65	192	5
BRK	65	288	3
BRK	65	288	4
TAP	66	0	5
TAP	66	96	4
TAP	66	96	5
TAP	66	192	6
TAP	66	240	6
TAP	66	288	6
TAP	67	0	5
TAP	67	96	4
TAP	67	192	3
TAP	67	288	2
TAP	68	0	1
TAP	68	96	0
TAP	68	96	1
TAP	68	192	2
TAP	68	240	2
TAP	68	288	2
XTP	69	0	3
XTP	69	0	4
XTP	69	96	2
XTP	69	96	5
XTP	69	192	1
XTP	69	192	6
TAP	70	0	2
TAP	70	96	2
TAP	70	96	3
TAP	70	192	1
TAP	70	240	1
TAP	70	288	1
TAP	71	0	2
TAP	71	96	3
TAP	71	192	4
TAP	71	288	5
TAP	72	0	6
TAP	72	96	6
TAP	72	96	7
TAP	72	192	1
TAP	72	288	0
TAP	72	288	1
XTP	73	0	7
XTP	73	96	0
XTP	73	96	7
XTP	73	192	1
XTP	73	192	6
XTP	73	288	2
XTP	73	288	5
BST	74	0	3
SCL	74	0	3	96	144	0
BST	74	0	4
SCR	74	0	4	96	144	7
TAP	75	0	0
TAP	75	0	7
TAP	75	96	0
TAP	75	96	7
TAP	75	192	1
TAP	75	192	6
TAP	76	0	2
TAP	76	96	1
TAP	76	96	3
TAP	76	192	0
TAP	76	240	0
TAP	76	288	7
XTP	77	0	1
XTP	77	0	6
TAP	77	192	2
TAP	77	192	5
TAP	77	288	3
TAP	77	288	4
TAP	78	0	5
TAP	78	96	4
TAP	78	96	6
TAP	78	192	7
TAP	78	240	7
TAP	78	288	7
TAP	79	0	0
TAP	79	48	0
TAP	79	96	0
TAP	79	192	1
TAP	79	240	1
TAP	79	288	1
TAP	80	0	2
TAP	80	96	2
TAP	80	96	3
TAP	80	192	5
TAP	80	288	4
TAP	80	288	5
TAP	81	0	3
TAP	81	48	3
TAP	81	96	3
TAP	81	192	4
TAP	81	240	4
TAP	81	288	4
BST	82	0	5
SI_	82	0	5	96	144	0
STR	83	0	1
SI_	83	0	1	96	144	5
STR	84	0	6
SI_	84	0	6	96	144	2
TAP	85	0	1
TAP	85	192	0
TAP	85	192	7
HLD	86	0	1	192
TAP	86	192	0
HLD	87	0	6	192
TAP	87	192	7
HLD	88	0	1	192
TAP	88	192	0
STR	89	0	6
SSR	89	0	6	96	240	2

T_REC_TAP	247
T_REC_BRK	5
T_REC_XTP	26
T_REC_HLD	6
T_REC_XHO	0
T_REC_STR	13
T_REC_BST	5
T_REC_XST	0
T_REC_TTP	24
T_REC_THO	0
T_REC_SLD	18
T_REC_ALL	344
T_NUM_TAP	310
T_NUM_BRK	10
T_NUM_HLD	6
T_NUM_SLD	18
T_NUM_ALL	344
T_JUDGE_TAP	320
T_JUDGE_HLD	24
T_JUDGE_SLD	18
T_JUDGE_ALL	362
TTM_EACHPAIRS	61
TTM_SCR_TAP	155000
TTM_SCR_BRK	26000
TTM_SCR_HLD	6000
TTM_SCR_SLD	27000
TTM_SCR_ALL	214000
TTM_SCR_S	206650
TTM_SCR_SS	213000
TTM_RAT_ACV	10046

