VERSION	0.00.00	1.03.00
FES_MODE	0
BPM_DEF	155.000	155.000	155.000	155.000
MET_DEF	4	4
RESOLUTION	384
CLK_DEF	384
COMPATIBLE_CODE	MA2

BPM	0	0	155.000
MET	0	0	4	4

TAP	6	0	0
TAP	8	0	7
HLD	10	0	0	384
HLD	12	0	7	384
HLD	14	0	0	384
HLD	14	0	7	384
TAP	16	0	0
TAP	16	0	7
BRK	17	0	0
BRK	17	0	7
TAP	18	0	0
XTP	18	192	0
TAP	19	0	0
TAP	20	0	1
XTP	20	192	1
TAP	21	0	1
TAP	22	0	2
XTP	22	192	2
TAP	23	0	2
TAP	24	0	3
XTP	24	192	3
TAP	25	0	3
TAP	25	0	4
TAP	26	0	4
TAP	26	192	4
TAP	27	0	5
TAP	28	0	5
TAP	28	192	5
TAP	29	0	6
TAP	30	0	6
TAP	30	192	6
TAP	31	0	7
TAP	32	0	0
TAP	32	192	0
TAP	33	0	0
TAP	33	0	7
TAP	34	0	7
TAP	34	192	7
TAP	35	0	6
TAP	35	192	6
TAP	36	0	5
TAP	36	192	5
TAP	37	0	4
TAP	37	0	5
TAP	38	0	3
TAP	38	192	3
TAP	39	0	2
TAP	39	192	2
TAP	40	0	1
TAP	40	192	1
TAP	41	0	0
TAP	41	0	1
TAP	42	0	0
TAP	42	192	0
TAP	43	0	1
TAP	43	192	1
TAP	44	0	2
TAP	44	192	2
TAP	45	0	3
TAP	45	192	3
TAP	46	0	4
TAP	46	192	4
TAP	47	0	5
TAP	47	192	5
TAP	48	0	6
TAP	48	192	6
XTP	49	0	0
XTP	49	0	7
STR	50	0	7
SI_	50	0	7	96	288	4
STR	52	0	0
SI_	52	0	0	96	288	3
STR	54	0	7
SI_	54	0	7	96	288	3
STR	56	0	0
SI_	56	0	0	96	288	4
TTP	58	0	7	E	0	L1
TTP	59	0	6	E	0	L1
TTP	60	0	5	E	0	L1
TTP	61	0	4	E	0	L1
TTP	62	0	3	E	0	L1
TTP	63	0	2	E	0	L1
THO	64	0	0	384	C	1	L1
BRK	66	0	0
TAP	66	96	0
TAP	66	192	0
TAP	67	0	1
TAP	67	192	1
TAP	68	0	2
TAP	68	96	2
TAP	68	192	2
TAP	69	0	3
TAP	69	0	4
TAP	69	192	3
TAP	69	192	4
TAP	70	0	4
TAP	70	96	4
TAP	70	192	4
TAP	71	0	5
TAP	71	192	5
TAP	72	0	6
TAP	72	96	6
TAP	72	192	6
TAP	73	0	0
TAP	73	0	7
TAP	73	192	0
TAP	73	192	7
XTP	74	0	1
XTP	74	0	6
TAP	75	0	0
TAP	75	96	0
TAP	75	192	0
TAP	75	192	7
TAP	76	0	6
TAP	76	96	6
TAP	76	192	6
HLD	77	0	5	192
TAP	78	0	4
TAP	78	96	4
TAP	78	192	4
TAP	79	0	3
TAP	79	96	3
TAP	79	192	3
TAP	80	0	2
TAP	80	96	2
TAP	80	192	2
TAP	81	0	1
TAP	81	96	1
TAP	81	192	1
BRK	82	0	0
BRK	82	0	7
TTP	84	0	0	B	0	L1
TTP	84	0	7	B	0	L1
TTP	85	0	1	B	0	L1
TTP	85	0	6	B	0	L1
TTP	86	0	2	B	0	L1
TTP	86	0	5	B	0	L1
TTP	87	0	3	B	0	L1
TTP	87	0	4	B	0	L1
TTP	88	0	4	E	0	L1
THO	89	0	0	384	C	0	L1

T_REC_TAP	98
T_REC_BRK	5
T_REC_XTP	8
T_REC_HLD	5
T_REC_XHO	0
T_REC_STR	4
T_REC_BST	0
T_REC_XST	0
T_REC_TTP	15
T_REC_THO	2
T_REC_SLD	4
T_REC_ALL	141
T_NUM_TAP	125
T_NUM_BRK	5
T_NUM_HLD	7
T_NUM_SLD	4
T_NUM_ALL	141
T_JUDGE_TAP	130
T_JUDGE_HLD	52
T_JUDGE_SLD	4
T_JUDGE_ALL	186
TTM_EACHPAIRS	15
TTM_SCR_TAP	62500
TTM_SCR_BRK	13000
TTM_SCR_HLD	7000
TTM_SCR_SLD	6000
TTM_SCR_ALL	88500
TTM_SCR_S	85400
TTM_SCR_SS	88000
TTM_RAT_ACV	10056

