VERSION	0.00.00	1.04.00
FES_MODE	0
BPM_DEF	171.100	171.100	185.000	122.300
MET_DEF	4	4
RESOLUTION	384
CLK_DEF	384
COMPATIBLE_CODE	MA2

BPM	0	0	171.100
BPM	1	0	185.000
BPM	1	96	171.100
BPM	45	0	128.600
BPM	56	288	122.300
BPM	57	0	171.100
MET	0	0	4	4
MET	45	0	4	3
MET	57	0	4	4

NMTAP	1	288	0
NMTAP	1	312	7
NMTAP	1	336	0
NMTAP	1	360	7
BRSTR	2	0	0
NMSI_	2	0	0	96	48	4
EXTAP	2	96	0
BRSTR	2	96	6
NMSI_	2	96	6	96	48	2
BRTAP	2	192	1
EXTAP	2	192	6
NMTAP	3	0	2
NMTAP	3	24	3
NMTAP	3	48	2
NMTAP	3	72	3
NMTAP	3	96	2
NMTAP	3	120	3
NMTAP	3	144	2
NMTAP	3	168	3
NMTAP	3	192	2
NMTAP	3	216	3
NMTAP	3	240	2
NMTAP	3	264	3
NMTAP	3	288	2
NMTAP	3	312	3
NMTAP	3	336	2
NMTAP	3	360	3
BRSTR	4	0	1
NMSI_	4	0	1	96	48	5
EXTAP	4	96	1
BRSTR	4	96	7
NMSI_	4	96	7	96	48	3
BRTAP	4	192	0
EXTAP	4	192	7
NMTAP	5	0	1
NMTAP	5	24	0
NMTAP	5	48	1
NMTAP	5	72	0
NMSTR	5	96	1
NMSCR	5	96	1	96	48	6
NMTAP	5	120	0
NMTAP	5	144	1
NMTAP	5	168	0
NMTAP	5	192	1
NMTAP	5	288	7
NMTAP	5	312	0
NMTAP	5	336	7
NMTAP	5	360	0
BRSTR	6	0	6
NMSI_	6	0	6	96	48	2
BRSTR	6	96	1
NMSI_	6	96	1	96	48	5
EXTAP	6	96	6
EXTAP	6	192	1
BRTAP	6	192	7
NMTAP	6	288	3
NMTAP	6	288	6
NMTAP	6	336	2
NMTAP	6	336	5
BRSTR	7	0	1
NMSI_	7	0	1	96	48	5
NMTAP	7	0	4
EXTAP	7	96	1
BRSTR	7	96	6
NMSI_	7	96	6	96	48	2
BRTAP	7	192	0
EXTAP	7	192	6
NMTAP	7	288	1
NMTAP	7	336	2
NMTAP	8	0	3
NMTAP	8	48	4
NMTAP	8	96	5
NMTAP	8	144	6
NMTAP	8	192	7
NMTAP	8	240	0
NMTAP	8	288	1
NMTAP	8	336	2
NMTAP	9	0	3
NMTAP	9	24	4
NMTAP	9	48	3
NMTAP	9	72	4
NMTAP	9	96	3
NMTAP	9	120	4
NMTAP	9	144	3
NMTAP	9	168	4
NMTAP	9	192	3
NMTAP	9	216	4
NMTAP	9	240	3
NMTAP	9	264	4
NMTAP	9	288	3
NMTAP	9	312	4
NMTAP	9	336	3
NMTAP	9	360	4
NMTAP	10	0	3
NMTAP	10	72	1
NMTAP	10	72	6
NMTAP	10	144	3
NMTAP	10	144	4
NMSTR	10	192	3
NMSCL	10	192	3	96	48	0
NMSTR	10	192	4
NMSCR	10	192	4	96	48	7
EXTAP	10	288	3
EXTAP	10	288	4
EXTAP	11	0	1
NMTAP	11	24	6
NMTAP	11	48	1
NMTAP	11	72	6
NMTAP	11	96	1
NMTAP	11	120	6
NMTAP	11	144	1
NMTAP	11	168	6
NMTAP	11	192	1
NMTAP	11	216	6
NMTAP	11	240	1
NMTAP	11	264	6
NMTAP	11	288	1
NMTAP	11	312	6
NMTAP	11	336	1
NMTAP	11	360	6
EXTAP	12	0	2
NMTAP	12	24	3
NMTAP	12	48	2
NMTAP	12	72	3
NMTAP	12	96	2
NMTAP	12	120	3
NMTAP	12	144	2
NMTAP	12	168	3
EXTAP	12	192	0
NMTAP	12	216	7
NMTAP	12	240	0
NMTAP	12	264	7
NMTAP	12	288	0
NMTAP	12	312	7
NMTAP	12	336	0
NMTAP	12	360	7
EXTAP	13	0	4
NMTAP	13	24	5
NMTAP	13	48	4
NMTAP	13	72	5
NMTAP	13	96	4
NMTAP	13	120	5
NMTAP	13	144	4
NMTAP	13	168	5
NMTAP	13	192	4
NMTAP	13	216	5
NMTAP	13	240	4
NMTAP	13	264	5
NMTAP	13	288	4
NMTAP	13	312	5
NMTAP	13	336	4
NMTAP	13	360	5
EXTAP	14	0	3
NMTAP	14	24	6
NMTAP	14	48	3
NMTAP	14	72	6
EXTAP	14	96	1
NMTAP	14	120	4
NMTAP	14	144	1
NMTAP	14	168	4
EXTAP	14	192	3
NMTAP	14	216	6
NMTAP	14	240	3
NMTAP	14	264	6
EXTAP	14	288	1
NMTAP	14	312	4
NMTAP	14	336	1
NMTAP	14	360	4
EXTAP	15	0	2
NMTAP	15	24	3
NMTAP	15	48	2
NMTAP	15	72	3
NMTAP	15	96	2
NMTAP	15	120	3
NMTAP	15	144	2
NMTAP	15	168	3
EXTAP	15	192	1
NMTAP	15	216	6
NMTAP	15	240	1
NMTAP	15	264	6
NMTAP	15	288	1
NMTAP	15	312	6
NMTAP	15	336	1
NMTAP	15	360	6
EXTAP	16	0	4
NMTAP	16	24	5
NMTAP	16	48	4
NMTAP	16	72	5
NMTAP	16	96	4
NMTAP	16	120	5
NMTAP	16	144	4
NMTAP	16	168	5
EXTAP	16	192	0
NMTAP	16	216	7
NMTAP	16	240	0
NMTAP	16	264	7
NMTAP	16	288	1
NMTAP	16	312	6
NMTAP	16	336	2
NMTAP	16	360	5
EXTAP	17	0	3
NMTAP	17	24	4
NMTAP	17	48	3
NMTAP	17	72	4
NMTAP	17	96	3
NMTAP	17	120	4
NMTAP	17	144	3
NMTAP	17	168	4
NMTAP	17	192	3
NMTAP	17	216	4
NMTAP	17	240	3
NMTAP	17	264	4
NMTAP	17	288	3
NMTAP	17	312	4
NMTAP	17	336	3
NMTAP	17	360	4
NMTAP	18	0	2
NMTAP	18	24	6
NMTAP	18	48	2
NMTAP	18	72	6
NMTAP	18	96	1
NMTAP	18	120	5
NMTAP	18	144	1
NMTAP	18	168	5
NMTAP	18	192	0
NMTAP	18	216	7
NMTAP	18	240	2
NMTAP	18	264	3
NMTAP	18	288	0
NMTAP	18	312	7
NMTAP	18	336	4
NMTAP	18	360	5
EXTAP	19	0	2
NMTAP	19	24	6
NMTAP	19	48	2
NMTAP	19	72	6
NMTAP	19	96	2
NMTAP	19	120	6
NMTAP	19	144	2
NMTAP	19	168	6
NMTAP	19	192	2
NMTAP	19	216	6
NMTAP	19	240	2
NMTAP	19	264	6
NMTAP	19	288	2
NMTAP	19	312	6
NMTAP	19	336	2
NMTAP	19	360	6
EXTAP	20	0	1
NMTAP	20	24	3
NMTAP	20	48	1
NMTAP	20	72	3
NMTAP	20	96	1
NMTAP	20	120	3
NMTAP	20	144	1
NMTAP	20	168	3
EXTAP	20	192	0
NMTAP	20	216	7
NMTAP	20	240	0
NMTAP	20	264	7
NMTAP	20	288	0
NMTAP	20	312	7
NMTAP	20	336	0
NMTAP	20	360	7
EXTAP	21	0	1
NMTAP	21	24	5
NMTAP	21	48	1
NMTAP	21	72	5
NMTAP	21	96	1
NMTAP	21	120	5
NMTAP	21	144	1
NMTAP	21	168	5
NMTAP	21	192	1
NMTAP	21	216	5
NMTAP	21	240	1
NMTAP	21	264	5
NMTAP	21	288	1
NMTAP	21	312	5
NMTAP	21	336	1
NMTAP	21	360	5
EXTAP	22	0	4
NMTAP	22	24	6
NMTAP	22	48	4
NMTAP	22	72	6
EXTAP	22	96	0
NMTAP	22	120	7
NMTAP	22	144	0
NMTAP	22	168	7
EXTAP	22	192	1
NMTAP	22	216	3
NMTAP	22	240	1
NMTAP	22	264	3
EXTAP	22	288	0
NMTAP	22	312	7
NMTAP	22	336	0
NMTAP	22	360	7
EXTAP	23	0	4
NMTAP	23	24	6
NMTAP	23	48	4
NMTAP	23	72	6
NMTAP	23	96	4
NMTAP	23	120	6
NMTAP	23	144	4
NMTAP	23	168	6
EXTAP	23	192	3
NMTAP	23	216	4
NMTAP	23	240	3
NMTAP	23	264	4
NMTAP	23	288	3
NMTAP	23	312	4
NMTAP	23	336	3
NMTAP	23	360	4
EXTAP	24	0	1
NMTAP	24	24	3
NMTAP	24	48	1
NMTAP	24	72	3
NMTAP	24	96	1
NMTAP	24	120	3
NMTAP	24	144	1
NMTAP	24	168	3
EXTAP	24	192	0
NMTAP	24	216	7
NMTAP	24	240	1
NMTAP	24	264	6
NMTAP	24	288	2
NMTAP	24	312	5
NMTAP	24	336	3
NMTAP	24	360	4
EXTAP	25	0	3
NMTAP	25	24	4
NMTAP	25	48	3
NMTAP	25	72	4
NMTAP	25	96	3
NMTAP	25	120	4
NMTAP	25	144	3
NMTAP	25	168	4
EXTAP	25	192	2
NMTAP	25	216	3
NMTAP	25	240	1
EXTAP	25	264	5
NMTAP	25	288	4
NMTAP	25	312	6
EXTAP	25	336	0
NMTAP	25	360	7
EXTAP	26	0	2
NMTAP	26	24	6
NMTAP	26	48	2
NMTAP	26	72	6
NMTAP	26	96	1
NMTAP	26	120	5
NMTAP	26	144	1
NMTAP	26	168	5
NMTAP	26	192	0
NMTAP	26	216	7
NMTAP	26	240	2
NMTAP	26	264	3
NMTAP	26	288	0
NMTAP	26	312	7
NMTAP	26	336	4
NMTAP	26	360	5
EXHLD	27	0	2	480
EXHLD	27	0	6	480
NMSTR	28	192	1
NMSI_	28	192	1	96	48	4
NMSTR	28	192	5
NMSI_	28	192	5	96	48	0
BRTAP	28	288	1
BRTAP	28	288	5
NMTAP	29	0	2
NMTAP	29	24	6
NMTAP	29	48	2
NMTAP	29	72	6
NMTAP	29	96	1
NMTAP	29	120	6
NMTAP	29	144	1
NMTAP	29	168	6
NMTAP	29	192	0
NMTAP	29	216	6
NMTAP	29	240	0
NMTAP	29	264	6
NMTAP	29	288	7
NMTAP	29	312	6
NMTAP	29	336	0
NMTAP	29	360	7
NMTAP	30	0	1
NMTAP	30	24	0
NMTAP	30	48	1
NMTAP	30	72	0
NMTAP	30	96	2
NMTAP	30	120	7
NMTAP	30	144	2
NMTAP	30	168	7
NMTAP	30	192	3
NMTAP	30	216	6
NMTAP	30	240	3
NMTAP	30	264	6
NMTAP	30	288	4
NMTAP	30	312	5
NMTAP	30	336	2
NMTAP	30	360	3
NMTAP	31	0	0
NMTAP	31	24	7
NMTAP	31	48	0
NMTAP	31	72	7
NMTAP	31	96	1
NMTAP	31	120	5
NMTAP	31	144	1
NMTAP	31	168	5
NMTAP	31	192	2
NMTAP	31	216	5
NMTAP	31	240	2
NMTAP	31	264	5
NMTAP	31	288	3
NMTAP	31	312	5
NMTAP	31	336	3
NMTAP	31	360	5
NMTAP	32	0	4
NMTAP	32	24	5
NMTAP	32	48	3
NMTAP	32	72	6
NMTAP	32	96	2
NMTAP	32	120	7
NMTAP	32	144	1
NMTAP	32	168	0
NMTAP	32	192	2
NMTAP	32	216	2
NMTAP	32	216	3
NMTAP	32	288	5
NMTAP	32	312	4
NMTAP	32	312	5
NMTAP	33	0	1
NMTAP	33	24	0
NMTAP	33	48	1
NMTAP	33	72	0
NMTAP	33	96	2
NMTAP	33	120	7
NMTAP	33	144	2
NMTAP	33	168	7
NMTAP	33	192	3
NMTAP	33	216	6
NMTAP	33	240	3
NMTAP	33	264	6
NMTAP	33	288	4
NMTAP	33	312	5
NMTAP	33	336	3
NMTAP	33	360	4
NMTAP	34	0	2
NMTAP	34	24	4
NMTAP	34	48	2
NMTAP	34	72	4
NMTAP	34	96	3
NMTAP	34	120	6
NMTAP	34	144	3
NMTAP	34	168	6
NMTAP	34	192	1
NMTAP	34	216	5
NMTAP	34	240	1
NMTAP	34	264	5
NMTAP	34	288	3
NMTAP	34	312	7
NMTAP	34	336	3
NMTAP	34	360	7
NMTAP	35	0	4
NMTAP	35	24	6
NMTAP	35	48	4
NMTAP	35	72	6
NMTAP	35	96	3
NMTAP	35	120	5
NMTAP	35	144	3
NMTAP	35	168	5
NMTAP	35	192	2
NMTAP	35	216	4
NMTAP	35	240	2
NMTAP	35	264	4
NMTAP	35	288	1
NMTAP	35	312	3
NMTAP	35	336	1
NMTAP	35	360	3
NMTAP	36	0	0
NMTAP	36	24	6
NMTAP	36	48	7
NMTAP	36	72	5
NMSTR	36	96	1
NMSCL	36	96	1	96	48	6
NMTAP	36	120	4
NMTAP	36	144	2
NMTAP	36	168	3
EXTAP	36	192	1
NMTAP	36	288	3
NMTAP	36	288	4
NMTAP	36	312	3
NMTAP	36	312	4
NMTAP	37	0	1
NMTAP	37	24	0
NMTAP	37	48	1
NMTAP	37	72	0
NMTAP	37	96	2
NMTAP	37	120	7
NMTAP	37	144	2
NMTAP	37	168	7
NMTAP	37	192	3
NMTAP	37	216	6
NMTAP	37	240	3
NMTAP	37	264	6
NMTAP	37	288	4
NMTAP	37	336	3
NMTAP	37	336	5
NMTAP	38	0	2
NMTAP	38	0	6
NMTAP	38	48	1
NMTAP	38	72	3
NMTAP	38	96	2
NMTAP	38	144	6
NMTAP	38	168	4
NMSTR	38	192	5
NMSI_	38	192	5	96	48	0
EXTAP	38	288	5
NMTAP	39	0	6
NMTAP	39	24	7
NMTAP	39	48	6
NMTAP	39	72	7
NMTAP	39	96	5
NMTAP	39	120	0
NMTAP	39	144	5
NMTAP	39	168	0
NMTAP	39	192	4
NMTAP	39	216	1
NMTAP	39	240	4
NMTAP	39	264	1
NMTAP	39	288	3
NMTAP	39	336	2
NMTAP	39	336	4
NMTAP	40	0	1
NMTAP	40	0	5
NMTAP	40	48	6
NMTAP	40	72	7
NMTAP	40	96	6
NMTAP	40	144	1
NMTAP	40	168	0
NMSTR	40	192	1
NMSI_	40	192	1	96	48	4
EXTAP	40	288	1
EXTAP	41	0	4
NMTAP	41	24	5
NMTAP	41	48	3
NMTAP	41	72	5
NMTAP	41	96	2
NMTAP	41	120	5
NMTAP	41	144	1
NMTAP	41	168	5
EXTAP	41	192	3
NMTAP	41	216	5
NMTAP	41	240	2
NMTAP	41	264	5
NMTAP	41	288	1
NMTAP	41	312	5
NMTAP	41	336	0
NMTAP	41	360	5
EXTAP	42	0	2
NMTAP	42	24	5
NMTAP	42	48	1
NMTAP	42	72	5
NMTAP	42	96	0
NMTAP	42	120	5
NMTAP	42	144	7
NMTAP	42	168	5
EXTAP	42	192	1
NMTAP	42	216	5
NMTAP	42	240	0
NMTAP	42	264	5
NMSTR	42	288	7
NMSCR	42	288	7	96	672	5
NMTAP	42	312	5
NMTAP	42	336	6
NMTAP	42	360	5
BRTAP	43	0	7
NMSTR	45	0	2
NMSV_	45	0	2	96	4224	0
NMSTR	45	0	6
NMSV_	45	0	6	96	4224	4
NMTAP	57	0	3
NMTAP	57	24	4
NMTAP	57	48	3
NMTAP	57	72	4
NMTAP	57	96	2
NMTAP	57	120	5
NMTAP	57	144	2
NMTAP	57	168	5
NMTAP	57	192	1
NMTAP	57	216	6
NMTAP	57	240	1
NMTAP	57	264	6
NMTAP	57	288	0
NMTAP	57	312	7
NMTAP	57	336	0
NMTAP	57	360	7
NMTAP	58	0	2
NMTAP	58	24	6
NMTAP	58	48	2
NMTAP	58	72	6
NMTAP	58	96	2
NMTAP	58	120	6
NMTAP	58	144	2
NMTAP	58	168	6
NMTAP	58	192	0
NMTAP	58	216	5
NMTAP	58	240	1
NMTAP	58	264	5
NMTAP	58	288	2
NMTAP	58	312	5
NMTAP	58	336	3
NMTAP	58	360	5
NMTAP	59	0	4
NMTAP	59	24	6
NMTAP	59	48	4
NMTAP	59	72	6
NMTAP	59	96	0
NMTAP	59	120	7
NMTAP	59	144	0
NMTAP	59	168	7
NMTAP	59	192	1
NMTAP	59	216	3
NMTAP	59	240	1
NMTAP	59	264	3
NMTAP	59	288	0
NMTAP	59	312	7
NMTAP	59	336	0
NMTAP	59	360	7
NMTAP	60	0	1
NMTAP	60	24	5
NMTAP	60	48	1
NMTAP	60	72	5
NMTAP	60	96	1
NMTAP	60	120	5
NMTAP	60	144	1
NMTAP	60	168	5
NMTAP	60	192	3
NMTAP	60	216	6
NMTAP	60	240	2
NMTAP	60	264	6
NMTAP	60	288	1
NMTAP	60	312	6
NMTAP	60	336	0
NMTAP	60	360	6
NMTAP	61	0	7
NMTAP	61	24	6
NMTAP	61	48	7
NMTAP	61	72	6
NMTAP	61	96	2
NMTAP	61	120	3
NMTAP	61	144	2
NMTAP	61	168	3
NMTAP	61	192	1
NMTAP	61	216	0
NMTAP	61	240	1
NMTAP	61	264	0
NMTAP	61	288	4
NMTAP	61	312	5
NMTAP	61	336	4
NMTAP	61	360	5
NMTAP	62	0	7
NMTAP	62	24	6
NMTAP	62	48	0
NMTAP	62	72	5
NMTAP	62	96	7
NMTAP	62	120	6
NMTAP	62	144	0
NMTAP	62	168	5
NMTAP	62	192	7
NMTAP	62	216	6
NMTAP	62	240	7
NMTAP	62	264	6
NMTAP	62	288	7
NMTAP	62	312	6
NMTAP	62	336	7
NMTAP	62	360	6
NMTAP	63	0	1
NMTAP	63	24	0
NMTAP	63	48	2
NMTAP	63	72	7
NMTAP	63	96	1
NMTAP	63	120	0
NMTAP	63	144	2
NMTAP	63	168	7
NMTAP	63	192	1
NMTAP	63	216	0
NMTAP	63	240	1
NMTAP	63	264	0
NMTAP	63	288	2
NMTAP	63	312	7
NMTAP	63	336	3
NMTAP	63	360	6
NMTAP	64	0	4
NMTAP	64	24	5
NMTAP	64	48	4
NMTAP	64	72	5
NMTAP	64	96	4
NMTAP	64	120	5
NMTAP	64	144	3
NMTAP	64	168	4
NMTAP	64	192	2
NMTAP	64	216	3
NMTAP	64	240	1
NMTAP	64	264	5
NMTAP	64	288	4
NMTAP	64	312	6
NMTAP	64	336	3
NMTAP	64	360	4
NMTAP	65	0	1
NMTAP	65	24	3
NMTAP	65	48	2
NMTAP	65	72	4
NMTAP	65	96	3
NMTAP	65	120	5
NMTAP	65	144	4
NMTAP	65	168	6
NMTAP	65	192	0
NMTAP	65	216	7
NMTAP	65	240	2
NMTAP	65	264	3
NMTAP	65	288	0
NMTAP	65	312	7
NMTAP	65	336	4
NMTAP	65	360	5
NMTAP	66	0	2
NMTAP	66	24	3
NMTAP	66	48	1
NMTAP	66	72	3
NMTAP	66	96	2
NMTAP	66	120	3
NMTAP	66	144	1
NMTAP	66	168	3
NMTAP	66	192	0
NMTAP	66	216	4
NMTAP	66	240	1
NMTAP	66	264	4
NMTAP	66	288	2
NMTAP	66	312	5
NMTAP	66	336	3
NMTAP	66	360	5
NMSTR	67	0	4
NMSI_	67	0	4	96	48	0
NMTAP	67	24	6
NMTAP	67	48	4
NMTAP	67	72	6
EXTAP	67	96	4
NMTAP	67	192	1
NMTAP	67	216	7
NMTAP	67	240	1
NMTAP	67	264	7
NMTAP	67	288	0
NMTAP	67	312	6
NMTAP	67	336	0
NMTAP	67	360	6
NMTAP	68	0	1
NMTAP	68	24	5
NMTAP	68	48	1
NMTAP	68	72	5
NMTAP	68	96	1
NMTAP	68	120	5
NMTAP	68	144	1
NMTAP	68	168	5
NMTAP	68	192	2
NMTAP	68	216	6
NMTAP	68	240	3
NMTAP	68	264	6
NMTAP	68	288	4
NMTAP	68	312	6
NMTAP	68	336	5
NMTAP	68	360	6
NMTAP	69	0	4
NMTAP	69	24	7
NMTAP	69	48	4
NMTAP	69	72	7
NMTAP	69	96	2
NMTAP	69	120	5
NMTAP	69	144	2
NMTAP	69	168	5
NMTAP	69	192	0
NMTAP	69	216	3
NMTAP	69	240	0
NMTAP	69	264	3
NMTAP	69	288	2
NMTAP	69	312	5
NMTAP	69	336	2
NMTAP	69	360	5
NMTAP	70	0	1
NMTAP	70	24	0
NMTAP	70	48	2
NMTAP	70	72	7
NMTAP	70	96	1
NMTAP	70	120	0
NMTAP	70	144	2
NMTAP	70	168	7
NMTAP	70	192	1
NMTAP	70	216	0
NMTAP	70	240	1
NMTAP	70	264	0
NMTAP	70	288	1
NMTAP	70	312	0
NMTAP	70	336	2
NMTAP	70	360	7
NMTAP	71	0	3
NMTAP	71	24	6
NMTAP	71	48	3
NMTAP	71	72	6
NMTAP	71	96	1
NMTAP	71	120	4
NMTAP	71	144	1
NMTAP	71	168	4
NMTAP	71	192	7
NMTAP	71	216	6
NMTAP	71	240	0
NMTAP	71	264	5
NMTAP	71	288	1
NMTAP	71	312	4
NMTAP	71	336	2
NMTAP	71	360	3
NMTAP	72	0	1
NMTAP	72	24	6
NMTAP	72	48	1
NMTAP	72	72	6
NMTAP	72	96	1
NMTAP	72	120	6
NMTAP	72	144	1
NMTAP	72	168	6
NMTAP	72	192	0
NMTAP	72	216	3
NMTAP	72	240	2
NMTAP	72	264	7
NMTAP	72	288	4
NMTAP	72	312	5
NMTAP	72	336	1
NMTAP	72	360	6
NMTAP	73	0	0
NMTAP	73	24	7
NMTAP	73	48	0
NMTAP	73	72	7
NMTAP	73	96	1
NMTAP	73	120	6
NMTAP	73	144	1
NMTAP	73	168	6
NMTAP	73	192	2
NMTAP	73	216	5
NMTAP	73	240	2
NMTAP	73	264	5
EXTAP	73	288	3
EXTAP	73	288	4
EXTAP	73	336	0
EXTAP	73	336	7
EXTAP	73	360	0
EXTAP	73	360	7
BRTAP	74	0	1
NMHLD	74	0	6	144
NMTAP	74	144	4
NMTAP	74	168	6
NMTAP	74	192	3
NMTAP	74	216	5
NMTAP	74	240	2
NMTAP	74	264	4
NMTAP	74	288	1
NMTAP	74	312	3
NMTAP	74	336	0
NMTAP	74	360	7
BRTAP	75	0	1
BRTAP	75	0	6
NMTAP	75	336	3
NMTAP	75	360	4
NMTAP	76	0	7
NMTAP	76	24	6
NMTAP	76	48	7
NMTAP	76	72	6
NMTAP	76	96	1
NMTAP	76	120	0
NMTAP	76	144	1
NMTAP	76	168	0
NMTAP	76	192	2
NMTAP	76	216	3
NMTAP	76	240	1
NMTAP	76	264	5
NMTAP	76	288	4
NMTAP	76	312	6
NMTAP	76	336	0
NMTAP	76	360	7
NMTAP	77	0	2
NMTAP	77	24	6
NMTAP	77	48	2
NMTAP	77	72	6
NMTAP	77	96	1
NMTAP	77	120	5
NMTAP	77	144	1
NMTAP	77	168	5
NMTAP	77	192	2
NMTAP	77	216	6
NMTAP	77	240	2
NMTAP	77	264	6
NMTAP	77	288	1
NMTAP	77	312	5
NMTAP	77	336	1
NMTAP	77	360	5
NMTAP	78	0	2
NMTAP	78	24	4
NMTAP	78	48	2
NMTAP	78	72	4
NMTAP	78	96	2
NMTAP	78	120	4
NMTAP	78	144	2
NMTAP	78	168	4
NMTAP	78	192	3
NMTAP	78	216	5
NMTAP	78	240	3
NMTAP	78	264	5
NMTAP	78	288	3
NMTAP	78	312	5
NMTAP	78	336	3
NMTAP	78	360	5
NMTAP	79	0	7
NMTAP	79	24	6
NMTAP	79	48	7
NMTAP	79	72	6
NMTAP	79	96	0
NMTAP	79	120	7
NMTAP	79	144	0
NMTAP	79	168	7
NMTAP	79	192	1
NMTAP	79	216	0
NMTAP	79	240	1
NMTAP	79	264	0
NMTAP	79	288	2
NMTAP	79	336	1
NMTAP	79	336	3
EXHLD	80	0	0	48
EXHLD	80	0	4	48
EXHLD	80	72	4	48
EXHLD	80	72	5	48
EXHLD	80	144	2	48
EXHLD	80	144	3	48
EXHLD	80	216	3	48
EXHLD	80	216	7	48
EXSTR	80	288	4
NMSUL	80	288	4	96	144	3
EXTAP	80	288	6
NMTAP	80	336	3
NMTAP	80	336	5
EXTAP	81	0	2
EXTAP	81	0	4
NMSTR	81	192	0
NMSCR	81	192	0	96	48	3
NMSTR	81	192	4
NMSCR	81	192	4	96	48	7
BRTAP	82	0	0
NMTAP	82	24	5
NMTAP	82	48	4
NMTAP	82	72	5
BRTAP	82	96	0
NMTAP	82	120	5
NMTAP	82	144	4
NMTAP	82	168	5
BRTAP	82	192	0
NMTAP	82	216	5
NMTAP	82	240	4
NMTAP	82	264	5
BRTAP	82	288	0
NMTAP	82	312	5
NMTAP	82	336	4
NMTAP	82	360	5
NMTAP	83	0	2
NMTAP	83	24	3
NMTAP	83	48	2
NMTAP	83	72	3
NMTAP	83	96	0
NMTAP	83	120	6
NMTAP	83	144	0
NMTAP	83	168	6
NMTAP	83	192	4
NMTAP	83	216	5
NMTAP	83	240	4
NMTAP	83	264	5
NMTAP	83	288	1
NMTAP	83	312	7
NMTAP	83	336	1
NMTAP	83	360	7
BRTAP	84	0	0
NMTAP	84	24	3
NMTAP	84	48	2
NMTAP	84	72	3
BRTAP	84	96	0
NMTAP	84	120	3
NMTAP	84	144	2
NMTAP	84	168	3
BRTAP	84	192	0
NMTAP	84	216	3
NMTAP	84	240	2
NMTAP	84	264	3
BRTAP	84	288	0
NMTAP	84	312	3
NMTAP	84	336	2
NMTAP	84	360	3
NMTAP	85	0	1
NMTAP	85	24	7
NMTAP	85	48	1
NMTAP	85	72	7
NMTAP	85	96	4
NMTAP	85	120	5
NMTAP	85	144	4
NMTAP	85	168	5
NMTAP	85	192	0
NMTAP	85	216	6
NMTAP	85	240	0
NMTAP	85	264	6
NMTAP	85	288	2
NMTAP	85	312	3
NMTAP	85	336	2
NMTAP	85	360	3
NMTAP	86	0	0
NMTAP	86	24	7
NMTAP	86	48	1
NMTAP	86	72	6
NMTAP	86	96	0
NMTAP	86	120	7
NMTAP	86	144	1
NMTAP	86	168	6
NMTAP	86	192	4
NMTAP	86	216	5
NMTAP	86	240	4
NMTAP	86	264	5
NMTAP	86	288	4
NMTAP	86	312	5
NMTAP	86	336	3
NMTAP	86	360	4
NMTAP	87	0	2
NMTAP	87	24	3
NMTAP	87	48	2
NMTAP	87	72	3
NMTAP	87	96	0
NMTAP	87	120	7
NMTAP	87	144	0
NMTAP	87	168	7
NMTAP	87	192	1
NMTAP	87	216	6
NMTAP	87	240	2
NMTAP	87	264	5
NMTAP	87	288	3
NMTAP	87	312	4
NMTAP	87	336	2
NMTAP	87	360	5
NMTAP	88	0	1
NMTAP	88	24	6
NMTAP	88	48	1
NMTAP	88	72	6
NMTAP	88	96	1
NMTAP	88	120	6
NMTAP	88	144	1
NMTAP	88	168	6
NMTAP	88	192	2
NMTAP	88	216	3
NMTAP	88	240	1
NMTAP	88	264	5
NMTAP	88	288	4
NMTAP	88	312	6
NMTAP	88	336	0
NMTAP	88	360	7
NMTAP	89	0	2
NMTAP	89	24	6
NMTAP	89	48	2
NMTAP	89	72	6
NMTAP	89	96	1
NMTAP	89	120	5
NMTAP	89	144	1
NMTAP	89	168	5
NMTAP	89	192	0
NMTAP	89	216	7
NMTAP	89	240	2
NMTAP	89	264	3
NMTAP	89	288	0
NMTAP	89	312	7
NMTAP	89	336	4
NMTAP	89	360	5
EXHLD	90	0	2	336
BRTAP	90	0	6
NMTAP	90	336	3
NMTAP	90	360	2
EXHLD	91	0	5	336
NMTAP	91	336	4
NMTAP	91	360	5
EXHLD	92	0	1	144
NMTAP	92	144	3
NMTAP	92	168	2
EXHLD	92	192	6	144
NMTAP	92	336	4
NMTAP	92	360	5
EXHLD	93	0	0	144
NMTAP	93	144	7
NMTAP	93	168	0
NMSTR	93	192	7
NMSF_	93	192	7	96	48	3
NMTAP	94	0	1
NMTAP	94	24	5
NMTAP	94	48	4
NMTAP	94	72	5
NMTAP	94	96	1
NMTAP	94	120	5
NMTAP	94	144	4
NMTAP	94	168	5
NMTAP	94	192	1
NMTAP	94	216	5
NMTAP	94	240	4
NMTAP	94	264	5
NMTAP	94	288	1
NMTAP	94	312	5
NMTAP	94	336	4
NMTAP	94	360	5
NMTAP	95	0	2
NMTAP	95	24	6
NMTAP	95	48	4
NMTAP	95	72	6
NMTAP	95	96	0
NMTAP	95	120	6
NMTAP	95	144	4
NMTAP	95	168	6
NMTAP	95	192	0
NMTAP	95	216	6
NMTAP	95	240	4
NMTAP	95	264	6
NMTAP	95	288	0
NMTAP	95	312	6
NMTAP	95	336	4
NMTAP	95	360	6
NMTAP	96	0	0
NMTAP	96	48	0
NMTAP	96	48	7
NMTAP	96	96	1
NMTAP	96	96	6
NMTAP	96	144	1
NMTAP	96	144	6
NMTAP	96	192	2
NMTAP	96	192	5
NMTAP	96	240	2
NMTAP	96	240	5
NMTAP	96	288	3
NMTAP	96	288	4
NMTAP	96	336	3
NMTAP	96	336	4
BRTAP	97	0	0
NMTAP	97	24	4
NMTAP	97	48	1
NMTAP	97	72	3
NMHLD	97	96	2	24
BRTAP	97	144	7
NMTAP	97	168	3
NMTAP	97	192	6
NMTAP	97	216	4
NMHLD	97	240	5	24
BRTAP	97	288	0
NMTAP	97	312	4
NMTAP	97	336	1
NMTAP	97	360	3
NMHLD	98	0	2	24
BRTAP	98	48	7
NMTAP	98	72	3
NMTAP	98	96	6
NMTAP	98	120	4
NMHLD	98	144	5	24
BRTAP	98	192	0
NMTAP	98	216	7
NMTAP	98	240	1
NMTAP	98	264	6
NMTAP	98	288	2
NMTAP	98	312	5
NMTAP	98	336	3
NMTAP	98	360	4
NMTTP	99	0	0	C	1	M1
NMTTP	99	0	1	B	0	M1
NMTTP	99	0	2	B	0	M1
NMTTP	99	0	2	E	0	M1
NMTTP	99	0	5	B	0	M1
NMTTP	99	0	6	B	0	M1
NMTTP	99	0	6	E	0	M1
NMTAP	99	288	3
NMTAP	99	288	4
NMTAP	99	312	2
NMTAP	99	312	5
NMTAP	99	336	1
NMTAP	99	336	6
NMTAP	99	360	0
NMTAP	99	360	7
NMTTP	100	0	1	E	0	M1
NMTTP	100	4	7	E	0	M1
NMTTP	100	8	1	B	0	M1
NMTTP	100	12	6	B	0	M1
NMTTP	100	16	2	B	0	M1
NMTTP	100	20	5	B	0	M1
NMTTP	100	24	3	E	0	M1
NMTTP	100	28	5	E	0	M1

T_REC_TAP	1030
T_REC_BRK	24
T_REC_XTP	57
T_REC_BXX	0
T_REC_HLD	5
T_REC_XHO	15
T_REC_BHO	0
T_REC_BXH	0
T_REC_STR	15
T_REC_BST	8
T_REC_XST	1
T_REC_XBS	0
T_REC_TTP	15
T_REC_THO	0
T_REC_SLD	24
T_REC_BSL	0
T_REC_ALL	1194
T_NUM_TAP	1118
T_NUM_BRK	32
T_NUM_HLD	20
T_NUM_SLD	24
T_NUM_ALL	1194
T_JUDGE_TAP	1150
T_JUDGE_HLD	58
T_JUDGE_SLD	24
T_JUDGE_ALL	1232
TTM_EACHPAIRS	53
TTM_SCR_TAP	559000
TTM_SCR_BRK	83200
TTM_SCR_HLD	20000
TTM_SCR_SLD	36000
TTM_SCR_ALL	698200
TTM_SCR_S	674150
TTM_SCR_SS	695000
TTM_RAT_ACV	10046

