VERSION	0.00.00	1.04.00
FES_MODE	0
BPM_DEF	171.100	171.100	185.000	122.300
MET_DEF	4	4
RESOLUTION	384
CLK_DEF	384
COMPATIBLE_CODE	MA2

BPM	0	0	171.100
BPM	1	0	185.000
BPM	1	96	171.100
BPM	45	0	128.600
BPM	56	288	122.300
BPM	57	0	171.100
MET	0	0	4	4
MET	45	0	4	3
MET	57	0	4	4

NMTAP	1	288	3
NMTAP	1	312	4
NMTAP	1	336	3
NMTAP	1	360	4
EXSTR	2	0	3
NMSI_	2	0	3	96	48	7
EXTAP	2	96	3
EXSTR	2	96	5
NMSI_	2	96	5	96	48	1
EXTAP	2	192	0
EXTAP	2	192	5
NMHLD	2	288	0	96
NMTAP	3	0	2
NMTAP	3	48	1
NMTAP	3	48	3
NMTAP	3	96	5
NMTAP	3	144	4
NMTAP	3	144	6
NMTAP	3	192	2
NMTAP	3	240	1
NMTAP	3	240	3
NMSTR	3	288	0
NMSCR	3	288	0	96	48	3
NMTAP	3	288	7
EXTAP	4	0	0
EXSTR	4	0	5
NMSCR	4	0	5	96	48	0
EXSTR	4	96	2
NMSCR	4	96	2	96	48	5
EXTAP	4	96	5
EXTAP	4	192	2
EXTAP	4	192	7
NMHLD	4	288	7	96
NMTAP	5	0	5
NMTAP	5	48	4
NMTAP	5	48	6
NMTAP	5	96	2
NMTAP	5	144	1
NMTAP	5	144	3
NMHLD	5	192	0	96
NMTAP	5	192	7
NMTAP	5	288	7
NMTAP	5	312	0
NMTAP	5	336	7
NMTAP	5	360	0
EXSTR	6	0	7
NMSI_	6	0	7	96	48	3
EXSTR	6	96	1
NMSI_	6	96	1	96	48	5
EXTAP	6	96	7
BRTAP	6	192	0
EXTAP	6	192	1
NMTAP	6	288	3
NMTAP	6	288	6
NMTAP	6	336	2
NMTAP	6	336	5
NMTAP	7	0	1
EXSTR	7	0	4
NMSI_	7	0	4	96	48	7
EXSTR	7	96	3
NMSI_	7	96	3	96	48	0
EXTAP	7	96	4
EXTAP	7	192	3
BRTAP	7	192	7
NMTAP	7	288	1
NMTAP	7	336	0
NMTAP	8	0	6
NMTAP	8	0	7
NMTAP	8	48	5
NMTAP	8	96	3
NMTAP	8	96	4
NMTAP	8	144	2
NMTAP	8	192	0
NMTAP	8	192	1
NMTAP	8	240	7
NMSTR	8	288	6
NMSXL	8	288	6	96	288	1
NMTAP	8	336	5
NMTAP	9	0	4
NMHLD	10	0	2	72
NMHLD	10	72	3	72
NMTAP	10	144	4
NMSTR	10	192	4
NMSI_	10	192	4	96	48	0
EXTAP	10	288	4
NMSTR	10	288	7
NMSXR	10	288	7	96	96	7
NMHLD	11	0	1	144
NMTAP	11	144	0
NMTAP	11	192	2
NMTAP	11	192	7
NMTAP	11	240	6
NMTAP	11	288	0
NMTAP	11	288	5
NMTAP	11	336	1
NMSTR	12	0	2
NMSI_	12	0	2	96	48	4
NMTAP	12	0	7
EXTAP	12	96	2
NMSTR	12	96	6
NMSI_	12	96	6	96	48	2
NMSTR	12	192	0
NMSI_	12	192	0	96	48	6
EXTAP	12	192	6
EXTAP	12	288	0
NMSTR	12	288	5
NMSI_	12	288	5	96	48	1
EXTAP	13	0	2
EXTAP	13	0	5
NMTAP	13	144	2
NMTAP	13	192	1
NMTAP	13	192	3
NMTAP	13	240	5
NMTAP	13	288	4
NMTAP	13	288	6
NMTAP	13	336	2
NMTAP	14	0	1
NMSTR	14	0	3
NMSI_	14	0	3	96	48	7
NMSTR	14	96	0
NMSCR	14	96	0	96	48	3
EXTAP	14	96	3
EXTAP	14	192	0
NMSTR	14	192	7
NMSCL	14	192	7	96	48	4
EXTAP	14	288	0
EXTAP	14	288	7
NMTAP	15	0	1
NMSTR	15	0	3
NMSI_	15	0	3	96	48	7
NMSTR	15	96	2
NMSCL	15	96	2	96	96	5
EXTAP	15	192	0
NMTAP	15	336	7
NMSTR	16	0	0
NMSI_	16	0	0	96	48	4
NMTAP	16	0	7
NMSTR	16	96	4
NMSI_	16	96	4	96	48	0
EXTAP	16	192	7
NMSTR	16	288	2
NMSCL	16	288	2	96	96	5
NMTAP	16	288	5
NMTAP	16	336	4
NMTAP	17	0	3
NMTAP	17	144	7
NMHLD	17	192	7	72
NMHLD	17	264	6	72
NMTAP	17	336	5
NMTAP	18	0	4
NMTAP	18	0	5
NMTAP	18	96	2
NMSTR	18	96	3
NMSI_	18	96	3	96	48	7
NMTAP	18	144	1
NMTAP	18	192	0
BRSTR	18	288	0
NMSXL	18	288	0	96	96	0
BRTAP	18	288	6
NMHLD	19	0	6	144
NMTAP	19	144	7
NMTAP	19	192	0
NMTAP	19	192	5
NMTAP	19	240	1
NMTAP	19	288	2
NMTAP	19	288	7
NMTAP	19	336	6
NMTAP	20	0	0
NMSTR	20	0	5
NMSI_	20	0	5	96	48	3
NMSTR	20	96	1
NMSI_	20	96	1	96	48	5
EXTAP	20	96	5
EXTAP	20	192	1
NMSTR	20	192	7
NMSI_	20	192	7	96	48	1
NMSTR	20	288	2
NMSI_	20	288	2	96	48	6
EXTAP	20	288	7
EXTAP	21	0	2
EXTAP	21	0	5
NMTAP	21	144	5
NMTAP	21	192	4
NMTAP	21	192	6
NMTAP	21	240	2
NMTAP	21	288	1
NMTAP	21	288	3
NMTAP	21	336	5
NMSTR	22	0	4
NMSI_	22	0	4	96	48	0
NMTAP	22	0	6
EXTAP	22	96	4
NMSTR	22	96	7
NMSCL	22	96	7	96	48	4
NMSTR	22	192	0
NMSCR	22	192	0	96	48	3
EXTAP	22	192	7
EXTAP	22	288	0
EXTAP	22	288	7
NMSTR	23	0	4
NMSI_	23	0	4	96	48	0
NMTAP	23	0	6
NMSTR	23	96	5
NMSCR	23	96	5	96	96	2
EXTAP	23	192	7
NMTAP	23	336	0
NMTAP	24	0	0
NMSTR	24	0	6
NMSI_	24	0	6	96	48	2
NMSTR	24	96	0
NMSSL	24	96	0	96	96	4
EXTAP	24	192	6
NMTAP	24	240	6
NMSTR	24	288	5
NMSCR	24	288	5	96	96	2
NMTAP	24	336	5
NMTAP	25	0	3
NMHLD	25	192	0	72
NMHLD	25	264	1	72
NMTAP	25	336	2
NMTAP	26	0	2
NMTAP	26	0	3
NMTAP	26	48	5
NMTAP	26	72	4
NMTAP	26	96	5
NMTAP	26	144	2
NMTAP	26	168	3
NMTAP	26	192	1
NMTAP	26	240	5
NMTAP	26	264	4
NMTAP	26	288	6
NMTAP	26	336	3
NMTAP	26	360	4
EXHLD	27	0	1	480
EXHLD	27	0	5	480
NMSTR	28	192	2
NMSI_	28	192	2	96	48	7
NMSTR	28	192	6
NMSI_	28	192	6	96	48	3
EXTAP	28	288	2
EXTAP	28	288	6
NMTAP	29	0	1
NMTAP	29	0	5
NMTAP	29	48	2
NMTAP	29	72	3
NMTAP	29	96	1
NMTAP	29	144	5
NMTAP	29	168	4
NMTAP	29	192	6
NMTAP	29	240	1
NMTAP	29	264	0
NMTAP	29	288	1
NMTAP	29	312	0
NMTAP	29	336	1
NMTAP	30	0	5
NMTAP	30	24	4
NMTAP	30	48	6
NMTAP	30	96	2
NMTAP	30	120	3
NMTAP	30	144	1
NMTAP	30	192	6
NMTAP	30	216	7
NMTAP	30	240	6
NMTAP	30	264	7
NMTAP	30	288	6
NMTAP	30	336	0
NMTAP	30	336	5
NMTAP	31	0	2
NMTAP	31	24	3
NMTAP	31	48	2
NMTAP	31	72	3
NMTAP	31	96	2
NMTAP	31	120	3
NMTAP	31	144	2
NMTAP	31	192	5
NMTAP	31	216	4
NMTAP	31	240	5
NMTAP	31	264	4
NMTAP	31	288	5
NMTAP	31	312	4
NMTAP	31	336	5
NMTAP	32	0	0
NMTAP	32	24	7
NMTAP	32	48	1
NMTAP	32	72	6
NMTAP	32	96	0
NMTAP	32	120	7
NMTAP	32	144	1
NMTAP	32	192	5
NMTAP	32	216	4
NMTAP	32	216	5
NMTAP	32	288	2
NMTAP	32	312	2
NMTAP	32	312	3
NMTAP	33	0	0
NMTAP	33	0	7
NMTAP	33	48	5
NMTAP	33	72	4
NMTAP	33	96	6
NMTAP	33	144	2
NMTAP	33	168	3
NMTAP	33	192	1
NMTAP	33	240	6
NMTAP	33	264	7
NMTAP	33	288	6
NMTAP	33	312	7
NMTAP	33	336	6
NMTAP	34	0	2
NMTAP	34	24	3
NMTAP	34	48	1
NMTAP	34	96	5
NMTAP	34	120	4
NMTAP	34	144	6
NMTAP	34	192	1
NMTAP	34	216	0
NMTAP	34	240	1
NMTAP	34	264	0
NMTAP	34	288	1
NMTAP	34	336	2
NMTAP	34	336	7
NMTAP	35	0	5
NMTAP	35	24	4
NMTAP	35	48	5
NMTAP	35	72	4
NMTAP	35	96	5
NMTAP	35	120	4
NMTAP	35	144	5
NMTAP	35	192	2
NMTAP	35	216	3
NMTAP	35	240	2
NMTAP	35	264	3
NMTAP	35	288	2
NMTAP	35	312	3
NMTAP	35	336	2
NMTAP	36	0	7
NMTAP	36	24	0
NMTAP	36	48	6
NMTAP	36	72	1
NMSTR	36	96	7
NMSI_	36	96	7	96	48	3
NMTAP	36	120	0
NMTAP	36	144	6
NMTAP	36	168	1
NMTAP	36	288	2
NMTAP	36	288	5
NMTAP	36	312	2
NMTAP	36	312	5
NMTAP	37	0	3
NMTAP	37	24	4
NMTAP	37	48	3
NMTAP	37	72	4
NMTAP	37	96	2
NMTAP	37	120	4
NMTAP	37	144	2
NMTAP	37	168	4
NMTAP	37	192	1
NMTAP	37	216	4
NMTAP	37	240	1
NMTAP	37	264	4
NMTAP	37	288	0
NMTAP	37	336	1
NMTAP	37	336	7
NMTAP	38	0	2
NMTAP	38	0	6
NMTAP	38	48	5
NMTAP	38	72	4
NMTAP	38	96	6
NMTAP	38	144	2
NMTAP	38	168	3
NMSTR	38	192	1
NMSI_	38	192	1	96	48	5
EXTAP	38	288	7
NMTAP	39	0	4
NMTAP	39	24	3
NMTAP	39	48	4
NMTAP	39	72	3
NMTAP	39	96	5
NMTAP	39	120	3
NMTAP	39	144	5
NMTAP	39	168	3
NMTAP	39	192	6
NMTAP	39	216	3
NMTAP	39	240	6
NMTAP	39	264	3
NMTAP	39	288	7
NMTAP	39	336	0
NMTAP	39	336	6
NMTAP	40	0	1
NMTAP	40	0	5
NMTAP	40	48	2
NMTAP	40	72	3
NMTAP	40	96	1
NMTAP	40	144	5
NMTAP	40	168	4
NMSTR	40	192	6
NMSI_	40	192	6	96	48	2
EXTAP	40	288	0
NMHLD	41	0	1	48
EXTAP	41	0	3
NMTAP	41	48	4
NMHLD	41	96	1	48
NMTAP	41	96	5
NMTAP	41	144	6
NMHLD	41	192	2	48
EXTAP	41	192	4
NMTAP	41	240	5
NMHLD	41	288	2	48
NMTAP	41	288	6
NMTAP	41	336	7
NMHLD	42	0	3	48
EXTAP	42	0	5
NMTAP	42	48	6
NMHLD	42	96	3	48
NMTAP	42	96	7
NMTAP	42	144	0
NMHLD	42	192	4	48
EXTAP	42	192	6
NMTAP	42	240	7
NMSTR	42	288	0
NMSCL	42	288	0	96	672	2
NMHLD	42	288	4	48
NMTAP	42	336	1
BRTAP	43	0	4
NMHLD	45	0	1	1152
NMTTP	45	144	0	E	0	M1
NMTTP	45	192	1	E	0	M1
NMTTP	45	240	2	E	0	M1
NMTTP	45	288	3	E	0	M1
NMTTP	46	48	1	E	0	M1
NMTTP	46	96	2	E	0	M1
NMTTP	46	144	3	E	0	M1
NMTTP	46	192	4	E	0	M1
NMTTP	46	336	4	E	0	M1
NMTTP	47	96	3	E	0	M1
NMTTP	47	144	4	E	0	M1
NMTTP	47	192	5	E	0	M1
NMHLD	48	0	5	1152
NMTTP	48	144	3	E	0	M1
NMTTP	48	192	3	B	0	M1
NMTTP	48	240	4	B	0	M1
NMTTP	48	288	5	E	0	M1
NMTTP	49	48	4	E	0	M1
NMTTP	49	192	5	B	0	M1
NMTTP	49	336	2	B	0	M1
NMTTP	50	96	5	E	0	M1
NMTTP	50	144	4	E	0	M1
NMTTP	50	192	3	E	0	M1
NMHLD	51	0	2	1152
NMTTP	51	192	4	E	0	M1
NMTTP	51	240	0	C	0	M1
NMTTP	51	288	0	E	0	M1
NMTTP	52	48	5	E	0	M1
NMTTP	52	96	6	E	0	M1
NMTTP	52	144	7	E	0	M1
NMTTP	52	192	0	E	0	M1
NMTTP	52	336	3	E	0	M1
NMTTP	53	0	2	E	0	M1
NMTTP	53	48	1	E	0	M1
NMTTP	53	96	0	E	0	M1
NMTTP	53	144	0	C	0	M1
NMTTP	53	192	4	E	0	M1
NMHLD	54	0	6	864
NMTTP	54	144	0	E	0	M1
NMTTP	54	192	7	E	0	M1
NMTTP	54	240	6	E	0	M1
NMTTP	54	288	5	E	0	M1
NMTTP	55	48	7	E	0	M1
NMTTP	55	96	6	E	0	M1
NMTTP	55	144	5	E	0	M1
NMTTP	55	192	4	E	0	M1
NMTTP	55	336	0	C	0	M1
NMTTP	56	96	2	E	0	M1
NMTTP	56	108	3	E	0	M1
NMTTP	56	120	4	E	0	M1
EXTAP	57	0	0
EXTAP	57	0	7
NMTAP	57	48	2
NMTAP	57	72	3
NMTAP	57	96	2
NMTAP	57	144	7
EXTAP	57	192	0
EXTAP	57	192	7
NMTAP	57	240	5
NMTAP	57	264	4
NMSTR	57	288	5
NMSCR	57	288	5	96	48	0
NMTAP	57	336	1
NMHLD	58	0	1	144
NMTAP	58	144	0
NMTAP	58	192	2
NMTAP	58	192	7
NMTAP	58	240	6
NMTAP	58	288	0
NMTAP	58	288	5
NMTAP	58	336	1
BRSTR	59	0	2
NMSI_	59	0	2	96	48	4
EXTAP	59	0	7
EXTAP	59	96	2
BRSTR	59	96	6
NMSI_	59	96	6	96	48	2
BRSTR	59	192	0
NMSI_	59	192	0	96	48	6
EXTAP	59	192	6
EXTAP	59	288	0
BRSTR	59	288	5
NMSI_	59	288	5	96	48	1
EXTAP	60	0	2
EXTAP	60	0	5
NMTAP	60	96	3
NMTAP	60	96	4
NMTAP	60	144	2
NMTAP	60	192	1
NMTAP	60	192	3
NMTAP	60	240	5
NMTAP	60	288	4
NMTAP	60	288	6
NMTAP	60	336	2
EXTAP	61	0	1
BRSTR	61	0	3
NMSI_	61	0	3	96	48	7
BRSTR	61	96	0
NMSCR	61	96	0	96	48	3
EXTAP	61	96	3
EXTAP	61	192	0
BRSTR	61	192	7
NMSCL	61	192	7	96	48	4
BRTAP	61	288	0
EXTAP	61	288	7
NMSTR	62	0	2
NMSI_	62	0	2	96	48	7
NMTAP	62	0	3
NMTAP	62	48	2
NMSTR	62	96	5
NMSLL	62	96	5	96	96	6
NMTAP	62	144	5
EXTAP	62	192	0
NMTAP	62	240	1
NMTAP	62	288	2
NMTAP	62	336	3
NMTAP	63	0	4
NMSTR	63	0	5
NMSI_	63	0	5	96	48	0
NMTAP	63	48	5
NMSTR	63	96	1
NMSI_	63	96	1	96	48	4
NMTAP	63	144	1
EXTAP	63	192	7
NMTAP	63	240	6
NMTAP	63	288	0
NMSTR	63	288	5
NMSUL	63	288	5	96	144	3
NMTAP	63	336	1
NMTAP	64	0	2
NMTAP	64	48	2
NMTAP	64	96	2
NMTAP	64	144	2
NMTAP	64	192	1
NMTAP	64	192	4
NMTAP	64	240	7
NMTAP	64	264	0
NMTAP	64	288	7
NMTAP	64	336	1
NMTAP	64	336	6
NMHLD	65	0	5	96
NMTAP	65	48	4
NMSTR	65	96	3
NMSI_	65	96	3	96	48	7
NMTAP	65	144	2
BRTAP	65	192	1
NMTTP	65	288	0	C	1	M1
NMTTP	65	288	1	B	0	M1
NMTTP	65	288	2	E	0	M1
NMTTP	65	288	5	B	0	M1
NMTTP	65	288	6	E	0	M1
NMHLD	66	0	0	96
NMHLD	66	0	7	96
NMTAP	66	144	0
NMTAP	66	144	7
NMTAP	66	192	1
NMTAP	66	192	6
NMTAP	66	240	2
NMTAP	66	240	5
NMTAP	66	288	3
NMTAP	66	288	4
NMTAP	66	336	2
NMTAP	66	336	5
EXSTR	67	0	1
NMSI_	67	0	1	96	48	4
EXSTR	67	0	6
NMSI_	67	0	6	96	48	3
EXTAP	67	48	1
EXTAP	67	48	6
EXTAP	67	96	1
EXTAP	67	96	6
EXSTR	67	192	7
NMSI_	67	192	7	96	48	3
NMTAP	67	240	7
EXSTR	67	288	0
NMSI_	67	288	0	96	48	4
NMTAP	67	336	0
EXTAP	68	0	7
NMTAP	68	48	7
NMTAP	68	96	6
NMTAP	68	144	5
NMTAP	68	192	4
NMTAP	68	192	6
NMTAP	68	240	2
NMTAP	68	288	1
NMTAP	68	288	3
NMTAP	68	336	5
EXSTR	69	0	4
NMSI_	69	0	4	96	48	0
EXTAP	69	0	6
NMTAP	69	48	4
EXSTR	69	96	7
NMSCL	69	96	7	96	48	4
NMTAP	69	144	7
EXSTR	69	192	0
NMSCR	69	192	0	96	48	3
NMTAP	69	240	0
EXTAP	69	288	7
NMTAP	69	336	6
NMSTR	70	0	4
NMSI_	70	0	4	96	48	0
NMTAP	70	0	5
NMTAP	70	48	4
NMSTR	70	96	6
NMSCL	70	96	6	96	96	1
NMTAP	70	144	6
EXTAP	70	192	7
NMTAP	70	240	7
NMTAP	70	288	0
NMTAP	70	336	0
NMSTR	71	0	1
NMSI_	71	0	1	96	48	5
NMTAP	71	0	7
NMTAP	71	48	1
NMSTR	71	96	7
NMSSR	71	96	7	96	96	3
NMTAP	71	144	7
EXTAP	71	192	1
NMTAP	71	240	1
NMSTR	71	288	2
NMSCL	71	288	2	96	96	5
NMTAP	71	336	2
NMTAP	72	0	4
NMTAP	72	48	4
NMTAP	72	96	3
NMTAP	72	144	3
NMTAP	72	192	2
NMTAP	72	192	5
NMTAP	72	240	0
NMTAP	72	264	7
NMTAP	72	288	0
NMTAP	72	336	1
NMTAP	72	336	6
NMTAP	73	0	3
NMTAP	73	0	4
NMTAP	73	48	2
NMTAP	73	72	3
NMTAP	73	96	2
NMTAP	73	144	5
NMTAP	73	168	4
NMTAP	73	192	6
NMTAP	73	240	2
NMTAP	73	264	3
NMTAP	73	288	1
NMTAP	73	336	4
NMTAP	73	360	3
EXHLD	74	0	2	288
BRTAP	74	0	6
NMTAP	74	144	3
NMTAP	74	192	4
NMTAP	74	240	5
NMTAP	74	288	6
EXTAP	74	336	3
EXTAP	74	336	7
BRTAP	75	0	1
EXHLD	75	0	5	288
NMTTP	75	96	5	E	0	M1
NMTTP	75	192	0	C	0	M1
NMTTP	75	288	1	E	0	M1
NMTAP	76	0	6
NMTAP	76	0	7
NMTAP	76	48	5
NMTAP	76	96	3
NMTAP	76	96	4
NMTAP	76	144	2
NMTAP	76	192	0
NMTAP	76	192	1
NMTAP	76	240	6
NMTAP	76	264	7
NMTAP	76	288	6
NMTAP	76	336	0
NMTAP	76	336	5
NMTAP	77	0	1
NMTAP	77	0	4
NMTAP	77	48	2
NMTAP	77	96	3
NMTAP	77	96	6
NMTAP	77	144	5
NMTAP	77	192	0
NMTAP	77	192	4
NMTAP	77	240	1
NMTAP	77	288	3
NMTAP	77	288	7
NMTAP	77	336	6
NMTAP	78	0	0
NMTAP	78	0	4
NMTAP	78	48	1
NMTAP	78	96	2
NMTAP	78	96	6
NMTAP	78	144	3
NMTAP	78	192	0
NMTAP	78	192	4
NMTAP	78	240	5
NMTAP	78	288	2
NMTAP	78	288	6
NMTAP	78	336	7
NMTAP	79	0	0
NMTAP	79	0	1
NMTAP	79	48	2
NMTAP	79	96	3
NMTAP	79	96	4
NMTAP	79	144	5
NMTAP	79	192	6
NMTAP	79	192	7
NMTAP	79	240	0
NMTAP	79	288	1
NMTAP	79	288	6
NMTAP	79	336	2
NMTAP	79	336	5
EXHLD	80	0	3	48
EXHLD	80	0	4	48
EXHLD	80	72	1	48
EXHLD	80	72	2	48
EXHLD	80	144	0	48
EXHLD	80	144	7	48
EXHLD	80	216	5	48
EXHLD	80	216	6	48
EXSTR	80	288	3
NMSUR	80	288	3	96	144	4
EXTAP	80	288	4
NMTAP	80	336	3
NMTAP	80	336	4
NMSTR	81	192	3
NMSCL	81	192	3	96	48	0
NMSTR	81	192	7
NMSCL	81	192	7	96	48	4
BRTAP	82	0	7
NMTAP	82	48	1
NMTAP	82	48	3
BRTAP	82	96	7
NMTAP	82	144	2
NMTAP	82	144	4
BRTAP	82	192	7
NMTAP	82	240	3
NMTAP	82	240	5
BRTAP	82	288	7
NMTAP	82	336	4
NMTAP	82	336	6
EXSTR	83	0	0
NMSI_	83	0	0	96	48	2
NMSV_	83	0	0	96	48	3
EXSTR	83	96	0
NMSI_	83	96	0	96	48	6
NMSV_	83	96	0	96	48	5
EXSTR	83	192	0
NMSI_	83	192	0	96	48	2
NMSV_	83	192	0	96	48	3
EXTAP	83	288	0
BRTAP	84	0	7
NMTAP	84	48	4
NMTAP	84	48	6
BRTAP	84	96	7
NMTAP	84	144	3
NMTAP	84	144	5
BRTAP	84	192	7
NMTAP	84	240	2
NMTAP	84	240	4
BRTAP	84	288	7
NMTAP	84	336	1
NMTAP	84	336	3
EXSTR	85	0	7
NMSI_	85	0	7	96	48	5
NMSV_	85	0	7	96	48	4
EXSTR	85	96	7
NMSI_	85	96	7	96	48	1
NMSV_	85	96	7	96	48	2
EXSTR	85	192	7
NMSI_	85	192	7	96	48	5
NMSV_	85	192	7	96	48	4
EXTAP	85	288	7
NMTAP	86	0	1
NMHLD	86	0	3	48
NMTAP	86	48	1
NMTAP	86	96	0
NMHLD	86	96	4	48
NMTAP	86	144	0
NMHLD	86	192	3	48
NMTAP	86	192	7
NMTAP	86	240	7
NMHLD	86	288	4	48
NMTAP	86	288	6
NMTAP	86	336	6
NMHLD	87	0	3	48
NMTAP	87	0	5
NMTAP	87	48	5
NMTAP	87	96	2
NMHLD	87	96	4	48
NMTAP	87	144	2
NMHLD	87	192	3	48
NMTAP	87	192	6
NMTAP	87	240	6
NMTAP	87	288	1
NMHLD	87	288	4	48
NMTAP	87	336	1
NMHLD	88	0	2	48
NMTAP	88	0	7
NMTAP	88	48	7
NMTAP	88	96	0
NMHLD	88	96	5	48
NMTAP	88	144	0
NMTAP	88	192	1
NMTAP	88	192	6
NMTAP	88	240	4
NMTAP	88	264	3
NMTAP	88	288	4
NMTAP	88	336	2
NMTAP	88	336	5
NMTAP	89	0	1
NMTAP	89	0	6
NMTAP	89	48	0
NMTAP	89	72	7
NMTAP	89	96	0
NMTAP	89	144	5
NMTAP	89	168	4
NMTAP	89	192	6
NMTAP	89	240	2
NMTAP	89	264	3
NMTAP	89	288	1
NMTAP	89	336	7
NMTAP	89	360	0
BRSTR	90	0	7
NMSCL	90	0	7	96	192	1
BRSTR	91	0	0
NMSCR	91	0	0	96	192	6
BRSTR	92	0	6
NMSUL	92	0	6	96	96	2
BRSTR	92	192	1
NMSUR	92	192	1	96	96	5
BRSTR	93	0	6
NMSSL	93	0	6	96	96	2
EXSTR	93	192	0
NMSF_	93	192	0	96	48	4
NMTAP	94	0	2
NMTAP	94	0	6
NMTAP	94	48	5
NMTAP	94	72	4
NMTAP	94	96	5
NMTAP	94	144	2
NMTAP	94	168	3
NMTAP	94	192	2
NMTAP	94	240	5
NMTAP	94	264	4
NMTAP	94	288	6
NMTAP	94	336	2
NMTAP	94	360	3
NMTAP	95	0	1
NMTAP	95	48	5
NMTAP	95	72	4
NMTAP	95	96	7
NMTAP	95	144	2
NMTAP	95	168	3
NMTAP	95	192	0
NMTAP	95	240	4
NMTAP	95	264	3
NMTAP	95	288	4
NMTAP	95	336	1
NMTAP	95	336	6
NMTAP	96	0	2
NMTAP	96	0	5
NMTAP	96	48	2
NMTAP	96	48	5
NMTAP	96	96	3
NMTAP	96	96	4
NMTAP	96	144	3
NMTAP	96	144	4
NMTAP	96	192	2
NMTAP	96	192	5
NMTAP	96	240	2
NMTAP	96	240	5
NMTAP	96	288	1
NMTAP	96	288	6
NMTAP	96	336	1
NMTAP	96	336	6
BRTAP	97	0	0
NMTAP	97	24	7
NMTAP	97	48	0
NMTAP	97	72	7
NMTAP	97	96	0
BRTAP	97	144	1
NMTAP	97	168	3
NMTAP	97	192	2
NMTAP	97	216	3
NMTAP	97	240	1
BRTAP	97	288	6
NMTAP	97	312	4
NMTAP	97	336	5
NMTAP	97	360	4
NMTAP	98	0	6
BRTAP	98	48	7
NMTAP	98	72	0
NMTAP	98	96	7
NMTAP	98	120	0
NMTAP	98	144	7
BRTAP	98	192	3
NMTAP	98	216	4
NMTAP	98	240	2
NMTAP	98	264	5
NMTAP	98	288	1
NMTAP	98	312	6
NMTAP	98	336	0
NMTAP	98	360	7
BRSTR	99	0	0
NMSCR	99	0	0	96	144	7
BRTAP	99	288	0
EXTAP	99	312	1
EXTAP	99	312	7
EXTAP	99	336	2
EXTAP	99	336	6
EXTAP	99	360	3
EXTAP	99	360	5
BRTAP	100	0	4

T_REC_TAP	552
T_REC_BRK	23
T_REC_XTP	78
T_REC_BXX	0
T_REC_HLD	37
T_REC_XHO	12
T_REC_BHO	0
T_REC_BXH	0
T_REC_STR	49
T_REC_BST	14
T_REC_XST	23
T_REC_XBS	0
T_REC_TTP	55
T_REC_THO	0
T_REC_SLD	92
T_REC_BSL	0
T_REC_ALL	935
T_NUM_TAP	757
T_NUM_BRK	37
T_NUM_HLD	49
T_NUM_SLD	92
T_NUM_ALL	935
T_JUDGE_TAP	794
T_JUDGE_HLD	181
T_JUDGE_SLD	92
T_JUDGE_ALL	1067
TTM_EACHPAIRS	180
TTM_SCR_TAP	378500
TTM_SCR_BRK	96200
TTM_SCR_HLD	49000
TTM_SCR_SLD	138000
TTM_SCR_ALL	661700
TTM_SCR_S	638300
TTM_SCR_SS	658000
TTM_RAT_ACV	10056

