VERSION	0.00.00	1.04.00
FES_MODE	0
BPM_DEF	171.100	171.100	185.000	122.300
MET_DEF	4	4
RESOLUTION	384
CLK_DEF	384
COMPATIBLE_CODE	MA2

BPM	0	0	171.100
BPM	1	0	185.000
BPM	1	96	171.100
BPM	45	0	128.600
BPM	56	288	122.300
BPM	57	0	171.100
MET	0	0	4	4
MET	45	0	4	3
MET	57	0	4	4

BRTAP	2	0	2
BRTAP	2	0	5
BRTAP	2	96	3
BRTAP	2	96	4
BRTAP	2	192	1
BRTAP	2	192	6
NMTAP	3	0	2
NMTAP	3	48	2
NMTAP	3	96	3
NMTAP	3	192	5
NMTAP	3	240	5
NMTAP	3	288	4
BRTAP	4	0	3
BRTAP	4	0	6
BRTAP	4	96	4
BRTAP	4	96	5
BRTAP	4	192	2
BRTAP	4	192	7
NMTAP	5	0	5
NMTAP	5	48	5
NMTAP	5	96	4
NMTAP	5	192	3
NMTAP	5	192	4
NMTAP	5	288	2
NMTAP	5	288	3
BRTAP	6	0	1
BRTAP	6	0	4
BRTAP	6	96	2
BRTAP	6	96	3
BRTAP	6	192	0
BRTAP	6	192	5
NMTAP	6	288	5
NMTAP	6	336	5
BRTAP	7	0	4
BRTAP	7	0	6
BRTAP	7	96	3
BRTAP	7	96	4
BRTAP	7	192	1
BRTAP	7	192	3
NMSTR	7	288	0
NMSI_	7	288	0	96	48	4
NMHLD	8	0	7	384
NMTAP	9	0	0
NMTAP	9	48	0
NMTAP	9	96	6
NMTAP	9	144	6
NMTAP	9	192	4
NMTAP	9	240	4
NMTAP	9	288	5
NMTAP	9	336	5
NMTAP	10	0	3
NMTAP	10	48	3
NMTAP	10	96	4
BRTAP	10	192	2
BRTAP	10	192	5
NMSTR	11	0	0
NMSI_	11	0	0	96	48	4
NMSTR	11	0	1
NMSI_	11	0	1	96	48	4
NMSTR	11	192	6
NMSI_	11	192	6	96	48	3
NMSTR	11	192	7
NMSI_	11	192	7	96	48	3
NMTAP	12	0	0
NMTAP	12	0	1
NMTAP	12	96	2
NMTAP	12	96	3
NMTAP	12	192	4
NMTAP	12	192	5
NMTAP	12	288	0
NMTAP	12	288	5
NMSTR	13	0	6
NMSI_	13	0	6	96	48	3
NMSTR	13	0	7
NMSI_	13	0	7	96	48	3
NMSTR	13	192	0
NMSI_	13	192	0	96	48	4
NMSTR	13	192	1
NMSI_	13	192	1	96	48	4
NMTAP	14	0	6
NMTAP	14	0	7
NMTAP	14	96	4
NMTAP	14	96	5
NMTAP	14	192	2
NMTAP	14	192	3
NMTAP	14	288	1
NMTAP	14	288	4
NMHLD	15	0	2	96
NMTAP	15	0	3
NMHLD	15	96	4	96
NMHLD	15	192	6	96
NMTAP	15	288	7
NMTAP	16	0	4
NMHLD	16	0	5	96
NMHLD	16	96	3	96
NMHLD	16	192	1	96
NMTAP	16	288	0
NMTAP	17	0	2
NMTAP	17	0	7
NMTAP	17	96	3
NMTAP	17	96	4
EXHLD	17	192	5	72
EXHLD	17	264	6	72
EXTAP	17	336	7
EXSTR	18	0	7
NMSI_	18	0	7	96	48	3
BRTAP	18	192	1
BRTAP	18	192	5
NMSTR	19	0	6
NMSI_	19	0	6	96	48	4
NMSTR	19	0	7
NMSI_	19	0	7	96	48	3
NMSTR	19	192	0
NMSI_	19	192	0	96	48	4
NMSTR	19	192	1
NMSI_	19	192	1	96	48	3
NMTAP	20	0	6
NMTAP	20	0	7
NMTAP	20	96	4
NMTAP	20	96	5
NMTAP	20	192	2
NMTAP	20	192	3
NMTAP	20	288	2
NMTAP	20	288	7
NMSTR	21	0	0
NMSI_	21	0	0	96	48	4
NMSTR	21	0	1
NMSI_	21	0	1	96	48	3
NMSTR	21	192	6
NMSI_	21	192	6	96	48	4
NMSTR	21	192	7
NMSI_	21	192	7	96	48	3
NMTAP	22	0	0
NMTAP	22	0	1
NMTAP	22	96	2
NMTAP	22	96	3
NMTAP	22	192	4
NMTAP	22	192	5
NMTAP	22	288	3
NMTAP	22	288	6
NMHLD	23	0	7	96
NMHLD	23	96	1	96
NMTAP	23	192	3
NMTAP	23	288	2
NMTAP	23	288	3
NMTAP	24	0	4
NMTAP	24	0	5
NMTAP	24	96	6
NMTAP	24	96	7
NMSTR	24	192	1
NMSI_	24	192	1	96	48	4
NMSTR	24	192	5
NMSI_	24	192	5	96	48	0
EXTAP	25	0	3
EXTAP	25	0	7
EXTAP	25	96	3
EXTAP	25	96	7
EXHLD	25	192	6	72
EXHLD	25	264	5	72
EXTAP	25	336	4
BRSTR	26	0	4
NMSI_	26	0	4	96	144	1
NMSI_	26	0	4	96	144	7
BRTAP	27	0	2
BRTAP	27	0	6
BRTAP	28	288	0
NMTAP	29	0	1
NMTAP	29	48	1
NMTAP	29	96	3
NMTAP	29	144	3
NMTAP	29	192	0
NMTAP	29	240	0
NMTAP	29	288	7
NMTAP	29	336	7
NMTAP	30	0	4
NMTAP	30	48	4
NMTAP	30	96	6
NMTAP	30	144	6
NMTAP	30	192	1
NMTAP	30	240	1
NMTAP	30	288	3
NMTAP	30	336	3
NMTAP	31	0	2
NMTAP	31	48	2
NMTAP	31	96	7
NMTAP	31	144	7
NMTAP	31	192	0
NMTAP	31	240	1
NMTAP	31	288	4
NMTAP	31	336	5
NMTAP	32	0	2
NMTAP	32	0	6
NMTAP	32	48	2
NMTAP	32	48	6
NMTAP	32	96	2
NMTAP	32	96	6
EXTAP	32	192	3
EXTAP	32	216	4
EXTAP	32	288	3
EXTAP	32	312	4
NMTAP	33	0	1
NMTAP	33	48	1
NMTAP	33	96	3
NMTAP	33	144	3
NMTAP	33	192	0
NMTAP	33	240	0
NMTAP	33	288	6
NMTAP	33	336	6
NMTAP	34	0	4
NMTAP	34	48	4
NMTAP	34	96	6
NMTAP	34	144	6
NMTAP	34	192	0
NMTAP	34	240	1
NMTAP	34	288	4
NMTAP	34	336	5
NMTAP	35	0	2
NMTAP	35	48	2
NMTAP	35	96	4
NMTAP	35	144	4
NMTAP	35	192	6
NMTAP	35	240	6
NMTAP	35	288	0
NMTAP	35	336	0
NMTAP	36	0	7
NMTAP	36	48	6
NMTAP	36	96	3
NMTAP	36	144	2
BRTAP	36	192	0
NMSTR	37	0	6
NMSI_	37	0	6	96	48	3
NMTAP	37	96	0
NMSTR	37	192	1
NMSI_	37	192	1	96	48	4
NMTAP	37	288	7
NMTAP	38	0	6
NMTAP	38	48	6
NMTAP	38	96	4
NMTAP	38	144	4
NMTAP	38	192	3
NMTAP	38	192	5
NMTAP	38	288	2
NMTAP	38	288	4
NMSTR	39	0	1
NMSI_	39	0	1	96	48	4
NMTAP	39	96	7
NMSTR	39	192	6
NMSI_	39	192	6	96	48	3
NMTAP	39	288	0
NMTAP	40	0	1
NMTAP	40	48	1
NMTAP	40	96	3
NMTAP	40	144	3
BRTAP	40	192	2
BRTAP	40	192	4
NMTAP	41	0	5
NMTAP	41	48	5
NMTAP	41	96	4
NMTAP	41	96	6
NMTAP	41	192	2
NMTAP	41	240	2
NMTAP	41	288	1
NMTAP	41	288	3
NMTAP	42	0	6
NMTAP	42	48	6
NMTAP	42	96	5
NMTAP	42	96	7
NMTAP	42	192	1
NMTAP	42	240	1
NMTAP	42	288	0
NMSTR	42	288	2
NMSCL	42	288	2	96	576	3
NMHLD	45	0	4	288
NMTAP	45	240	3
NMHLD	45	288	3	288
NMTAP	46	144	5
NMHLD	46	192	5	288
NMTAP	47	48	4
NMTAP	47	96	4
NMTAP	47	240	3
NMTAP	47	240	4
NMHLD	48	0	2	288
NMTAP	48	240	3
NMHLD	48	288	3	288
NMTAP	49	144	1
NMHLD	49	192	1	288
NMTHO	50	96	0	144	C	0	M1
NMHLD	51	0	1	240
NMTAP	51	240	4
NMHLD	51	288	4	240
NMTAP	52	144	3
NMTAP	52	192	3
NMTTP	52	288	6	E	0	M1
NMTTP	52	336	5	E	0	M1
NMTTP	53	96	0	C	0	M1
NMTTP	53	192	2	E	0	M1
NMTTP	53	240	3	E	0	M1
NMHLD	54	0	5	240
NMTAP	54	240	3
NMHLD	54	288	3	240
NMTAP	55	144	4
NMTAP	55	192	4
NMTTP	55	288	2	E	0	M1
NMTTP	55	336	3	E	0	M1
NMTTP	56	48	6	E	0	M1
NMTTP	56	96	5	E	0	M1
NMTTP	57	0	0	C	1	M1
NMTTP	57	0	1	B	0	M1
NMTTP	57	0	6	B	0	M1
BRTAP	57	192	0
BRTAP	57	192	7
NMSTR	58	0	2
NMSI_	58	0	2	96	48	7
NMSTR	58	0	3
NMSI_	58	0	3	96	48	7
NMSTR	58	192	4
NMSI_	58	192	4	96	48	0
NMSTR	58	192	5
NMSI_	58	192	5	96	48	0
NMTAP	59	0	1
NMTAP	59	0	7
NMTAP	59	96	2
NMTAP	59	96	3
NMTAP	59	192	4
NMTAP	59	192	5
NMTAP	59	288	3
NMTAP	59	288	6
NMSTR	60	0	4
NMSI_	60	0	4	96	48	0
NMSTR	60	0	5
NMSI_	60	0	5	96	48	0
NMSTR	60	192	2
NMSI_	60	192	2	96	48	7
NMSTR	60	192	3
NMSI_	60	192	3	96	48	7
NMTAP	61	0	0
NMTAP	61	0	6
NMTAP	61	96	4
NMTAP	61	96	5
NMTAP	61	192	2
NMTAP	61	192	3
NMTAP	61	288	1
NMTAP	61	288	4
NMSTR	62	0	6
NMSI_	62	0	6	96	48	2
NMSTR	62	96	3
NMSI_	62	96	3	96	48	0
NMTAP	62	192	4
NMTAP	62	288	6
NMTAP	62	288	7
NMSTR	63	0	5
NMSI_	63	0	5	96	48	1
NMSTR	63	96	0
NMSI_	63	96	0	96	48	3
NMTAP	63	192	7
NMTAP	63	288	5
NMTAP	63	336	5
NMTAP	64	0	4
NMTAP	64	0	6
NMTAP	64	96	3
NMTAP	64	96	7
EXHLD	64	192	2	72
EXHLD	64	264	1	72
EXTAP	64	336	0
EXSTR	65	0	0
NMSI_	65	0	0	96	48	3
NMSI_	65	0	0	96	48	5
BRTAP	65	192	2
BRTAP	65	192	6
NMSTR	66	0	4
NMSI_	66	0	4	96	48	0
NMSTR	66	0	5
NMSI_	66	0	5	96	48	7
NMSTR	66	192	2
NMSI_	66	192	2	96	48	0
NMSTR	66	192	3
NMSI_	66	192	3	96	48	7
NMTAP	67	0	4
NMTAP	67	0	6
NMTAP	67	96	1
NMTAP	67	96	3
NMTAP	67	192	0
NMTAP	67	192	7
NMTAP	67	288	4
NMTAP	67	288	5
BRSTR	68	0	2
NMSI_	68	0	2	96	48	0
BRSTR	68	0	3
NMSI_	68	0	3	96	48	7
NMSTR	68	192	4
NMSI_	68	192	4	96	48	0
NMSTR	68	192	5
NMSI_	68	192	5	96	48	7
NMTAP	69	0	1
NMTAP	69	0	3
NMTAP	69	96	3
NMTAP	69	96	4
NMTAP	69	192	6
NMTAP	69	192	7
NMTAP	69	288	0
NMTAP	69	288	5
BRSTR	70	0	1
NMSI_	70	0	1	96	48	5
BRSTR	70	96	0
NMSI_	70	96	0	96	48	4
EXTAP	70	192	2
EXTAP	70	288	3
EXTAP	70	288	5
BRSTR	71	0	6
NMSI_	71	0	6	96	48	2
BRSTR	71	96	7
NMSI_	71	96	7	96	48	3
EXTAP	71	192	5
EXTAP	71	288	2
EXTAP	71	288	4
BRTAP	72	0	0
BRTAP	72	0	1
NMTAP	72	96	2
NMTAP	72	96	7
EXHLD	72	192	6	72
EXHLD	72	264	5	72
EXTAP	72	336	4
BRSTR	73	0	4
NMSF_	73	0	4	96	144	0
EXTAP	74	0	1
EXTAP	74	0	7
NMTAP	74	96	2
NMTAP	74	144	2
NMTAP	74	192	4
NMTAP	74	240	4
NMTAP	74	288	3
NMTAP	74	288	5
EXTAP	75	0	2
EXHLD	75	0	6	288
BRTAP	75	288	7
EXTAP	76	0	0
EXTAP	76	0	6
NMTAP	76	96	5
NMTAP	76	144	5
NMTAP	76	192	3
NMTAP	76	192	5
NMTAP	76	288	2
NMSTR	76	288	4
NMSUL	76	288	4	96	192	3
EXTAP	77	288	2
EXTAP	77	288	5
NMHLD	78	0	1	72
NMHLD	78	72	2	72
NMTAP	78	144	3
NMHLD	78	192	6	72
NMHLD	78	264	5	72
NMTAP	78	336	4
NMTAP	79	0	2
NMTAP	79	0	3
NMTAP	79	96	0
NMTAP	79	96	5
NMTAP	79	192	4
NMTAP	79	192	5
NMTAP	79	288	2
NMTAP	79	288	7
NMHLD	80	0	6	72
NMHLD	80	72	5	72
NMHLD	80	144	4	72
NMHLD	80	216	3	72
NMTAP	80	288	2
NMSTR	81	0	1
NMSI_	81	0	1	96	48	5
NMTAP	81	0	4
BRTAP	81	192	0
BRTAP	81	192	6
BRSTR	82	0	1
NMSI_	82	0	1	96	48	5
BRSTR	82	96	0
NMSI_	82	96	0	96	48	4
BRSTR	82	192	1
NMSI_	82	192	1	96	48	5
BRSTR	82	288	0
NMSI_	82	288	0	96	48	4
BRSTR	83	0	1
NMSI_	83	0	1	96	48	5
BRSTR	83	96	0
NMSI_	83	96	0	96	48	4
BRTAP	83	192	1
BRTAP	83	288	3
BRTAP	83	288	5
BRSTR	84	0	6
NMSI_	84	0	6	96	48	2
BRSTR	84	96	7
NMSI_	84	96	7	96	48	3
BRSTR	84	192	6
NMSI_	84	192	6	96	48	2
BRSTR	84	288	7
NMSI_	84	288	7	96	48	3
BRSTR	85	0	6
NMSI_	85	0	6	96	48	2
BRSTR	85	96	7
NMSI_	85	96	7	96	48	3
BRTAP	85	192	6
BRTAP	85	288	2
BRTAP	85	288	4
BRSTR	86	0	1
NMSI_	86	0	1	96	48	5
BRSTR	86	96	4
NMSI_	86	96	4	96	48	0
BRTAP	86	192	2
BRTAP	86	288	3
BRTAP	86	288	7
BRSTR	87	0	6
NMSI_	87	0	6	96	48	2
BRSTR	87	96	3
NMSI_	87	96	3	96	48	7
BRTAP	87	192	5
BRTAP	87	288	0
BRTAP	87	288	4
BRSTR	88	0	1
NMSI_	88	0	1	96	48	4
BRSTR	88	96	5
NMSI_	88	96	5	96	48	0
BRSTR	88	192	2
NMSI_	88	192	2	96	48	7
BRSTR	88	288	4
NMSCR	88	288	4	96	288	3
BRTAP	89	0	3
EXTAP	90	0	2
EXHLD	90	0	5	576
NMTTP	91	0	5	B	0	M1
NMTTP	91	0	5	E	0	M1
NMTTP	91	192	2	B	0	M1
NMTTP	91	192	3	E	0	M1
EXTAP	92	0	1
EXTAP	92	0	6
NMTTP	92	192	2	B	0	M1
NMTTP	92	192	2	E	0	M1
NMTTP	92	192	3	B	0	M1
NMTTP	93	0	4	B	0	M1
NMTTP	93	0	5	B	0	M1
NMTTP	93	0	6	E	0	M1
NMTTP	93	192	0	C	0	M1
NMTTP	93	192	1	B	0	M1
NMTTP	93	192	6	B	0	M1
NMTAP	94	0	0
NMTAP	94	0	7
NMTAP	94	96	1
NMTAP	94	96	6
NMTAP	94	192	2
NMTAP	94	192	3
NMTAP	94	288	4
NMTAP	94	288	5
NMTAP	95	0	3
NMTAP	95	0	4
NMTAP	95	96	2
NMTAP	95	96	5
NMTAP	95	192	0
NMTAP	95	192	1
NMTAP	95	288	6
NMTAP	95	288	7
NMTAP	96	0	4
NMTAP	96	0	5
NMTAP	96	48	4
NMTAP	96	48	5
NMTAP	96	96	3
NMTAP	96	96	6
NMTAP	96	192	2
NMTAP	96	192	3
NMTAP	96	240	2
NMTAP	96	240	3
EXTAP	96	288	1
EXTAP	96	288	4
NMHLD	97	0	5	72
NMHLD	97	72	6	72
NMHLD	97	144	7	72
NMHLD	97	216	0	72
NMHLD	97	288	1	72
NMHLD	97	360	2	72
NMHLD	98	48	3	72
EXTAP	98	120	4
EXTAP	98	192	2
EXTAP	98	192	5
EXTAP	98	264	1
EXTAP	98	264	6
EXTAP	98	336	7
EXHLD	99	0	7	192
NMSTR	99	288	0
NMSI_	99	288	0	96	48	4
NMSTR	99	288	6
NMSI_	99	288	6	96	48	2
NMTTP	100	12	0	C	1	M1

T_REC_TAP	269
T_REC_BRK	56
T_REC_XTP	36
T_REC_BXX	0
T_REC_HLD	34
T_REC_XHO	11
T_REC_BHO	0
T_REC_BXH	0
T_REC_STR	46
T_REC_BST	28
T_REC_XST	2
T_REC_XBS	0
T_REC_TTP	26
T_REC_THO	1
T_REC_SLD	78
T_REC_BSL	0
T_REC_ALL	587
T_NUM_TAP	379
T_NUM_BRK	84
T_NUM_HLD	46
T_NUM_SLD	78
T_NUM_ALL	587
T_JUDGE_TAP	463
T_JUDGE_HLD	151
T_JUDGE_SLD	78
T_JUDGE_ALL	692
TTM_EACHPAIRS	131
TTM_SCR_TAP	189500
TTM_SCR_BRK	218400
TTM_SCR_HLD	46000
TTM_SCR_SLD	117000
TTM_SCR_ALL	570900
TTM_SCR_S	545650
TTM_SCR_SS	562500
TTM_RAT_ACV	10149

