VERSION	0.00.00	1.04.00
FES_MODE	0
BPM_DEF	171.100	171.100	185.000	122.300
MET_DEF	4	4
RESOLUTION	384
CLK_DEF	384
COMPATIBLE_CODE	MA2

BPM	0	0	171.100
BPM	1	0	185.000
BPM	1	96	171.100
BPM	45	0	128.600
BPM	56	288	122.300
BPM	57	0	171.100
MET	0	0	4	4
MET	45	0	4	3
MET	57	0	4	4

NMTAP	2	0	2
NMTAP	2	96	2
NMTAP	2	192	2
NMTAP	2	192	3
NMTAP	3	0	5
NMTAP	3	96	5
NMTAP	3	192	4
NMTAP	3	192	5
NMTAP	4	0	2
NMTAP	4	96	2
NMTAP	4	192	2
NMTAP	4	192	3
NMTAP	5	0	4
NMTAP	5	96	4
NMTAP	5	192	3
NMTAP	5	192	5
NMTAP	6	0	6
NMTAP	6	96	6
NMTAP	6	192	6
NMTAP	6	192	7
NMTAP	7	0	1
NMTAP	7	96	1
NMTAP	7	192	0
NMTAP	7	192	1
NMSTR	8	0	0
NMSI_	8	0	0	96	144	3
NMSTR	8	0	7
NMSI_	8	0	7	96	144	4
NMTAP	9	0	5
NMTAP	9	96	4
NMTAP	9	192	3
NMTAP	9	288	2
NMTAP	10	0	3
NMTAP	10	0	4
NMTAP	10	96	3
NMTAP	10	96	4
EXTAP	10	192	2
EXTAP	10	192	5
NMTAP	11	0	6
NMTAP	11	96	6
NMTAP	11	192	7
NMTAP	11	288	7
NMTAP	12	0	0
NMTAP	12	96	0
NMTAP	12	192	1
NMTAP	12	192	7
NMTAP	13	0	2
NMTAP	13	96	2
NMTAP	13	192	3
NMTAP	13	288	3
NMTAP	14	0	4
NMTAP	14	96	4
NMTAP	14	192	3
NMTAP	14	192	5
NMHLD	15	0	6	96
NMTAP	15	96	7
NMTAP	15	192	6
NMTAP	15	192	7
NMHLD	16	0	1	96
NMTAP	16	96	0
NMTAP	16	192	0
NMTAP	16	192	1
NMTAP	17	0	7
NMTAP	17	96	7
NMTAP	17	192	0
NMTAP	17	288	0
NMTAP	18	0	7
NMTAP	18	96	0
BRTAP	18	192	1
BRTAP	18	192	6
NMTAP	19	0	5
NMTAP	19	96	5
NMTAP	19	192	4
NMTAP	19	288	4
NMTAP	20	0	3
NMTAP	20	96	3
NMTAP	20	192	2
NMTAP	20	192	4
NMTAP	21	0	1
NMTAP	21	96	1
NMTAP	21	192	0
NMTAP	21	288	0
NMTAP	22	0	7
NMTAP	22	96	7
NMTAP	22	192	0
NMTAP	22	192	6
NMHLD	23	0	5	96
NMTAP	23	96	4
NMTAP	23	192	4
NMTAP	23	192	5
NMTAP	24	0	2
NMTAP	24	96	2
NMTAP	24	192	3
NMTAP	24	288	4
NMHLD	25	0	5	192
NMTAP	25	192	4
NMTAP	25	288	4
NMTAP	26	0	3
NMTAP	26	96	3
NMTAP	26	192	3
NMTAP	26	192	4
EXSTR	27	0	3
NMSCL	27	0	3	96	144	0
EXSTR	27	0	4
NMSCR	27	0	4	96	144	7
EXTAP	28	0	0
EXTAP	28	0	7
EXTAP	28	96	0
EXTAP	28	96	7
EXTAP	28	192	1
EXTAP	28	192	6
NMTTP	29	0	6	E	0	L1
NMTTP	29	96	5	B	0	L1
NMTTP	29	192	4	B	0	L1
NMTTP	30	0	2	E	0	L1
NMTTP	30	96	2	B	0	L1
NMTTP	30	192	3	B	0	L1
NMTTP	31	0	6	B	0	L1
NMTTP	31	96	5	B	0	L1
NMTTP	31	192	5	E	0	L1
NMTTP	32	0	1	B	0	L1
NMTTP	32	96	2	B	0	L1
NMTTP	32	192	3	E	0	L1
NMTTP	33	0	6	E	0	L1
NMTTP	33	96	6	B	0	L1
NMTTP	33	192	7	B	0	L1
NMTTP	34	0	2	E	0	L1
NMTTP	34	96	1	B	0	L1
NMTTP	34	192	0	B	0	L1
NMTTP	35	0	5	B	0	L1
NMTTP	35	96	4	B	0	L1
NMTTP	35	192	3	B	0	L1
NMTTP	35	288	2	B	0	L1
NMTTP	36	0	0	C	1	L1
EXSTR	37	0	7
NMSI_	37	0	7	96	144	3
NMTAP	38	0	2
NMTAP	38	96	2
NMTAP	38	192	2
NMTAP	38	192	3
NMSTR	39	0	1
NMSI_	39	0	1	96	144	4
NMTAP	40	0	5
NMTAP	40	96	5
NMTAP	40	192	4
NMTAP	40	192	5
NMTAP	41	0	6
NMTAP	41	96	7
NMTAP	41	192	0
NMTAP	41	288	1
NMTAP	42	0	2
NMTAP	42	96	3
NMTAP	42	192	4
NMTAP	42	288	5
BRSTR	43	0	3
NMSXR	43	0	3	96	432	0
BRSTR	43	0	4
NMSXL	43	0	4	96	432	7
NMHLD	45	0	1	288
NMHLD	45	288	0	288
NMHLD	46	192	7	288
NMTAP	47	96	6
NMHLD	48	0	5	288
NMHLD	48	288	4	288
NMHLD	49	192	3	288
NMTAP	50	96	2
NMSTR	51	0	1
NMSCR	51	0	1	96	288	5
NMSTR	52	192	6
NMSCL	52	192	6	96	288	2
NMSTR	54	0	1
NMSSL	54	0	1	96	288	5
NMTAP	55	192	6
EXTAP	56	96	0
EXTAP	56	96	7
NMTAP	57	0	0
NMTAP	57	0	7
NMTAP	57	96	1
NMTAP	57	96	6
NMTAP	57	192	2
NMTAP	57	192	5
BRTAP	58	0	6
NMTAP	58	96	6
NMTAP	58	192	6
NMTAP	58	192	7
NMTAP	58	288	6
NMTAP	58	288	7
NMTAP	59	0	1
NMTAP	59	96	1
NMTAP	59	192	0
NMTAP	59	192	1
NMTAP	59	288	0
NMTAP	59	288	1
NMTAP	60	0	2
NMTAP	60	96	2
NMTAP	60	192	2
NMTAP	60	192	3
NMTAP	60	288	2
NMTAP	60	288	3
NMTAP	61	0	4
NMTAP	61	96	4
NMTAP	61	192	3
NMTAP	61	192	5
NMHLD	62	0	6	96
NMTAP	62	96	7
NMTAP	62	192	6
NMTAP	62	192	7
NMHLD	63	0	1	96
NMTAP	63	96	0
NMTAP	63	192	0
NMTAP	63	192	1
NMTAP	64	0	7
NMTAP	64	96	7
NMTAP	64	192	0
NMTAP	64	288	0
NMTAP	65	0	0
NMTAP	65	0	7
NMTAP	65	96	0
NMTAP	65	96	7
BRTAP	65	192	1
BRTAP	65	192	6
NMTAP	66	0	5
NMTAP	66	96	5
NMTAP	66	192	4
NMTAP	66	192	5
NMTAP	66	288	4
NMTAP	66	288	5
NMTAP	67	0	2
NMTAP	67	96	2
NMTAP	67	192	2
NMTAP	67	192	3
NMTAP	67	288	2
NMTAP	67	288	3
NMTAP	68	0	1
NMTAP	68	96	1
NMTAP	68	192	0
NMTAP	68	192	1
NMTAP	68	288	0
NMTAP	68	288	1
NMTAP	69	0	7
NMTAP	69	96	7
NMTAP	69	192	0
NMTAP	69	192	6
NMHLD	70	0	5	96
NMTAP	70	96	4
NMTAP	70	192	4
NMTAP	70	192	5
NMTAP	71	0	2
NMTAP	71	96	2
NMTAP	71	192	3
NMTAP	71	288	4
NMHLD	72	0	5	192
NMTAP	72	192	4
NMSTR	72	288	5
NMSCR	72	288	5	96	240	2
NMTAP	74	0	1
NMTAP	74	96	1
NMTAP	74	192	0
NMTAP	74	192	1
NMSTR	75	0	2
NMSI_	75	0	2	96	144	7
NMTAP	76	0	6
NMTAP	76	96	6
NMTAP	76	192	6
NMTAP	76	192	7
NMSTR	77	0	5
NMSI_	77	0	5	96	144	0
NMTAP	78	0	1
NMTAP	78	96	1
NMTAP	78	192	0
NMTAP	78	288	0
NMTAP	79	0	7
NMTAP	79	96	7
NMTAP	79	192	0
NMTAP	79	192	6
NMTAP	80	0	5
NMTAP	80	96	5
NMTAP	80	192	4
NMTAP	80	288	4
NMTAP	81	0	3
NMTAP	81	96	3
NMTAP	81	192	2
NMTAP	81	192	4
BRTAP	82	0	1
NMTAP	82	96	1
NMTAP	82	192	0
NMTAP	82	192	1
NMTAP	82	288	0
NMTAP	82	288	1
NMTAP	83	0	6
NMTAP	83	96	6
NMTAP	83	192	6
NMTAP	83	192	7
NMTAP	83	288	6
NMTAP	83	288	7
NMTAP	84	0	5
NMTAP	84	96	5
NMTAP	84	192	4
NMTAP	84	192	5
NMTAP	84	288	4
NMTAP	84	288	5
NMTAP	85	0	3
NMTAP	85	96	3
NMTAP	85	192	2
NMTAP	85	192	4
NMSTR	86	0	0
NMSCL	86	0	0	96	144	5
NMSTR	86	0	1
NMSCR	86	0	1	96	144	4
NMSTR	87	0	6
NMSCL	87	0	6	96	144	3
NMSTR	87	0	7
NMSCR	87	0	7	96	144	2
NMTAP	88	0	1
NMTAP	88	96	0
NMTAP	88	192	7
NMTAP	88	288	6
NMSTR	89	0	0
NMSI_	89	0	0	96	144	3
NMSTR	89	0	7
NMSI_	89	0	7	96	144	4
EXTAP	90	0	2
EXTAP	90	0	5
EXTAP	91	0	1
EXTAP	91	0	6
EXTAP	92	0	0
EXTAP	92	0	7
EXTAP	92	192	0
EXTAP	92	192	7
EXHLD	93	0	1	192
EXHLD	93	0	6	192
NMTAP	94	0	7
NMTAP	94	96	7
NMTAP	94	192	0
NMTAP	94	288	0
NMTAP	95	0	1
NMTAP	95	96	1
NMTAP	95	192	2
NMTAP	95	288	2
NMTAP	96	0	3
NMTAP	96	96	4
NMTAP	96	192	5
NMTAP	96	288	6
NMTAP	97	0	7
NMTAP	97	48	7
NMTAP	97	96	7
NMTAP	97	192	0
NMTAP	97	240	0
NMTAP	97	288	0
NMTAP	98	0	1
NMTAP	98	48	1
NMTAP	98	96	1
NMTAP	98	192	2
NMTAP	98	240	2
NMTAP	98	288	2
NMHLD	99	0	3	192
NMHLD	99	0	4	192
NMTAP	99	288	2
NMTAP	99	288	5
BRTAP	100	0	2
BRTAP	100	0	5

T_REC_TAP	254
T_REC_BRK	8
T_REC_XTP	18
T_REC_BXX	0
T_REC_HLD	16
T_REC_XHO	2
T_REC_BHO	0
T_REC_BXH	0
T_REC_STR	15
T_REC_BST	2
T_REC_XST	3
T_REC_XBS	0
T_REC_TTP	23
T_REC_THO	0
T_REC_SLD	20
T_REC_BSL	0
T_REC_ALL	361
T_NUM_TAP	313
T_NUM_BRK	10
T_NUM_HLD	18
T_NUM_SLD	20
T_NUM_ALL	361
T_JUDGE_TAP	323
T_JUDGE_HLD	72
T_JUDGE_SLD	20
T_JUDGE_ALL	415
TTM_EACHPAIRS	72
TTM_SCR_TAP	156500
TTM_SCR_BRK	26000
TTM_SCR_HLD	18000
TTM_SCR_SLD	30000
TTM_SCR_ALL	230500
TTM_SCR_S	222650
TTM_SCR_SS	229500
TTM_RAT_ACV	10043

