VERSION	0.00.00	1.03.00
FES_MODE	0
BPM_DEF	210.000	210.000	210.000	210.000
MET_DEF	4	4
RESOLUTION	384
CLK_DEF	384
COMPATIBLE_CODE	MA2

BPM	0	0	210.000
MET	0	0	4	4

BRK	8	0	2
BST	8	0	7
SCL	8	0	7	96	192	3
TAP	8	96	2
TAP	8	192	2
TAP	8	288	2
TAP	9	0	1
TAP	9	0	3
TAP	9	96	1
TAP	9	96	4
TAP	9	192	1
TAP	9	192	5
TAP	9	288	1
TAP	9	288	6
TAP	10	0	0
TAP	10	0	7
TAP	10	96	0
TAP	10	144	5
TAP	10	192	0
TAP	10	240	4
TAP	10	288	0
TAP	10	336	3
TAP	11	0	1
STR	11	0	2
SXL	11	0	2	96	96	4
TAP	11	96	0
TAP	11	144	0
TAP	11	240	7
TAP	11	288	7
STR	12	0	0
SCR	12	0	0	96	192	4
TAP	12	0	5
TAP	12	96	5
TAP	12	192	5
TAP	12	288	5
STR	13	0	4
SXR	13	0	4	96	192	0
TAP	13	0	7
TAP	13	96	6
TAP	13	144	6
TAP	13	240	5
TAP	13	288	5
STR	14	0	0
SI_	14	0	0	96	48	2
TAP	14	96	7
STR	14	192	6
SI_	14	192	6	96	48	4
TAP	14	288	7
STR	15	0	1
SI_	15	0	1	96	48	3
TAP	15	96	0
STR	15	192	7
SI_	15	192	7	96	48	5
TAP	15	288	0
HLD	16	0	1	96
XTP	16	96	7
XTP	16	120	6
XTP	16	144	5
HLD	16	192	1	96
XTP	16	288	3
XTP	16	312	4
XTP	16	336	5
TAP	17	0	1
TAP	17	32	3
TAP	17	64	2
TAP	17	96	6
TAP	17	128	4
TAP	17	160	5
TAP	17	192	0
TAP	17	224	1
TAP	17	256	2
TAP	17	288	3
TAP	17	320	4
TAP	17	352	5
TTP	18	0	0	C	0	M1
TTP	18	96	2	B	0	M1
TTP	18	96	7	B	0	M1
TTP	18	192	0	B	0	M1
TTP	18	192	5	B	0	M1
TTP	18	288	1	B	0	M1
TTP	18	288	6	B	0	M1
HLD	19	0	2	96
HLD	19	96	4	96
TAP	19	192	2
TAP	19	288	3
TAP	19	288	5
TTP	20	0	0	C	0	M1
TTP	20	96	0	B	0	M1
TTP	20	96	5	B	0	M1
TTP	20	192	2	B	0	M1
TTP	20	192	7	B	0	M1
TTP	20	288	1	B	0	M1
TTP	20	288	6	B	0	M1
TAP	21	0	4
TAP	21	96	3
STR	21	96	5
SLL	21	96	5	96	144	7
STR	21	192	0
SI_	21	192	0	96	48	2
STR	22	0	4
SSL	22	0	4	96	192	0
HLD	22	0	6	192
TAP	22	288	5
HLD	23	0	4	192
STR	23	0	7
SSR	23	0	7	96	192	3
STR	23	288	7
SCR	23	288	7	96	96	2
STR	24	0	2
SCR	24	0	2	96	96	5
STR	24	96	5
SCR	24	96	5	96	96	0
STR	24	192	0
SCR	24	192	0	96	192	6
HLD	24	288	3	192
STR	25	192	4
SI_	25	192	4	96	48	0
TAP	26	0	1
STR	26	0	7
SXR	26	0	7	96	192	3
TAP	26	96	2
TAP	26	144	2
TAP	26	240	0
HLD	26	288	0	240
TAP	27	0	3
STR	27	96	6
SLL	27	96	6	96	96	1
SLL	27	96	6	96	96	7
TAP	27	144	6
STR	28	0	0
SXL	28	0	0	96	192	4
TAP	28	0	6
TAP	28	96	5
TAP	28	144	5
TAP	28	240	7
HLD	28	288	7	240
TAP	29	0	4
STR	29	96	1
SLR	29	96	1	96	96	0
SLR	29	96	1	96	96	6
TAP	29	144	1
HLD	30	0	4	576
TAP	30	0	7
TTP	30	96	0	C	0	M1
TAP	30	192	6
TTP	30	288	0	C	0	M1
TAP	31	0	5
TTP	31	96	0	C	0	M1
TAP	31	192	3
TTP	31	288	2	E	0	M1
TTP	31	288	6	E	0	M1
TAP	32	0	1
TAP	32	48	1
TAP	32	96	4
TAP	32	144	4
TAP	32	192	3
TAP	32	240	3
TAP	32	288	6
TAP	32	336	6
TTP	33	0	3	E	0	M1
TTP	33	24	2	B	0	M1
TTP	33	48	1	B	0	M1
TTP	33	72	1	E	0	M1
TTP	33	96	5	E	0	M1
TTP	33	120	5	B	0	M1
TTP	33	144	6	B	0	M1
TTP	33	168	7	E	0	M1
TTP	33	192	3	E	0	M1
TTP	33	216	3	B	0	M1
TTP	33	240	4	B	0	M1
TTP	33	264	5	E	0	M1
TTP	33	288	1	E	0	M1
TTP	33	312	0	B	0	M1
TTP	33	336	7	B	0	M1
TTP	33	360	7	E	0	M1
TAP	34	0	2
TAP	34	96	2
TAP	34	144	3
TAP	34	192	1
TAP	34	240	3
TAP	34	288	0
TAP	34	336	3
TAP	35	0	3
STR	35	0	7
SI_	35	0	7	96	48	2
STR	35	96	6
SCL	35	96	6	96	96	1
HLD	35	192	4	96
STR	36	0	0
SCR	36	0	0	96	96	4
TAP	36	0	7
TAP	36	96	6
TAP	36	192	5
TAP	36	288	6
TAP	36	288	7
TAP	37	0	0
TAP	37	0	5
TAP	37	96	1
TAP	37	144	2
TAP	37	144	3
TAP	37	192	4
TAP	37	240	5
TAP	37	288	3
TAP	37	288	6
TAP	38	0	7
TAP	38	48	6
TAP	38	96	5
TAP	38	144	4
TAP	38	192	2
HLD	38	192	3	192
STR	38	288	5
SCR	38	288	5	96	192	2
TAP	39	96	4
TAP	39	192	5
TAP	39	288	6
TAP	40	0	0
TAP	40	0	6
TAP	40	48	7
TAP	40	96	1
TAP	40	144	2
HLD	40	192	3	192
TAP	40	192	5
TAP	40	288	1
TTP	41	0	7	E	0	M1
TTP	41	24	6	B	0	M1
TTP	41	48	5	B	0	M1
TTP	41	72	5	E	0	M1
TTP	41	96	3	E	0	M1
TTP	41	120	2	B	0	M1
TTP	41	144	1	B	0	M1
TTP	41	168	1	E	0	M1
XTP	41	192	7
TAP	41	288	2
TAP	41	288	5
HLD	42	0	3	96
TAP	42	96	1
STR	42	144	0
SI_	42	144	0	96	48	4
TAP	42	240	7
STR	42	288	6
SCL	42	288	6	96	144	1
TAP	43	0	7
TAP	43	96	0
HLD	43	144	0	96
TAP	43	240	7
TAP	43	288	6
HLD	44	0	4	96
TAP	44	96	6
STR	44	144	7
SI_	44	144	7	96	48	3
TAP	44	240	0
STR	44	288	1
SCR	44	288	1	96	144	6
TAP	45	0	0
TAP	45	96	7
HLD	45	144	7	96
TAP	45	240	0
TAP	45	288	1
TAP	46	0	7
TAP	46	48	6
STR	46	96	4
SI_	46	96	4	96	48	0
TAP	46	96	5
TAP	46	192	0
TAP	46	288	1
TAP	46	288	7
TAP	47	0	2
TAP	47	48	2
TAP	47	96	4
TAP	47	144	4
TAP	47	192	3
TAP	47	240	3
TAP	47	288	5
TAP	47	336	5
TAP	48	0	3
TAP	48	0	4
TAP	48	48	3
TAP	48	48	4
TAP	48	96	2
TAP	48	96	5
TAP	48	144	2
TAP	48	144	5
TAP	48	192	1
TAP	48	192	6
TAP	48	240	1
TAP	48	240	6
XTP	48	288	0
XTP	48	304	1
XTP	48	320	2
XTP	48	336	7
XTP	48	352	6
XTP	48	368	5
XST	49	0	3
SCL	49	0	3	96	48	0
TAP	49	96	4
TAP	49	192	7
TAP	49	216	6
TAP	49	240	5
TAP	49	264	4
TAP	49	288	3
TAP	49	312	2
TAP	49	336	1
TAP	49	360	0
BST	50	0	3
SI_	50	0	3	96	1728	7
BRK	50	0	7
HLD	51	0	5	288
HLD	52	0	4	288
HLD	53	0	3	288
STR	54	0	2
SUL	54	0	2	96	192	4
STR	55	0	6
SUL	55	0	6	96	192	0
HLD	55	288	7	96
TAP	56	0	6
TAP	56	144	2
TAP	56	288	4
TAP	57	0	3
TAP	57	0	4
TAP	57	96	2
TAP	57	120	5
TAP	57	144	2
TAP	57	168	5
TAP	57	192	1
TAP	57	216	6
TAP	57	240	1
TAP	57	264	6
BRK	57	288	0
XST	58	0	1
SV_	58	0	1	96	192	4
XST	58	0	7
SV_	58	0	7	96	192	4
HLD	59	0	1	144
TAP	59	96	3
HLD	59	144	3	144
TTP	59	288	6	B	0	M1
TTP	59	288	7	B	0	M1
HLD	60	0	4	288
TAP	60	144	0
TAP	60	288	1
TAP	61	0	2
TAP	61	96	3
TAP	61	96	4
HLD	61	144	3	144
TAP	61	144	4
TTP	61	288	0	B	0	M1
TTP	61	288	1	B	0	M1
STR	62	0	3
SI_	62	0	3	96	96	0
TAP	62	96	4
HLD	62	144	4	144
TAP	62	288	0
STR	63	0	3
SI_	63	0	3	96	96	7
TAP	63	96	4
HLD	63	144	4	144
TAP	63	288	7
STR	64	0	3
SI_	64	0	3	96	96	6
TAP	64	96	4
HLD	64	144	4	144
TAP	64	288	6
TAP	65	0	0
TAP	65	24	7
TAP	65	48	1
TAP	65	72	6
TAP	65	96	0
TAP	65	120	7
TAP	65	144	1
TAP	65	168	6
BRK	65	192	0
STR	66	0	4
SI_	66	0	4	96	48	0
TAP	66	0	7
TAP	66	48	6
TAP	66	96	5
TAP	66	192	1
STR	66	192	4
SI_	66	192	4	96	48	0
TAP	66	240	2
STR	66	288	3
SCL	66	288	3	96	96	6
STR	67	0	6
SXL	67	0	6	96	192	2
TAP	67	96	5
TAP	67	144	5
TAP	67	240	4
TAP	67	288	4
TAP	68	0	0
STR	68	0	3
SI_	68	0	3	96	48	7
TAP	68	48	1
TAP	68	96	2
STR	68	192	3
SI_	68	192	3	96	48	7
TAP	68	192	6
TAP	68	240	5
STR	68	288	4
SCR	68	288	4	96	96	1
STR	69	0	1
SXR	69	0	1	96	192	5
TAP	69	96	2
TAP	69	144	2
TAP	69	240	3
TAP	69	288	3
STR	70	0	4
SI_	70	0	4	96	48	0
TAP	70	0	7
TAP	70	48	6
STR	70	96	5
SI_	70	96	5	96	48	0
STR	70	192	2
SI_	70	192	2	96	48	0
STR	70	288	3
SI_	70	288	3	96	48	0
STR	71	0	1
SCR	71	0	1	96	96	5
TAP	71	96	0
HLD	71	144	6	432
TAP	71	240	7
STR	71	288	1
SCL	71	288	1	96	192	3
TAP	72	288	7
TAP	72	336	6
TAP	73	0	0
TAP	73	24	1
TAP	73	48	2
TAP	73	72	3
TAP	73	96	0
TAP	73	120	7
TAP	73	144	6
TAP	73	168	5
TAP	73	192	0
TAP	73	216	1
TAP	73	240	2
TAP	73	264	3
TAP	73	288	4
TAP	73	312	5
TAP	73	336	6
TAP	73	360	7
TAP	74	0	0
STR	74	0	4
SI_	74	0	4	96	48	1
STR	74	96	4
SI_	74	96	4	96	48	7
TAP	74	96	6
TAP	74	192	2
TAP	74	192	4
TAP	74	288	0
STR	75	0	7
SCL	75	0	7	96	96	4
STR	75	96	4
SCL	75	96	4	96	96	1
STR	75	192	1
SCL	75	192	1	96	96	6
STR	75	288	6
SCL	75	288	6	96	288	6
HLD	76	0	3	288
STR	77	0	5
SSR	77	0	5	96	96	1
TAP	77	96	7
STR	77	192	0
SF_	77	192	0	96	48	4
TAP	78	0	6
TAP	78	48	6
TAP	78	96	3
TAP	78	144	3
TTP	78	192	0	E	0	M1
TTP	78	216	7	B	0	M1
TTP	78	240	6	B	0	M1
TTP	78	264	6	E	0	M1
TAP	78	288	3
TAP	78	336	2
TAP	79	48	7
STR	79	96	0
SCL	79	96	0	96	96	5
HLD	79	144	1	144
TAP	80	0	3
TAP	80	0	4
TAP	80	96	1
TAP	80	96	2
TAP	80	192	0
TAP	80	192	7
TAP	80	288	5
TAP	80	288	6
XTP	81	0	0
TAP	81	24	1
TAP	81	48	2
TAP	81	72	3
TAP	81	96	4
TAP	81	120	5
TAP	81	144	6
TAP	81	168	7
XTP	81	192	0
XTP	81	192	4
TAP	81	216	3
TAP	81	240	2
TAP	81	264	1
TAP	81	288	0
TAP	81	312	7
TAP	81	336	6
TAP	81	360	5
XTP	82	0	3
XHO	82	0	4	192
TAP	82	96	6
HLD	82	192	3	192
TAP	82	288	1
TTP	83	0	7	E	0	M1
TTP	83	24	7	B	0	M1
TTP	83	48	0	B	0	M1
TTP	83	72	1	E	0	M1
TTP	83	96	5	E	0	M1
TTP	83	120	4	B	0	M1
TTP	83	144	3	B	0	M1
TTP	83	168	3	E	0	M1
TTP	83	192	7	E	0	M1
TTP	83	216	7	B	0	M1
TTP	83	240	0	B	0	M1
TTP	83	264	1	E	0	M1
TTP	83	288	5	E	0	M1
TTP	83	312	4	B	0	M1
TTP	83	336	3	B	0	M1
TTP	83	360	3	E	0	M1
HLD	84	0	5	96
TAP	84	96	4
TAP	84	192	3
TAP	84	192	6
STR	84	240	3
SI_	84	240	3	96	48	0
TAP	84	240	6
TTP	85	0	0	E	0	M1
TTP	85	24	7	E	0	M1
TTP	85	48	6	E	0	M1
TTP	85	72	5	E	0	M1
TTP	85	96	4	E	0	M1
TTP	85	120	3	E	0	M1
TTP	85	144	2	E	0	M1
TTP	85	168	1	E	0	M1
THO	85	192	0	96	C	0	M1
BRK	85	288	7
STR	86	0	1
SI_	86	0	1	96	48	5
STR	86	96	7
SI_	86	96	7	96	48	3
STR	86	192	0
SI_	86	192	0	96	48	3
SI_	86	192	0	96	48	5
TAP	86	288	0
HLD	87	0	4	96
STR	87	96	3
SI_	87	96	3	96	96	7
HLD	87	144	3	144
STR	88	0	1
SXL	88	0	1	96	192	5
TAP	88	0	4
TAP	88	96	0
TAP	88	192	7
TAP	88	288	6
TAP	88	336	6
XTP	89	0	0
TAP	89	24	1
TAP	89	48	2
TAP	89	72	3
TAP	89	96	4
TAP	89	120	5
TAP	89	144	6
TAP	89	168	7
STR	89	192	0
SF_	89	192	0	96	48	4
TAP	90	0	2
TAP	90	48	7
TAP	90	96	2
TAP	90	144	6
TAP	90	192	2
TAP	90	240	5
TAP	90	288	2
TAP	90	336	4
STR	91	0	3
SI_	91	0	3	96	48	7
STR	91	96	2
SI_	91	96	2	96	48	7
STR	91	192	4
SI_	91	192	4	96	48	7
TAP	92	0	3
TAP	92	48	2
TAP	92	96	0
TAP	92	96	1
TAP	92	144	7
TAP	92	192	6
TAP	92	240	5
TAP	92	288	3
TAP	92	288	4
TAP	92	336	2
STR	93	0	0
SI_	93	0	0	96	48	2
SI_	93	0	0	96	48	4
TAP	93	0	1
TAP	93	192	6
STR	93	192	7
SI_	93	192	7	96	48	3
SI_	93	192	7	96	48	5
TAP	94	0	0
TAP	94	0	2
TAP	94	96	3
HLD	94	144	3	96
TAP	94	240	5
TAP	94	288	4
TAP	94	336	5
TAP	95	48	3
TAP	95	48	6
HLD	95	96	3	96
STR	95	96	6
SI_	95	96	6	96	48	1
TTP	95	288	0	C	0	M1
TAP	96	0	0
TAP	96	24	7
TAP	96	48	0
TAP	96	72	7
TAP	96	96	1
TAP	96	120	6
TAP	96	144	1
TAP	96	168	6
TAP	96	192	2
TAP	96	216	5
TAP	96	240	2
TAP	96	264	5
TAP	96	288	3
TAP	96	312	4
TAP	96	336	3
TAP	96	360	4
XTP	97	0	2
XTP	97	48	0
XTP	97	48	1
XTP	97	144	5
XTP	97	192	6
XTP	97	192	7
BRK	97	288	0
BRK	97	288	7
BRK	97	336	1
BRK	97	336	6
HLD	102	0	1	384
HLD	103	0	6	384
THO	104	0	0	192	C	1	M1
TAP	105	0	6
TAP	105	32	7
TAP	105	64	5
TAP	105	96	1
TAP	105	128	0
TAP	105	160	2
TAP	105	192	6
TAP	105	224	5
TAP	105	256	4
TAP	105	288	3
TAP	105	320	2
TAP	105	352	1
BST	106	0	4
SI_	106	0	4	96	48	7
TAP	106	48	3
TAP	106	96	2
STR	106	192	0
SI_	106	192	0	96	48	3
TAP	106	240	7
TAP	106	288	6
TAP	107	0	5
TAP	107	24	4
TAP	107	48	5
TAP	107	72	4
TAP	107	96	6
TAP	107	120	3
TAP	107	144	6
TAP	107	168	3
STR	107	192	7
SI_	107	192	7	96	48	3
TAP	107	240	7
TAP	107	288	0
STR	108	0	1
SI_	108	0	1	96	48	4
TAP	108	48	0
TAP	108	96	7
STR	108	192	6
SI_	108	192	6	96	48	3
TAP	108	240	7
TAP	108	288	0
TAP	109	0	2
TAP	109	24	3
TAP	109	48	2
TAP	109	72	3
TAP	109	96	1
TAP	109	120	4
TAP	109	144	1
TAP	109	168	4
STR	109	192	0
SI_	109	192	0	96	48	4
TAP	109	240	0
TAP	109	288	7
STR	110	0	3
SI_	110	0	3	96	48	0
TAP	110	48	4
TAP	110	96	5
STR	110	192	7
SI_	110	192	7	96	48	2
TAP	110	240	6
TAP	110	288	5
STR	111	0	3
SI_	111	0	3	96	48	0
TAP	111	48	4
TAP	111	96	5
STR	111	192	7
SI_	111	192	7	96	48	2
TAP	111	240	6
TAP	111	288	5
TAP	112	0	3
TAP	112	48	4
TAP	112	96	5
TAP	112	96	7
TAP	112	144	0
TAP	112	192	1
TAP	112	192	6
TAP	112	240	1
TAP	112	288	7
TAP	112	312	0
TAP	112	336	7
TAP	112	360	0
BRK	113	0	6
TAP	113	32	4
TAP	113	64	5
TAP	113	96	1
TAP	113	128	3
TAP	113	160	2
TAP	113	192	7
TAP	113	224	6
TAP	113	256	5
TAP	113	288	4
TAP	113	320	3
TAP	113	352	2
STR	114	0	7
SI_	114	0	7	96	48	4
TAP	114	48	0
HLD	114	96	1	96
STR	114	192	3
SI_	114	192	3	96	48	0
TAP	114	240	4
HLD	114	288	5	96
STR	115	0	7
SI_	115	0	7	96	48	2
TAP	115	48	6
HLD	115	96	5	96
STR	115	192	3
SI_	115	192	3	96	48	6
TAP	115	240	2
HLD	115	288	1	96
STR	116	0	0
SI_	116	0	0	96	48	3
TAP	116	48	7
TAP	116	96	6
TAP	116	144	5
STR	116	192	4
SI_	116	192	4	96	48	7
TAP	116	240	3
TAP	116	288	2
TAP	116	336	1
TAP	117	0	0
TAP	117	0	2
TAP	117	48	0
TAP	117	48	2
TAP	117	96	7
TAP	117	120	6
TAP	117	144	5
TAP	117	168	4
XTP	117	192	0
XTP	117	208	1
XTP	117	224	2
XTP	117	240	3
XTP	117	256	4
XTP	117	272	5
XTP	117	288	6
XTP	117	304	7
XTP	117	320	0
XTP	117	336	1
XTP	117	352	2
XTP	117	368	3
XST	118	0	7
SI_	118	0	7	96	48	3
STR	118	96	2
SI_	118	96	2	96	48	0
TAP	118	96	7
TAP	118	192	2
STR	118	192	6
SI_	118	192	6	96	48	4
TAP	118	288	3
TAP	118	288	6
XTP	119	0	3
TAP	119	24	4
TAP	119	48	2
TAP	119	72	5
TAP	119	96	1
TAP	119	120	6
TAP	119	144	0
TAP	119	168	7
TAP	119	192	0
TAP	119	216	1
TAP	119	240	2
TAP	119	264	3
TAP	119	288	7
TAP	119	312	6
TAP	119	336	5
TAP	119	360	4
TAP	120	0	0
TAP	120	48	0
TAP	120	96	1
TAP	120	96	7
TAP	120	144	6
TAP	120	192	4
TAP	120	192	5
TAP	120	240	3
TAP	120	288	4
TAP	120	312	5
TAP	120	336	6
TAP	120	360	7
XTP	121	0	0
XTP	121	0	1
XTP	121	96	6
XTP	121	96	7
BRK	121	192	0
BRK	121	192	7
XTP	121	208	1
XTP	121	208	6
XTP	121	224	2
XTP	121	224	5
XTP	121	240	3
XTP	121	240	4
STR	122	0	6
SCL	122	0	6	96	48	3
TAP	122	24	7
TAP	122	48	6
STR	122	96	0
SI_	122	96	0	96	48	4
TAP	122	144	0
STR	122	192	5
SI_	122	192	5	96	48	7
TAP	122	240	5
TAP	122	288	2
TAP	122	336	2
STR	123	0	1
SCR	123	0	1	96	48	4
TAP	123	24	0
TAP	123	48	1
STR	123	96	7
SI_	123	96	7	96	48	3
TAP	123	144	7
STR	123	192	0
SI_	123	192	0	96	48	2
TAP	123	240	0
TAP	123	288	5
TAP	123	336	5
STR	124	0	6
SCL	124	0	6	96	48	3
TAP	124	24	7
TAP	124	48	6
STR	124	96	0
SI_	124	96	0	96	48	4
TAP	124	144	0
STR	124	192	5
SI_	124	192	5	96	48	7
TAP	124	240	5
TAP	124	288	2
TAP	124	336	2
STR	125	0	1
SCR	125	0	1	96	48	4
TAP	125	24	0
TAP	125	48	1
STR	125	96	7
SI_	125	96	7	96	48	3
TAP	125	144	7
STR	125	192	0
SI_	125	192	0	96	48	2
TAP	125	240	0
TAP	125	288	5
TAP	125	336	5
STR	126	0	6
SCR	126	0	6	96	48	1
TAP	126	24	3
TAP	126	48	6
STR	126	96	4
SI_	126	96	4	96	48	0
TAP	126	144	4
STR	126	192	7
SI_	126	192	7	96	48	5
TAP	126	240	7
TAP	126	288	2
TAP	126	336	2
STR	127	0	1
SCL	127	0	1	96	48	6
TAP	127	24	4
TAP	127	48	1
STR	127	96	3
SI_	127	96	3	96	48	7
TAP	127	144	3
STR	127	192	0
SI_	127	192	0	96	48	2
TAP	127	240	0
TAP	127	288	5
TAP	127	336	5
STR	128	0	6
SCR	128	0	6	96	48	1
TAP	128	24	3
TAP	128	48	6
STR	128	96	4
SI_	128	96	4	96	48	0
TAP	128	144	4
STR	128	192	7
SI_	128	192	7	96	48	5
TAP	128	240	7
TAP	128	288	2
TAP	128	336	2
TAP	129	0	1
TAP	129	24	4
TAP	129	48	1
TAP	129	96	7
TAP	129	144	6
XST	129	192	0
SI_	129	192	0	96	48	4
XTP	129	216	1
XTP	129	240	2
XTP	129	264	3
BRK	129	288	0
TAP	130	0	2
TAP	130	24	3
TAP	130	48	2
TAP	130	72	3
STR	130	96	2
SI_	130	96	2	96	48	5
TAP	130	144	2
STR	130	192	7
SI_	130	192	7	96	48	3
TAP	130	240	7
TAP	130	288	0
TAP	130	336	1
TAP	131	0	4
TAP	131	24	2
TAP	131	48	4
TAP	131	72	2
STR	131	96	5
SI_	131	96	5	96	48	2
TAP	131	144	5
STR	131	192	0
SI_	131	192	0	96	48	4
TAP	131	240	0
TAP	131	288	7
TAP	131	336	6
TAP	132	0	3
TAP	132	24	5
TAP	132	48	3
TAP	132	72	5
STR	132	96	2
SI_	132	96	2	96	48	5
TAP	132	144	2
STR	132	192	7
SI_	132	192	7	96	48	3
TAP	132	240	7
TAP	132	288	0
TAP	132	336	1
TAP	133	0	4
TAP	133	24	2
TAP	133	48	4
TAP	133	72	2
STR	133	96	5
SI_	133	96	5	96	48	2
TAP	133	144	5
STR	133	192	0
SI_	133	192	0	96	48	4
TAP	133	240	0
TAP	133	288	7
TAP	133	336	6
XTP	134	0	3
TAP	134	24	5
TAP	134	48	3
TAP	134	72	5
TAP	134	96	2
TAP	134	120	4
TAP	134	144	2
TAP	134	168	4
STR	134	192	1
SI_	134	192	1	96	48	4
TAP	134	240	0
TAP	134	288	7
TAP	134	336	6
XTP	135	0	3
TAP	135	24	5
TAP	135	48	3
TAP	135	72	5
TAP	135	96	2
TAP	135	120	4
TAP	135	144	2
TAP	135	168	4
STR	135	192	1
SI_	135	192	1	96	48	4
TAP	135	240	0
TAP	135	288	7
TAP	135	336	6
XTP	136	0	3
TAP	136	24	5
TAP	136	48	3
TAP	136	72	5
TAP	136	96	2
TAP	136	120	4
TAP	136	144	2
TAP	136	168	4
XTP	136	192	1
XTP	136	216	0
XTP	136	240	7
XTP	136	264	6
XTP	136	288	5
XTP	136	312	4
XTP	136	336	3
XTP	136	360	2
TAP	137	0	0
TAP	137	48	1
TAP	137	48	7
TAP	137	144	4
TAP	137	192	3
TAP	137	192	5
BRK	137	288	0
BRK	137	288	7
BRK	137	336	1
BRK	137	336	6

T_REC_TAP	569
T_REC_BRK	17
T_REC_XTP	61
T_REC_HLD	43
T_REC_XHO	1
T_REC_STR	118
T_REC_BST	3
T_REC_XST	5
T_REC_TTP	76
T_REC_THO	2
T_REC_SLD	131
T_REC_ALL	1026
T_NUM_TAP	829
T_NUM_BRK	20
T_NUM_HLD	46
T_NUM_SLD	131
T_NUM_ALL	1026
T_JUDGE_TAP	849
T_JUDGE_HLD	171
T_JUDGE_SLD	131
T_JUDGE_ALL	1151
TTM_EACHPAIRS	86
TTM_SCR_TAP	414500
TTM_SCR_BRK	52000
TTM_SCR_HLD	46000
TTM_SCR_SLD	196500
TTM_SCR_ALL	709000
TTM_SCR_S	685800
TTM_SCR_SS	707000
TTM_RAT_ACV	10028

