VERSION	0.00.00	1.03.00
FES_MODE	0
BPM_DEF	210.000	210.000	210.000	210.000
MET_DEF	4	4
RESOLUTION	384
CLK_DEF	384
COMPATIBLE_CODE	MA2

BPM	0	0	210.000
MET	0	0	4	4

HLD	6	0	3	672
STR	6	0	4
SI_	6	0	4	96	480	7
HLD	8	0	2	288
BRK	8	0	7
TAP	8	96	4
TAP	8	192	4
TAP	8	288	4
HLD	9	0	1	288
TAP	9	0	5
TAP	9	96	4
TAP	9	192	4
TAP	9	288	4
HLD	10	0	0	672
TAP	10	0	6
TAP	10	96	3
TAP	10	192	3
TAP	10	288	3
XTP	11	0	5
TAP	11	96	4
TAP	11	192	4
TAP	11	288	4
HLD	12	0	3	672
TAP	12	0	5
TAP	12	96	4
TAP	12	192	4
TAP	12	288	4
TAP	13	0	6
TAP	13	96	5
TAP	13	192	4
TAP	13	288	4
HLD	14	0	1	672
TAP	14	0	5
TAP	14	96	3
TAP	14	192	3
TAP	14	288	3
XTP	15	0	5
TAP	15	96	4
TAP	15	192	4
TAP	15	288	4
HLD	16	0	3	288
TAP	16	0	5
TAP	16	96	4
TAP	16	192	4
TAP	16	288	4
TAP	17	0	2
TAP	17	0	5
TAP	17	96	3
TAP	17	120	4
TAP	17	144	3
TAP	17	168	4
TAP	17	192	3
BRK	17	288	1
BRK	17	288	6
TAP	18	0	7
TAP	18	96	6
TAP	18	192	5
TAP	18	288	4
TAP	19	0	3
TAP	19	96	2
TAP	19	192	1
TAP	19	288	0
TAP	20	0	0
TAP	20	96	1
TAP	20	192	2
TAP	20	288	3
TAP	21	0	4
TAP	21	96	3
TAP	21	96	5
TAP	21	192	2
TAP	21	192	6
TAP	21	288	1
TAP	21	288	7
HLD	22	0	1	192
TAP	22	0	7
TAP	22	96	6
TAP	22	192	5
TAP	22	288	4
TAP	23	0	3
HLD	23	0	5	192
TAP	23	96	2
TAP	23	192	1
TAP	23	288	0
TAP	23	288	4
TAP	24	0	0
TAP	24	0	4
TAP	24	96	1
TAP	24	96	5
TAP	24	192	2
TAP	24	192	6
TAP	24	288	3
TAP	24	288	7
TAP	25	0	4
TAP	25	96	5
TAP	25	192	1
TAP	25	192	6
TAP	25	288	0
TAP	25	288	7
TAP	26	0	0
TAP	26	0	7
HLD	26	96	6	96
HLD	26	192	5	96
HLD	26	288	4	96
HLD	27	0	3	96
HLD	27	96	2	96
TAP	27	192	1
TAP	27	288	0
TAP	28	0	0
HLD	28	96	1	96
HLD	28	192	2	96
HLD	28	288	3	96
HLD	29	0	4	96
HLD	29	96	5	96
TAP	29	192	6
BRK	29	288	7
TAP	30	0	7
TAP	30	96	7
HLD	30	192	4	96
TAP	30	192	6
TAP	30	288	6
HLD	31	0	3	96
TAP	31	0	5
TAP	31	96	5
HLD	31	192	2	96
TAP	31	192	4
TAP	31	288	4
TAP	32	0	3
TAP	32	96	3
TAP	32	192	2
TAP	32	288	2
TAP	33	0	1
TAP	33	0	5
TAP	33	96	1
TAP	33	96	5
TAP	33	192	0
TAP	33	192	4
TAP	33	288	0
TAP	33	288	4
TAP	34	0	3
TAP	34	96	2
TAP	34	192	1
TAP	34	288	0
TAP	35	0	7
TAP	35	96	6
TAP	35	192	1
TAP	35	192	5
HLD	35	288	2	192
TAP	35	288	4
TAP	36	0	4
TAP	36	96	5
TAP	36	192	0
TAP	36	192	6
TAP	36	288	1
TAP	36	288	7
TAP	37	0	0
TAP	37	0	2
TAP	37	96	1
TAP	37	96	7
TAP	37	192	2
TAP	37	192	6
TAP	37	288	3
TAP	37	288	5
TAP	38	0	3
TAP	38	96	2
TAP	38	192	1
TAP	38	288	0
HLD	39	0	1	192
TAP	39	0	7
TAP	39	96	6
TAP	39	192	5
TAP	39	288	0
TAP	39	288	4
TAP	40	0	0
TAP	40	0	4
TAP	40	96	1
TAP	40	96	5
TAP	40	192	2
TAP	40	192	6
TAP	40	288	3
TAP	40	288	7
TAP	41	0	0
TAP	41	96	1
TAP	41	96	6
TAP	41	192	2
TAP	41	192	5
TAP	41	288	3
TAP	41	288	4
TAP	42	0	3
HLD	42	96	2	96
HLD	42	192	1	96
HLD	42	288	0	96
HLD	43	0	7	96
HLD	43	96	6	96
TAP	43	192	5
TAP	43	288	4
TAP	44	0	4
HLD	44	96	5	96
HLD	44	192	6	96
HLD	44	288	7	96
HLD	45	0	0	96
HLD	45	96	1	96
TAP	45	192	2
TAP	45	288	3
TAP	46	0	3
TAP	46	96	3
TAP	46	192	2
HLD	46	192	5	96
TAP	46	288	2
TAP	47	0	1
HLD	47	0	4	96
TAP	47	96	1
TAP	47	192	0
HLD	47	192	3	96
TAP	47	288	0
TAP	48	0	7
TAP	48	96	7
TAP	48	192	3
TAP	48	192	6
TAP	48	288	3
TAP	48	288	6
TAP	49	0	2
TAP	49	0	5
TAP	49	96	2
TAP	49	96	5
TAP	49	192	3
TAP	49	192	4
STR	49	288	3
SI_	49	288	3	96	96	0
STR	49	288	4
SI_	49	288	4	96	96	7
TTP	51	192	4	E	0	M1
STR	52	0	7
SCL	52	0	7	96	384	4
TTP	52	192	3	E	0	M1
TTP	53	192	4	E	0	M1
STR	54	0	0
SCR	54	0	0	96	384	3
TTP	54	192	5	E	0	M1
TTP	55	192	4	E	0	M1
TAP	56	0	5
TAP	56	192	3
TAP	56	192	4
TAP	57	0	1
TAP	57	0	6
TAP	57	96	0
TAP	57	120	7
TAP	57	144	0
TAP	57	168	7
TAP	57	192	0
XTP	57	288	2
XTP	57	288	5
HLD	58	0	6	384
TAP	58	96	4
TAP	58	144	4
TAP	58	288	3
HLD	59	0	1	384
TAP	59	96	3
TAP	59	144	3
TAP	59	288	4
HLD	60	0	5	384
TAP	60	96	7
TAP	60	144	7
TAP	60	288	0
HLD	61	0	2	384
TAP	61	96	0
TAP	61	144	0
TAP	61	288	7
HLD	62	0	6	384
TAP	62	96	4
TAP	62	144	4
TAP	62	288	3
HLD	63	0	1	384
TAP	63	96	3
TAP	63	144	3
TAP	63	288	4
STR	64	0	5
SCR	64	0	5	96	144	2
TAP	65	0	3
TAP	65	24	4
TAP	65	48	3
TAP	65	72	4
TAP	65	96	3
XTP	65	192	2
XTP	65	192	5
HLD	66	0	1	96
HLD	66	96	3	96
HLD	66	192	4	96
HLD	66	288	6	96
TAP	67	0	0
TAP	67	96	1
TAP	67	96	3
TAP	67	192	7
TAP	67	288	4
TAP	67	288	6
HLD	68	0	5	96
HLD	68	96	7	96
HLD	68	192	0	96
HLD	68	288	2	96
TAP	69	0	3
TAP	69	96	1
TAP	69	96	7
TAP	69	192	4
TAP	69	288	0
TAP	69	288	6
TAP	70	0	0
TAP	70	0	1
TAP	70	96	4
TAP	70	192	6
TAP	70	192	7
TAP	70	288	3
TAP	71	0	1
TAP	71	0	5
TAP	71	96	4
TAP	71	192	2
TAP	71	192	6
STR	71	288	3
SCL	71	288	3	96	192	4
TTP	72	0	0	C	1	M1
TAP	72	288	1
TAP	72	288	6
TAP	73	0	2
TAP	73	0	5
STR	73	96	3
SI_	73	96	3	96	96	7
STR	73	96	4
SI_	73	96	4	96	96	0
HLD	74	0	6	96
HLD	74	96	4	96
HLD	74	192	3	96
HLD	74	288	1	96
TAP	75	0	7
TAP	75	96	4
TAP	75	96	6
TAP	75	192	0
TAP	75	288	1
TAP	75	288	3
HLD	76	0	2	96
HLD	76	96	0	96
HLD	76	192	7	96
HLD	76	288	5	96
TAP	77	0	4
TAP	77	96	0
TAP	77	96	6
TAP	77	192	3
TAP	77	288	1
TAP	77	288	7
TAP	78	0	6
TAP	78	0	7
TAP	78	96	3
TAP	78	192	0
TAP	78	192	1
TAP	78	288	4
TAP	79	0	2
TAP	79	0	6
TAP	79	96	3
TAP	79	192	1
TAP	79	192	5
TAP	79	288	4
TAP	80	0	2
TAP	80	0	6
STR	80	96	2
SI_	80	96	2	96	96	5
STR	80	96	6
SI_	80	96	6	96	96	1
TAP	81	0	3
TAP	81	0	7
TAP	81	96	2
TAP	81	96	6
HLD	81	192	1	96
HLD	81	192	5	96
BRK	82	0	6
BRK	82	96	7
BRK	82	192	0
BST	82	288	1
SCL	82	288	1	96	288	2
TTP	83	0	0	C	1	M1
TAP	84	0	7
TAP	84	96	6
TAP	84	192	5
STR	84	288	5
SXL	84	288	5	96	288	4
TTP	85	0	0	C	1	M1
TAP	86	0	3
TAP	86	96	2
HLD	86	192	2	96
HLD	86	288	0	96
HLD	87	0	7	96
HLD	87	96	5	96
TAP	87	192	2
STR	87	288	3
SCL	87	288	3	96	96	0
STR	87	288	4
SCR	87	288	4	96	96	7
TAP	88	288	1
TAP	88	288	6
TAP	89	0	5
TAP	89	96	4
TAP	89	96	6
TAP	89	192	2
TAP	89	288	1
TAP	89	288	3
HLD	90	0	5	96
TAP	90	96	4
TAP	90	192	6
TAP	90	192	7
TAP	90	288	0
TAP	90	288	1
TAP	91	0	2
TAP	91	0	3
TAP	91	96	2
TAP	91	96	3
TAP	91	192	0
TAP	91	192	1
STR	91	288	6
SUR	91	288	6	96	192	5
STR	91	288	7
SCR	91	288	7	96	192	4
TAP	93	0	4
TAP	93	0	5
TAP	93	96	4
TAP	93	96	5
TAP	93	192	6
TAP	93	192	7
TAP	93	288	0
TAP	93	288	1
TAP	94	0	2
TAP	94	0	3
HLD	94	96	1	192
TAP	94	96	4
TAP	94	192	3
STR	94	288	3
SUR	94	288	3	96	192	4
TAP	96	0	0
TAP	96	0	7
STR	96	96	0
SI_	96	96	0	96	96	3
STR	96	96	7
SI_	96	96	7	96	96	4
TAP	97	0	3
TAP	97	0	5
TAP	97	48	3
TAP	97	48	5
TAP	97	144	2
TAP	97	144	4
TAP	97	192	2
TAP	97	192	4
BRK	97	288	0
BRK	97	288	6
BST	97	336	0
SLL	97	336	0	96	720	4
SLR	97	336	0	96	720	4
BRK	97	336	6
STR	102	0	6
SI_	102	0	6	96	288	2
STR	103	0	0
SI_	103	0	0	96	288	3
STR	104	0	4
SI_	104	0	4	96	288	7
TAP	105	0	1
TAP	105	96	0
TAP	105	144	0
TAP	105	192	7
TAP	105	288	1
TAP	105	288	6
STR	106	0	5
SCL	106	0	5	96	96	2
TAP	106	96	1
TAP	106	192	1
HLD	106	288	0	96
STR	107	0	7
SI_	107	0	7	96	48	5
STR	107	96	1
SI_	107	96	1	96	48	3
STR	107	192	0
SI_	107	192	0	96	48	4
STR	108	0	2
SCR	108	0	2	96	96	5
TAP	108	96	6
TAP	108	192	6
HLD	108	288	7	96
STR	109	0	0
SI_	109	0	0	96	48	2
STR	109	96	6
SI_	109	96	6	96	48	4
STR	109	192	7
SI_	109	192	7	96	48	3
STR	110	0	5
SCL	110	0	5	96	96	2
TAP	110	96	1
TAP	110	192	1
HLD	110	288	0	96
STR	111	0	7
SI_	111	0	7	96	48	5
STR	111	96	1
SI_	111	96	1	96	48	3
STR	111	192	0
SI_	111	192	0	96	48	4
STR	112	0	2
SCR	112	0	2	96	96	5
TAP	112	96	6
TAP	112	192	6
HLD	112	288	7	96
STR	113	0	0
SI_	113	0	0	96	48	2
STR	113	96	6
SI_	113	96	6	96	48	4
BRK	113	192	7
STR	114	0	0
SI_	114	0	0	96	48	3
STR	114	96	4
SI_	114	96	4	96	48	7
TAP	114	192	1
TAP	114	288	1
STR	115	0	2
SI_	115	0	2	96	48	4
STR	115	96	6
SI_	115	96	6	96	48	0
STR	115	192	1
SI_	115	192	1	96	48	5
STR	116	0	7
SI_	116	0	7	96	48	4
STR	116	96	3
SI_	116	96	3	96	48	0
TAP	116	192	6
TAP	116	288	6
STR	117	0	5
SI_	117	0	5	96	48	3
STR	117	96	1
SI_	117	96	1	96	48	7
STR	117	192	6
SI_	117	192	6	96	48	2
STR	118	0	0
SI_	118	0	0	96	48	3
STR	118	96	4
SI_	118	96	4	96	48	7
TAP	118	192	1
TAP	118	288	1
STR	119	0	2
SI_	119	0	2	96	48	4
STR	119	96	6
SI_	119	96	6	96	48	0
STR	119	192	1
SI_	119	192	1	96	48	5
STR	120	0	7
SI_	120	0	7	96	48	4
STR	120	96	3
SI_	120	96	3	96	48	0
TAP	120	192	6
TAP	120	288	6
STR	121	0	1
SI_	121	0	1	96	48	7
STR	121	0	5
SI_	121	0	5	96	48	3
XTP	121	192	0
XTP	121	192	4
HLD	122	0	7	384
TTP	122	96	0	E	0	M1
TTP	122	120	1	E	0	M1
TTP	122	144	2	E	0	M1
TTP	122	168	3	E	0	M1
TTP	122	192	4	E	0	M1
TAP	122	288	0
HLD	123	0	0	384
TTP	123	96	0	E	0	M1
TTP	123	120	7	E	0	M1
TTP	123	144	6	E	0	M1
TTP	123	168	5	E	0	M1
TTP	123	192	4	E	0	M1
TAP	123	288	7
HLD	124	0	7	384
TTP	124	96	0	E	0	M1
TTP	124	120	1	E	0	M1
TTP	124	144	2	E	0	M1
TTP	124	168	3	E	0	M1
TTP	124	192	4	E	0	M1
TAP	124	288	0
HLD	125	0	0	384
TTP	125	96	0	E	0	M1
TTP	125	120	7	E	0	M1
TTP	125	144	6	E	0	M1
TTP	125	168	5	E	0	M1
TTP	125	192	4	E	0	M1
TAP	125	288	6
HLD	126	0	6	384
TTP	126	96	1	E	0	M1
TTP	126	120	2	E	0	M1
TTP	126	144	3	E	0	M1
TTP	126	168	4	E	0	M1
TTP	126	192	5	E	0	M1
TAP	126	288	1
HLD	127	0	1	384
TTP	127	96	7	E	0	M1
TTP	127	120	6	E	0	M1
TTP	127	144	5	E	0	M1
TTP	127	168	4	E	0	M1
TTP	127	192	3	E	0	M1
TAP	127	288	6
HLD	128	0	6	384
TTP	128	96	1	E	0	M1
TTP	128	120	2	E	0	M1
TTP	128	144	3	E	0	M1
TTP	128	168	4	E	0	M1
TTP	128	192	5	E	0	M1
TAP	128	288	1
HLD	129	0	1	384
TTP	129	96	7	E	0	M1
TTP	129	120	6	E	0	M1
TTP	129	144	5	E	0	M1
TTP	129	168	4	E	0	M1
TTP	129	192	3	E	0	M1
TAP	129	288	5
HLD	130	0	5	384
TTP	130	96	4	E	0	M1
TTP	130	120	5	E	0	M1
TTP	130	144	6	E	0	M1
TTP	130	168	7	E	0	M1
TTP	130	192	0	E	0	M1
TAP	130	288	2
HLD	131	0	2	384
TTP	131	96	4	E	0	M1
TTP	131	120	3	E	0	M1
TTP	131	144	2	E	0	M1
TTP	131	168	1	E	0	M1
TTP	131	192	0	E	0	M1
TAP	131	288	5
HLD	132	0	5	384
TTP	132	96	4	E	0	M1
TTP	132	120	5	E	0	M1
TTP	132	144	6	E	0	M1
TTP	132	168	7	E	0	M1
TTP	132	192	0	E	0	M1
TAP	132	288	2
HLD	133	0	2	384
TTP	133	96	4	E	0	M1
TTP	133	120	3	E	0	M1
TTP	133	144	2	E	0	M1
TTP	133	168	1	E	0	M1
TTP	133	192	0	E	0	M1
TAP	133	288	4
HLD	134	0	4	384
TTP	134	96	6	E	0	M1
TTP	134	120	7	E	0	M1
TTP	134	144	0	E	0	M1
TTP	134	168	1	E	0	M1
TTP	134	192	2	E	0	M1
TAP	134	288	3
HLD	135	0	3	288
TTP	135	96	2	E	0	M1
TTP	135	120	1	E	0	M1
TTP	135	144	0	E	0	M1
TTP	135	168	7	E	0	M1
TTP	135	192	6	E	0	M1
TAP	135	288	4
TAP	136	0	6
TAP	136	48	6
TAP	136	96	3
TAP	136	144	3
TAP	136	192	4
TAP	136	240	4
TAP	136	288	1
TAP	136	336	1
TAP	137	0	2
TAP	137	0	5
TAP	137	48	2
TAP	137	48	5
TAP	137	144	3
TAP	137	144	4
TAP	137	192	3
TAP	137	192	4
BRK	137	288	0
BRK	137	288	7
BRK	137	336	1
BRK	137	336	6

T_REC_TAP	370
T_REC_BRK	15
T_REC_XTP	8
T_REC_HLD	85
T_REC_XHO	0
T_REC_STR	56
T_REC_BST	2
T_REC_XST	0
T_REC_TTP	78
T_REC_THO	0
T_REC_SLD	59
T_REC_ALL	673
T_NUM_TAP	512
T_NUM_BRK	17
T_NUM_HLD	85
T_NUM_SLD	59
T_NUM_ALL	673
T_JUDGE_TAP	529
T_JUDGE_HLD	358
T_JUDGE_SLD	59
T_JUDGE_ALL	946
TTM_EACHPAIRS	116
TTM_SCR_TAP	256000
TTM_SCR_BRK	44200
TTM_SCR_HLD	85000
TTM_SCR_SLD	88500
TTM_SCR_ALL	473700
TTM_SCR_S	457850
TTM_SCR_SS	472000
TTM_RAT_ACV	10036

