VERSION	0.00.00	1.03.00
FES_MODE	0
BPM_DEF	210.000	210.000	210.000	210.000
MET_DEF	4	4
RESOLUTION	384
CLK_DEF	384
COMPATIBLE_CODE	MA2

BPM	0	0	210.000
MET	0	0	4	4

HLD	6	0	3	384
HLD	6	0	4	384
BRK	8	0	5
TAP	8	96	5
TAP	8	192	4
TAP	8	192	5
TAP	9	0	2
TAP	9	96	2
TAP	9	192	2
TAP	9	192	3
TAP	10	0	5
TAP	10	96	5
TAP	10	192	4
TAP	10	288	4
TAP	11	0	3
TAP	11	96	3
TAP	11	192	2
TAP	11	192	4
TAP	12	0	1
TAP	12	96	1
TAP	12	192	0
TAP	12	192	1
TAP	13	0	6
TAP	13	96	6
TAP	13	192	6
TAP	13	192	7
TAP	14	0	1
TAP	14	96	1
TAP	14	192	0
TAP	14	288	0
TAP	15	0	7
TAP	15	96	7
TAP	15	192	0
TAP	15	192	6
TAP	16	0	5
TAP	16	96	5
TAP	16	192	4
TAP	16	288	4
TAP	17	0	3
TAP	17	0	4
TAP	17	96	3
TAP	17	96	4
BRK	17	192	2
BRK	17	192	5
STR	18	0	1
SSL	18	0	1	96	384	5
STR	20	0	6
SSR	20	0	6	96	384	2
HLD	22	0	1	384
HLD	23	0	0	384
HLD	24	0	7	384
TAP	25	0	6
STR	26	0	5
SCR	26	0	5	96	192	0
TAP	27	0	1
TAP	27	192	0
TAP	27	192	1
STR	28	0	2
SCL	28	0	2	96	192	7
TAP	29	0	6
TAP	29	192	6
TAP	29	192	7
HLD	30	0	5	384
HLD	31	0	4	384
HLD	32	0	3	384
TAP	33	0	2
STR	34	0	1
SCR	34	0	1	96	192	4
TAP	35	0	5
TAP	35	192	4
TAP	35	192	5
STR	36	0	6
SCL	36	0	6	96	192	3
TAP	37	0	2
TAP	37	192	2
TAP	37	192	3
STR	38	0	1
SI_	38	0	1	96	192	5
STR	39	0	6
SI_	39	0	6	96	192	2
STR	40	0	1
SI_	40	0	1	96	192	4
TAP	41	0	5
TAP	41	192	4
TAP	41	192	6
HLD	42	0	6	192
HLD	42	192	7	192
HLD	43	0	0	192
TAP	43	192	1
HLD	44	0	2	192
HLD	44	192	3	192
HLD	45	0	4	192
TAP	45	192	5
TAP	46	0	6
TAP	46	96	7
TAP	46	192	0
TAP	46	288	1
TAP	47	0	2
TAP	47	96	3
TAP	47	192	4
TAP	47	288	5
TAP	48	0	6
TAP	48	48	6
TAP	48	96	6
TAP	48	192	7
TAP	48	240	7
TAP	48	288	7
TAP	49	0	0
TAP	49	48	0
TAP	49	96	0
TAP	49	192	1
TAP	49	240	1
TAP	49	288	1
BRK	50	0	0
BRK	50	0	7
TTP	51	0	6	B	0	L1
TTP	52	0	5	B	0	L1
TTP	53	0	4	B	0	L1
TTP	54	0	3	B	0	L1
TTP	55	0	2	B	0	L1
TTP	56	0	1	B	0	L1
TTP	57	0	0	B	0	L1
HLD	58	0	6	192
TAP	58	192	7
HLD	59	0	6	96
HLD	59	0	7	96
TAP	59	192	0
TAP	59	192	5
HLD	60	0	1	192
TAP	60	192	0
HLD	61	0	0	96
HLD	61	0	1	96
TAP	61	192	2
TAP	61	192	7
HLD	62	0	6	192
TAP	62	192	7
HLD	63	0	6	96
HLD	63	0	7	96
TAP	63	192	0
TAP	63	192	5
TAP	64	0	1
TAP	64	96	1
TAP	64	192	0
TAP	64	288	0
XTP	65	0	0
XTP	65	0	7
XTP	65	96	1
XTP	65	96	6
XTP	65	192	2
XTP	65	192	5
BRK	66	0	6
TAP	66	96	6
TAP	66	192	6
TAP	66	192	7
TAP	66	288	6
TAP	66	288	7
TAP	67	0	1
TAP	67	96	1
TAP	67	192	0
TAP	67	192	1
TAP	67	288	0
TAP	67	288	1
TAP	68	0	2
TAP	68	96	2
TAP	68	192	2
TAP	68	192	3
TAP	68	288	2
TAP	68	288	3
TAP	69	0	5
TAP	69	96	5
TAP	69	192	4
TAP	69	192	5
TAP	69	288	4
TAP	69	288	5
TAP	70	0	6
TAP	70	96	6
TAP	70	192	7
TAP	70	288	7
TAP	71	0	0
TAP	71	96	0
TAP	71	192	1
TAP	71	288	1
TAP	72	0	2
TAP	72	96	2
TAP	72	192	3
TAP	72	288	3
TAP	73	0	4
TAP	73	96	4
TAP	73	192	3
TAP	73	192	5
HLD	74	0	2	96
TAP	74	96	3
TAP	74	192	2
TAP	74	192	3
HLD	75	0	5	96
TAP	75	96	4
TAP	75	192	4
TAP	75	192	5
TAP	76	0	6
TAP	76	96	6
TAP	76	192	7
TAP	76	288	7
TAP	77	0	0
TAP	77	96	0
TAP	77	192	1
TAP	77	192	7
HLD	78	0	6	96
TAP	78	96	7
TAP	78	192	6
TAP	78	192	7
HLD	79	0	1	96
TAP	79	96	0
TAP	79	192	0
TAP	79	192	1
TAP	80	0	2
TAP	80	96	2
TAP	80	192	3
TAP	80	288	3
TAP	81	0	4
TAP	81	96	4
TAP	81	192	3
TAP	81	192	5
TAP	82	0	2
TAP	82	96	3
TAP	82	192	4
TAP	82	288	5
BST	83	0	3
SCL	83	0	3	96	192	0
BST	83	0	4
SCR	83	0	4	96	192	7
TAP	84	0	6
TAP	84	96	7
TAP	84	192	0
TAP	84	288	1
STR	85	0	0
SCR	85	0	0	96	192	3
STR	85	0	7
SCL	85	0	7	96	192	4
TAP	86	0	2
TAP	86	96	2
TAP	86	192	2
TAP	86	192	3
TAP	86	288	2
TAP	86	288	3
TAP	87	0	5
TAP	87	96	5
TAP	87	192	4
TAP	87	192	5
TAP	87	288	4
TAP	87	288	5
TAP	88	0	6
TAP	88	96	6
TAP	88	192	7
TAP	88	288	7
TAP	89	0	0
TAP	89	96	0
TAP	89	192	1
TAP	89	192	7
TAP	90	0	2
TAP	90	96	2
TAP	90	192	2
TAP	90	192	3
TAP	91	0	4
TAP	91	96	4
TAP	91	192	5
TAP	91	288	5
HLD	92	0	6	192
HLD	92	0	7	192
TAP	93	0	0
TAP	93	96	0
TAP	93	192	1
TAP	93	288	1
HLD	94	0	2	192
HLD	94	0	3	192
TAP	95	0	4
TAP	95	0	5
TAP	95	96	4
TAP	95	96	5
TAP	95	192	3
TAP	95	192	6
TAP	96	0	2
TAP	96	96	1
TAP	96	192	0
TAP	96	288	7
TAP	97	0	6
TAP	97	96	5
TAP	97	192	4
TAP	97	288	3
STR	98	0	4
SCR	98	0	4	96	864	3
TTP	102	0	3	E	0	L1
TTP	102	0	5	E	0	L1
TTP	103	0	2	B	0	L1
TTP	103	0	5	B	0	L1
TTP	104	0	1	B	0	L1
TTP	104	0	6	B	0	L1
TTP	105	0	0	C	1	L1
XTP	106	0	7
XTP	106	96	7
XTP	106	192	0
XTP	106	192	7
TAP	107	0	1
TAP	107	96	1
TAP	107	192	0
TAP	107	192	1
TAP	108	0	6
TAP	108	96	6
TAP	108	192	7
TAP	108	288	7
TAP	109	0	0
TAP	109	96	0
TAP	109	192	1
TAP	109	192	7
TAP	110	0	2
TAP	110	96	2
TAP	110	192	2
TAP	110	192	3
TAP	111	0	5
TAP	111	96	5
TAP	111	192	4
TAP	111	192	5
TAP	112	0	2
TAP	112	96	2
TAP	112	192	3
TAP	112	288	3
TAP	113	0	4
TAP	113	96	4
TAP	113	192	3
TAP	113	192	4
TTP	114	0	6	E	0	L1
TTP	114	96	5	B	0	L1
TTP	114	192	4	B	0	L1
TTP	115	0	2	E	0	L1
TTP	115	96	2	B	0	L1
TTP	115	192	3	B	0	L1
TTP	116	0	6	B	0	L1
TTP	116	96	5	B	0	L1
TTP	116	192	5	E	0	L1
TTP	117	0	1	B	0	L1
TTP	117	96	2	B	0	L1
TTP	117	192	3	E	0	L1
TTP	118	0	6	E	0	L1
TTP	118	96	6	B	0	L1
TTP	118	192	7	B	0	L1
TTP	119	0	2	E	0	L1
TTP	119	96	1	B	0	L1
TTP	119	192	0	B	0	L1
TTP	120	0	5	E	0	L1
TTP	120	96	5	B	0	L1
TTP	120	192	6	B	0	L1
TTP	121	0	3	E	0	L1
TTP	121	96	2	B	0	L1
TTP	121	192	1	B	0	L1
XTP	122	0	7
XTP	122	96	7
TAP	122	192	6
TAP	122	288	6
TAP	123	0	4
TAP	123	0	5
TAP	123	96	4
TAP	123	96	5
TAP	123	192	3
TAP	123	192	6
TAP	124	0	2
TAP	124	96	2
TAP	124	192	1
TAP	124	288	1
TAP	125	0	0
TAP	125	0	7
TAP	125	96	0
TAP	125	96	7
TAP	125	192	1
TAP	125	192	6
TAP	126	0	0
TAP	126	96	0
TAP	126	192	1
TAP	126	288	1
TAP	127	0	2
TAP	127	0	3
TAP	127	96	2
TAP	127	96	3
TAP	127	192	1
TAP	127	192	4
TAP	128	0	5
TAP	128	96	5
TAP	128	192	6
TAP	128	288	6
TAP	129	0	0
TAP	129	0	7
TAP	129	96	1
TAP	129	96	6
BRK	129	192	2
BRK	129	192	5
TAP	130	0	1
TAP	130	96	0
TAP	130	96	1
TAP	130	192	2
TAP	130	288	2
TAP	130	288	3
TAP	131	0	5
TAP	131	96	4
TAP	131	96	5
TAP	131	192	6
TAP	131	288	6
TAP	131	288	7
TAP	132	0	5
TAP	132	96	4
TAP	132	96	5
TAP	132	192	2
TAP	132	288	2
TAP	132	288	3
TAP	133	0	1
TAP	133	96	0
TAP	133	96	7
TAP	133	192	1
TAP	133	192	6
TAP	134	0	4
TAP	134	0	5
TAP	134	48	4
TAP	134	48	5
TAP	134	96	4
TAP	134	96	5
TAP	134	192	3
TAP	134	192	6
TAP	135	0	2
TAP	135	0	3
TAP	135	48	2
TAP	135	48	3
TAP	135	96	2
TAP	135	96	3
TAP	135	192	1
TAP	135	192	4
TAP	136	0	3
TAP	136	0	4
TAP	136	48	3
TAP	136	48	4
TAP	136	96	3
TAP	136	96	4
TAP	136	192	2
TAP	136	192	5
XHO	137	0	1	192
XHO	137	0	6	192
XTP	137	288	0
XTP	137	288	7
XTP	137	336	0
XTP	137	336	7

T_REC_TAP	323
T_REC_BRK	8
T_REC_XTP	16
T_REC_HLD	31
T_REC_XHO	2
T_REC_STR	12
T_REC_BST	2
T_REC_XST	0
T_REC_TTP	38
T_REC_THO	0
T_REC_SLD	14
T_REC_ALL	446
T_NUM_TAP	389
T_NUM_BRK	10
T_NUM_HLD	33
T_NUM_SLD	14
T_NUM_ALL	446
T_JUDGE_TAP	399
T_JUDGE_HLD	144
T_JUDGE_SLD	14
T_JUDGE_ALL	557
TTM_EACHPAIRS	94
TTM_SCR_TAP	194500
TTM_SCR_BRK	26000
TTM_SCR_HLD	33000
TTM_SCR_SLD	21000
TTM_SCR_ALL	274500
TTM_SCR_S	265300
TTM_SCR_SS	273500
TTM_RAT_ACV	10036

