VERSION	0.00.00	1.03.00
FES_MODE	0
BPM_DEF	210.000	210.000	210.000	210.000
MET_DEF	4	4
RESOLUTION	384
CLK_DEF	384
COMPATIBLE_CODE	MA2

BPM	0	0	210.000
MET	0	0	4	4

TAP	8	0	0
TAP	9	0	0
TAP	10	0	0
TAP	11	0	0
TAP	12	0	7
TAP	13	0	7
TAP	14	0	7
TAP	15	0	7
TAP	16	0	0
TAP	16	0	7
TAP	17	0	0
TAP	17	0	7
HLD	18	0	0	384
HLD	18	0	7	384
XTP	20	0	0
XTP	20	0	7
TAP	22	0	0
TAP	22	192	0
TAP	23	0	0
TAP	24	0	1
TAP	24	192	1
TAP	25	0	1
TAP	26	0	2
TAP	26	192	2
TAP	27	0	2
TAP	28	0	3
TAP	28	192	3
TAP	29	0	3
TAP	29	0	4
TAP	30	0	4
TAP	30	192	4
TAP	31	0	4
TAP	32	0	5
TAP	32	192	5
TAP	33	0	5
TAP	34	0	6
TAP	34	192	6
TAP	35	0	6
TAP	36	0	7
TAP	36	192	7
TAP	37	0	0
TAP	37	0	7
TAP	38	0	7
TAP	38	192	7
TAP	39	0	7
TAP	39	192	7
TAP	40	0	6
TAP	40	192	6
TAP	41	0	6
TAP	42	0	5
TAP	42	192	5
TAP	43	0	5
TAP	43	192	5
TAP	44	0	4
TAP	44	192	4
TAP	45	0	3
TAP	45	0	4
TAP	46	0	2
TAP	46	192	2
TAP	47	0	2
TAP	47	192	2
TAP	48	0	1
TAP	48	192	1
TAP	49	0	1
BRK	50	0	0
BRK	50	0	7
TTP	52	0	7	B	0	L1
TTP	53	0	0	B	0	L1
TTP	54	0	6	B	0	L1
TTP	55	0	1	B	0	L1
TTP	56	0	5	B	0	L1
TTP	57	0	0	C	0	L1
XHO	58	0	6	384
XHO	58	0	7	384
XTP	60	0	6
XTP	60	0	7
HLD	62	0	0	384
HLD	62	0	1	384
XTP	64	0	0
XTP	64	0	1
TAP	66	0	7
TAP	66	192	7
TAP	67	0	6
TAP	67	96	6
TAP	67	192	6
TAP	68	0	5
TAP	68	192	5
TAP	69	0	3
TAP	69	0	4
TAP	70	0	3
TAP	70	192	3
TAP	71	0	2
TAP	71	96	2
TAP	71	192	2
TAP	72	0	1
TAP	72	192	1
TAP	73	0	0
TAP	73	0	7
TAP	74	0	0
TAP	74	192	0
TAP	75	0	1
TAP	75	96	1
TAP	75	192	1
TAP	76	0	2
TAP	76	192	2
TAP	77	0	3
TAP	77	0	4
TAP	77	192	3
TAP	77	192	4
TAP	78	0	5
TAP	78	192	5
TAP	79	0	6
TAP	79	96	6
TAP	79	192	6
TAP	80	0	0
TAP	80	0	7
TAP	80	192	0
TAP	80	192	7
XTP	81	0	0
XTP	81	0	7
TAP	82	0	0
TAP	82	0	7
TAP	82	192	0
TAP	82	192	7
BRK	83	0	1
BRK	83	0	6
TAP	84	0	0
TAP	84	0	7
TAP	84	192	0
TAP	84	192	7
XTP	85	0	1
XTP	85	0	6
TAP	86	0	7
TAP	86	192	7
TAP	87	0	6
TAP	87	96	6
TAP	87	192	6
TAP	88	0	5
TAP	88	192	5
TAP	89	0	4
TAP	89	96	4
TAP	89	192	3
TAP	89	192	4
TAP	90	0	3
TAP	90	192	3
TAP	91	0	2
TAP	91	96	2
TAP	91	192	2
TAP	92	0	1
TAP	92	192	1
TAP	93	0	0
TAP	93	0	7
TAP	94	0	6
TAP	94	96	6
TAP	94	192	6
TAP	95	0	6
TAP	95	0	7
TAP	96	0	1
TAP	96	96	1
TAP	96	192	1
HLD	97	0	0	384
HLD	97	0	7	384
STR	102	0	7
SI_	102	0	7	96	480	3
TAP	105	0	0
TAP	106	0	0
TAP	106	192	0
TAP	107	0	1
TAP	107	96	1
TAP	107	192	1
TAP	108	0	2
TAP	108	192	2
TAP	109	0	3
TAP	109	96	3
TAP	109	192	3
TAP	109	192	4
TAP	110	0	4
TAP	110	192	4
TAP	111	0	5
TAP	111	96	5
TAP	111	192	5
TAP	112	0	6
TAP	112	192	6
TAP	113	0	0
TAP	113	0	7
TAP	114	0	7
TAP	114	96	7
TAP	114	192	7
TAP	115	0	6
TAP	115	96	6
TAP	115	192	6
TAP	116	0	5
TAP	116	96	5
TAP	116	192	5
TAP	117	0	3
TAP	117	0	4
TAP	117	192	3
TAP	117	192	4
TAP	118	0	3
TAP	118	96	3
TAP	118	192	3
TAP	119	0	2
TAP	119	96	2
TAP	119	192	2
TAP	120	0	1
TAP	120	96	1
TAP	120	192	1
TAP	121	0	0
TAP	121	0	7
TAP	122	0	0
TAP	122	96	0
TAP	122	192	0
TAP	122	288	0
TAP	123	0	1
TAP	123	96	1
TAP	123	192	1
TAP	124	0	2
TAP	124	96	2
TAP	124	192	2
TAP	125	0	2
TAP	125	0	3
TAP	125	192	2
TAP	125	192	3
TAP	126	0	4
TAP	126	96	4
TAP	126	192	4
TAP	126	288	4
TAP	127	0	5
TAP	127	96	5
TAP	127	192	5
TAP	128	0	6
TAP	128	96	6
TAP	128	192	6
TAP	129	0	6
TAP	129	0	7
TAP	129	192	6
TAP	129	192	7
TAP	130	0	7
TAP	130	96	7
TAP	130	192	6
TAP	130	288	6
TAP	131	0	5
TAP	131	96	5
TAP	131	192	3
TAP	131	192	4
TAP	132	0	3
TAP	132	96	3
TAP	132	192	2
TAP	132	288	2
TAP	133	0	1
TAP	133	96	1
TAP	133	192	0
TAP	133	192	7
TAP	134	0	1
TAP	134	96	1
TAP	134	192	2
TAP	134	288	2
TAP	135	0	3
TAP	135	96	3
TAP	135	192	4
TAP	135	288	4
TAP	136	0	5
TAP	136	96	5
TAP	136	192	6
TAP	136	288	6
XHO	137	0	0	336
XHO	137	0	7	288

T_REC_TAP	235
T_REC_BRK	4
T_REC_XTP	10
T_REC_HLD	6
T_REC_XHO	4
T_REC_STR	1
T_REC_BST	0
T_REC_XST	0
T_REC_TTP	6
T_REC_THO	0
T_REC_SLD	1
T_REC_ALL	267
T_NUM_TAP	252
T_NUM_BRK	4
T_NUM_HLD	10
T_NUM_SLD	1
T_NUM_ALL	267
T_JUDGE_TAP	256
T_JUDGE_HLD	77
T_JUDGE_SLD	1
T_JUDGE_ALL	334
TTM_EACHPAIRS	41
TTM_SCR_TAP	126000
TTM_SCR_BRK	10400
TTM_SCR_HLD	10000
TTM_SCR_SLD	1500
TTM_SCR_ALL	147900
TTM_SCR_S	143100
TTM_SCR_SS	147500
TTM_RAT_ACV	10027

