VERSION	0.00.00	1.03.00
FES_MODE	0
BPM_DEF	150.000	183.000	315.000	 10.000
MET_DEF	4	4
RESOLUTION	384
CLK_DEF	384
COMPATIBLE_CODE	MA2

BPM	0	0	150.000
BPM	9	96	219.000
BPM	19	96	180.000
BPM	23	0	130.000
BPM	25	192	142.000
BPM	27	288	155.000
BPM	30	0	165.000
BPM	31	0	175.000
BPM	32	96	183.000
BPM	34	96	195.000
BPM	36	96	200.000
BPM	37	96	205.000
BPM	38	96	215.000
BPM	39	96	219.000
BPM	40	96	195.000
BPM	41	288	219.000
BPM	58	96	217.000
BPM	58	192	205.000
BPM	58	288	195.000
BPM	59	0	183.000
BPM	90	96	115.000
BPM	90	288	160.000
BPM	91	96	195.000
BPM	91	288	220.000
BPM	92	96	235.000
BPM	92	288	255.000
BPM	93	48	275.000
BPM	100	96	300.000
BPM	101	48	315.000
BPM	108	288	275.000
BPM	109	0	200.000
BPM	109	48	130.000
BPM	109	96	185.000
BPM	109	288	215.000
BPM	110	96	230.000
BPM	110	288	250.000
BPM	111	96	270.000
BPM	111	288	285.000
BPM	112	96	300.000
BPM	112	288	315.000
BPM	113	72	 10.000
BPM	113	120	219.000
MET	0	0	4	4
MET	4	0	4	5
MET	5	96	4	4
MET	23	96	4	9
MET	32	96	4	4
MET	112	96	16	17
MET	113	120	4	4

HLD	1	192	1	96
HLD	1	192	6	96
TAP	2	0	0
TAP	2	60	3
TTP	2	96	5	E	0	M1
TTP	2	104	5	B	0	M1
TTP	2	112	6	B	0	M1
TTP	2	120	7	E	0	M1
TAP	2	192	7
TAP	2	252	4
TTP	2	288	3	E	0	M1
TTP	2	296	2	B	0	M1
TTP	2	304	1	B	0	M1
TTP	2	312	1	E	0	M1
TAP	3	0	0
TAP	3	60	3
TTP	3	96	5	E	0	M1
TTP	3	104	5	B	0	M1
TTP	3	112	6	B	0	M1
TTP	3	120	7	E	0	M1
TAP	3	192	1
TAP	3	224	0
TAP	3	256	2
TAP	3	288	6
TAP	3	320	7
TAP	3	352	5
TAP	4	0	0
TTP	4	96	5	E	0	M1
TTP	4	104	5	B	0	M1
TTP	4	112	6	B	0	M1
TTP	4	120	7	E	0	M1
TTP	4	192	3	E	0	M1
TTP	4	200	2	B	0	M1
TTP	4	208	1	B	0	M1
TTP	4	216	1	E	0	M1
TTP	4	288	5	E	0	M1
TTP	4	296	5	B	0	M1
TTP	4	304	6	B	0	M1
TTP	4	312	7	E	0	M1
XTP	5	0	3
TTP	5	6	3	E	0	M1
TTP	5	12	2	B	0	M1
TTP	5	18	1	B	0	M1
TTP	5	24	1	E	0	M1
XTP	5	30	0
STR	5	96	6
SI_	5	96	6	96	36	4
STR	5	96	7
SI_	5	96	7	96	36	4
TAP	5	156	6
TAP	5	156	7
STR	5	288	0
SI_	5	288	0	96	36	3
STR	5	288	1
SI_	5	288	1	96	36	3
TAP	5	348	0
TAP	5	348	1
STR	6	96	6
SI_	6	96	6	96	36	3
STR	6	96	7
SI_	6	96	7	96	36	3
TAP	6	156	6
TAP	6	156	7
STR	6	288	0
SI_	6	288	0	96	36	4
STR	6	288	1
SI_	6	288	1	96	36	4
TAP	6	348	0
TAP	6	348	1
STR	7	96	6
SI_	7	96	6	96	36	2
STR	7	96	7
SI_	7	96	7	96	36	2
TAP	7	156	6
TAP	7	156	7
STR	7	288	5
SF_	7	288	5	96	36	1
HLD	8	96	6	38
HLD	8	134	4	38
HLD	8	172	5	40
HLD	8	212	3	38
HLD	8	250	4	38
HLD	8	288	2	38
HLD	8	326	3	38
HLD	8	364	1	40
HLD	9	20	2	38
HLD	9	58	0	38
HLD	9	96	1	384
TAP	9	336	0
TAP	10	0	0
TAP	10	48	0
TAP	10	96	0
TAP	10	144	1
TAP	10	192	2
TAP	10	240	3
TAP	10	288	4
TAP	10	336	5
TAP	11	0	6
BRK	11	48	0
BRK	11	48	7
TAP	11	144	6
TAP	11	192	7
TAP	11	240	4
TAP	11	288	3
TAP	11	336	7
TAP	12	0	0
TAP	12	48	4
TAP	12	96	3
TAP	12	144	0
TAP	12	192	1
TAP	12	240	4
TAP	12	288	3
TAP	12	336	3
TAP	13	0	3
STR	13	48	2
SV_	13	48	2	96	48	7
STR	13	48	4
SI_	13	48	4	96	48	7
STR	13	288	2
SV_	13	288	2	96	48	7
STR	13	288	4
SI_	13	288	4	96	48	7
STR	14	96	3
SI_	14	96	3	96	48	0
STR	14	96	5
SV_	14	96	5	96	48	0
TAP	14	288	3
TAP	14	288	5
TAP	15	0	2
TAP	15	0	4
STR	15	48	2
SI_	15	48	2	96	48	5
TAP	15	48	4
TAP	15	144	6
STR	15	192	6
SI_	15	192	6	96	48	1
STR	15	288	2
SCR	15	288	2	96	48	5
STR	16	0	6
SCR	16	0	6	96	48	1
STR	16	96	2
SUL	16	96	2	96	48	5
STR	16	192	6
SUL	16	192	6	96	48	1
TAP	16	288	2
TAP	17	0	0
HLD	17	48	0	96
HLD	17	48	7	96
HLD	17	192	1	48
HLD	17	192	6	48
HLD	17	288	2	48
HLD	17	288	5	48
HLD	18	0	3	48
HLD	18	0	4	48
TAP	18	96	3
TAP	18	96	4
TAP	18	144	2
TAP	18	144	5
STR	18	192	3
SXR	18	192	3	96	48	1
STR	18	192	4
SXL	18	192	4	96	48	6
BRK	18	288	3
BRK	18	288	4
THO	19	96	0	384	C	1	M1
TTP	19	96	2	B	0	M1
TTP	19	96	3	B	0	M1
TTP	19	96	4	B	0	M1
TTP	19	96	5	B	0	M1
TAP	23	0	3
TAP	23	24	5
TAP	23	48	2
TAP	23	72	4
HLD	23	96	2	48
HLD	23	96	3	48
HLD	23	192	2	48
HLD	23	192	4	48
HLD	23	288	3	48
HLD	23	288	5	48
HLD	24	0	4	48
HLD	24	0	5	48
HLD	24	96	4	48
HLD	24	96	6	48
HLD	24	192	1	48
HLD	24	192	3	48
HLD	24	288	2	48
HLD	24	336	3	48
HLD	25	0	4	48
HLD	25	48	5	48
BRK	25	96	2
STR	25	192	4
SI_	25	192	4	96	36	2
HLD	25	192	5	48
HLD	25	288	5	48
STR	26	0	4
SI_	26	0	4	96	36	6
HLD	26	0	5	48
HLD	26	96	5	48
STR	26	192	4
SI_	26	192	4	96	36	1
HLD	26	192	5	48
XST	26	288	4
SI_	26	288	4	96	36	7
HLD	26	288	5	48
XST	27	0	4
SI_	27	0	4	96	36	0
HLD	27	0	5	48
XTP	27	96	4
XTP	27	96	5
BRK	27	192	2
HLD	27	288	6	72
TAP	27	360	5
TAP	28	0	5
TAP	28	48	4
TAP	28	96	1
TAP	28	96	3
TAP	28	144	2
TAP	28	192	4
TAP	28	192	6
TAP	28	240	5
STR	28	288	2
SLR	28	288	2	96	48	7
STR	28	288	4
SLL	28	288	4	96	48	7
STR	29	96	3
SLR	29	96	3	96	48	0
STR	29	96	5
SLL	29	96	5	96	48	0
BRK	29	288	2
HLD	30	0	1	72
TAP	30	72	2
TAP	30	96	2
TAP	30	144	3
TAP	30	192	4
TAP	30	192	6
TAP	30	240	5
TAP	30	288	1
TAP	30	288	3
TAP	30	336	2
TAP	31	0	4
TAP	31	0	6
TAP	31	48	5
STR	31	96	3
SSR	31	96	3	96	96	7
HLD	31	96	4	192
BRK	32	0	2
BRK	32	0	5
TAP	32	96	2
TAP	32	120	3
TAP	32	144	2
TAP	32	192	1
TAP	32	216	0
TAP	32	240	1
TAP	32	288	6
TAP	32	312	7
TAP	32	336	6
TAP	33	0	5
TAP	33	24	4
TAP	33	48	5
STR	33	96	3
SXL	33	96	3	96	48	4
SXR	33	96	3	96	48	2
TAP	33	144	3
XST	33	192	3
SI_	33	192	3	96	48	7
BRK	34	0	2
TAP	34	96	5
TAP	34	120	4
TAP	34	144	5
TAP	34	192	6
TAP	34	216	7
TAP	34	240	6
TAP	34	288	1
TAP	34	312	0
TAP	34	336	1
TAP	35	0	2
TAP	35	24	3
TAP	35	48	2
TTP	35	96	5	B	0	M1
TTP	35	96	6	E	0	M1
TTP	35	144	2	B	0	M1
TTP	35	144	2	E	0	M1
THO	35	192	0	96	C	0	M1
BRK	36	0	2
STR	36	96	7
SI_	36	96	7	96	48	4
STR	36	288	2
SLR	36	288	2	96	64	1
STR	36	288	6
SCR	36	288	6	96	64	1
STR	37	144	0
SXL	37	144	0	96	96	0
STR	37	192	7
SXR	37	192	7	96	96	7
BRK	38	0	2
TAP	38	96	6
TAP	38	144	6
TAP	38	144	7
TAP	38	192	1
TAP	38	240	0
TAP	38	240	1
XTP	38	288	5
XTP	38	320	7
XTP	38	352	6
XTP	39	0	1
XTP	39	32	0
XTP	39	64	2
TAP	39	96	6
TAP	39	144	6
TAP	39	144	7
TAP	39	192	1
TAP	39	240	0
TAP	39	240	1
TAP	39	288	7
TAP	39	304	6
TAP	39	320	5
TAP	39	336	1
TAP	39	352	2
TAP	39	368	3
THO	40	0	0	96	C	0	M1
XTP	40	96	0
TTP	40	288	0	E	0	M1
TTP	41	0	1	E	0	M1
TTP	41	0	7	E	0	M1
TTP	41	96	2	E	0	M1
TTP	41	96	6	E	0	M1
TTP	41	192	3	E	0	M1
TTP	41	192	5	E	0	M1
TTP	41	288	4	E	0	M1
TAP	42	0	0
TAP	42	0	7
BRK	42	48	0
BRK	42	48	7
TAP	42	144	6
TAP	42	192	7
TAP	42	240	4
TAP	42	288	3
TAP	42	336	7
TAP	43	0	0
TAP	43	48	4
TAP	43	96	3
TAP	43	144	0
TAP	43	192	1
TAP	43	240	4
TAP	43	288	3
TAP	43	336	3
TAP	44	0	3
STR	44	48	2
SV_	44	48	2	96	48	7
STR	44	48	4
SI_	44	48	4	96	48	7
STR	44	288	2
SV_	44	288	2	96	48	7
STR	44	288	4
SI_	44	288	4	96	48	7
STR	45	96	3
SI_	45	96	3	96	48	0
STR	45	96	5
SV_	45	96	5	96	48	0
TAP	45	288	3
TAP	45	288	5
TAP	46	0	2
TAP	46	0	4
STR	46	48	2
SI_	46	48	2	96	48	5
TAP	46	48	4
TAP	46	144	6
STR	46	192	6
SI_	46	192	6	96	48	1
STR	46	288	2
SCR	46	288	2	96	48	5
STR	47	0	6
SCR	47	0	6	96	48	1
TAP	47	96	2
TAP	47	192	4
TAP	47	240	4
TAP	47	288	0
TAP	47	336	0
TAP	48	0	1
STR	48	0	7
SLR	48	0	7	96	336	5
HLD	48	48	1	384
TAP	48	48	7
TAP	49	96	2
TAP	49	120	4
TAP	49	144	2
TAP	49	168	4
TAP	49	192	3
BRK	49	288	0
BRK	49	288	7
BRK	49	336	0
BRK	49	336	7
BRK	50	0	0
BRK	50	0	7
BRK	50	48	1
BRK	50	48	6
TAP	50	144	2
TAP	50	144	3
TAP	50	192	2
STR	50	192	3
SI_	50	192	3	96	48	7
STR	50	288	4
SI_	50	288	4	96	48	0
STR	51	0	2
SI_	51	0	2	96	48	7
STR	51	96	5
SI_	51	96	5	96	48	0
TAP	51	192	3
TAP	51	288	2
TAP	51	336	2
TAP	52	0	2
TAP	52	48	1
STR	52	48	3
SCR	52	48	3	96	96	7
TAP	52	144	0
TAP	52	192	0
TAP	52	288	2
STR	52	288	3
SUR	52	288	3	96	48	7
TAP	53	0	3
TAP	53	0	4
STR	53	96	4
SUL	53	96	4	96	48	0
TAP	53	96	5
TAP	53	192	3
TAP	53	192	4
XTP	53	288	1
XTP	53	288	7
TAP	54	0	2
TAP	54	0	5
STR	54	48	2
SI_	54	48	2	96	48	5
TAP	54	48	5
TAP	54	144	6
STR	54	192	6
SI_	54	192	6	96	48	1
STR	54	288	2
SCR	54	288	2	96	48	5
STR	55	0	6
SCR	55	0	6	96	48	1
STR	55	96	2
SUL	55	96	2	96	48	5
STR	55	192	6
SUL	55	192	6	96	48	1
TAP	55	288	2
TAP	56	0	0
HLD	56	48	0	96
HLD	56	48	7	96
HLD	56	192	1	48
HLD	56	192	6	48
HLD	56	288	2	48
HLD	56	288	5	48
HLD	57	0	3	48
HLD	57	0	4	48
TAP	57	96	3
TAP	57	96	4
TAP	57	144	2
TAP	57	144	5
STR	57	192	3
SXR	57	192	3	96	48	1
STR	57	192	4
SXL	57	192	4	96	48	6
BRK	57	288	3
BRK	57	288	4
TAP	58	96	0
TAP	58	144	0
TAP	58	192	0
TAP	58	240	0
TAP	58	288	0
TAP	58	336	0
TAP	59	0	0
TAP	59	48	0
HLD	59	96	0	128
HLD	59	224	1	128
HLD	59	352	2	128
TAP	60	96	3
TAP	60	160	3
HLD	60	224	3	192
TAP	60	288	4
TAP	60	352	4
HLD	61	32	4	192
TAP	61	96	5
TAP	61	160	5
HLD	61	224	5	192
TAP	61	288	6
TAP	61	352	6
HLD	62	32	6	192
TAP	62	96	4
TAP	62	160	4
HLD	62	224	4	192
TAP	62	288	3
TAP	62	352	3
HLD	63	32	3	192
TAP	63	96	2
TAP	63	160	2
HLD	63	224	2	192
TAP	63	288	1
TAP	63	352	1
TAP	64	32	1
TAP	64	96	3
TAP	64	144	4
TAP	64	192	5
TAP	64	240	6
BRK	64	288	2
TAP	64	336	3
TAP	65	0	4
TAP	65	48	5
TAP	65	96	1
TAP	65	144	2
TAP	65	192	3
TAP	65	240	4
TAP	65	288	5
TAP	65	336	6
TAP	66	0	7
TAP	66	48	0
TAP	66	96	1
TAP	66	144	2
TAP	66	192	3
TAP	66	240	4
BRK	66	288	2
TAP	66	336	3
TAP	67	0	4
TAP	67	48	5
TAP	67	96	3
TAP	67	144	4
TAP	67	192	5
TAP	67	240	6
TAP	67	288	7
TAP	67	336	0
TAP	68	0	1
TAP	68	48	2
XHO	68	96	2	38
HLD	68	134	0	38
HLD	68	172	2	40
HLD	68	212	0	38
TAP	68	250	2
XHO	68	288	1	38
HLD	68	326	3	38
HLD	68	364	1	40
HLD	69	20	3	38
TAP	69	58	1
XHO	69	96	2	38
HLD	69	134	0	38
HLD	69	172	2	40
HLD	69	212	0	38
TAP	69	250	2
TAP	69	288	1
TAP	69	326	2
TAP	69	364	3
TAP	70	20	4
TAP	70	58	5
XHO	70	96	5	38
HLD	70	134	7	38
HLD	70	172	5	40
HLD	70	212	7	38
TAP	70	250	5
XHO	70	288	6	38
HLD	70	326	4	38
HLD	70	364	6	40
HLD	71	20	4	38
TAP	71	58	6
XHO	71	96	5	38
HLD	71	134	7	38
HLD	71	172	5	40
HLD	71	212	7	38
TAP	71	250	5
TAP	71	288	6
TAP	71	326	5
TAP	71	364	4
TAP	72	20	3
TAP	72	58	2
XHO	72	96	2	32
HLD	72	128	3	32
HLD	72	160	1	32
HLD	72	192	6	32
HLD	72	224	0	32
HLD	72	256	7	32
XHO	72	288	2	32
HLD	72	320	3	32
HLD	72	352	1	32
HLD	73	0	6	32
HLD	73	32	0	32
HLD	73	64	7	32
XHO	73	96	2	32
HLD	73	128	3	32
HLD	73	160	1	32
HLD	73	192	6	32
HLD	73	224	0	32
HLD	73	256	7	32
TAP	73	288	2
TAP	73	320	3
TAP	73	352	0
TAP	74	0	7
TAP	74	32	4
TAP	74	64	4
XHO	74	96	5	32
HLD	74	128	4	32
HLD	74	160	6	32
HLD	74	192	1	32
HLD	74	224	7	32
HLD	74	256	0	32
XHO	74	288	5	32
HLD	74	320	4	32
HLD	74	352	6	32
HLD	75	0	1	32
HLD	75	32	7	32
HLD	75	64	0	32
XHO	75	96	5	32
HLD	75	128	4	32
HLD	75	160	6	32
HLD	75	192	1	32
HLD	75	224	7	32
HLD	75	256	0	32
TAP	75	288	5
TAP	75	320	4
TAP	75	352	7
TAP	76	0	0
TAP	76	32	3
TAP	76	64	3
STR	76	96	2
SSL	76	96	2	96	192	6
TTP	76	224	2	E	0	M1
TTP	76	256	1	B	0	M1
TTP	76	288	0	C	0	M1
TTP	76	320	5	B	0	M1
TTP	76	352	6	E	0	M1
BRK	77	0	7
TAP	77	96	2
TAP	77	124	3
TAP	77	150	1
TAP	77	178	4
TAP	77	206	3
TAP	77	234	4
TAP	77	260	3
TAP	77	288	5
TAP	77	316	4
TAP	77	342	6
TAP	77	370	3
TAP	78	14	4
TAP	78	42	3
TAP	78	68	4
TAP	78	96	2
TAP	78	124	3
TAP	78	150	1
TAP	78	178	4
TAP	78	206	3
TAP	78	234	4
HLD	78	260	3	28
HLD	78	288	5	28
HLD	78	316	3	26
HLD	78	342	5	28
HLD	78	370	2	28
HLD	79	14	4	28
HLD	79	42	2	26
HLD	79	68	4	28
TAP	79	96	1
TAP	79	124	0
TAP	79	150	2
TAP	79	178	7
TAP	79	206	0
TAP	79	234	7
TAP	79	260	0
TAP	79	288	6
TAP	79	316	7
TAP	79	342	5
TAP	79	370	0
TAP	80	14	7
TAP	80	42	0
TAP	80	68	7
TAP	80	96	1
TAP	80	124	0
TAP	80	150	2
TAP	80	178	7
TAP	80	206	0
TAP	80	234	7
HLD	80	260	0	28
HLD	80	288	6	28
HLD	80	316	0	26
HLD	80	342	6	28
HLD	80	370	1	28
HLD	81	14	7	28
HLD	81	42	1	26
HLD	81	68	7	28
TAP	81	96	2
TAP	81	120	0
TAP	81	144	2
TAP	81	168	0
TAP	81	192	1
TAP	81	216	7
TAP	81	240	1
TAP	81	264	7
TAP	81	288	0
TAP	81	312	6
TAP	81	336	0
TAP	81	360	6
TAP	82	0	7
TAP	82	24	5
TAP	82	48	7
TAP	82	72	5
TAP	82	96	6
TAP	82	120	4
TAP	82	144	6
TAP	82	168	4
TAP	82	192	7
TAP	82	216	3
TAP	82	240	7
TAP	82	264	3
TAP	82	288	0
TAP	82	312	1
TAP	82	336	2
TAP	82	360	3
TAP	83	0	4
TAP	83	24	5
HLD	83	48	6	48
TAP	83	96	5
TAP	83	120	7
TAP	83	144	5
TAP	83	168	7
TAP	83	192	6
TAP	83	216	0
TAP	83	240	6
TAP	83	264	0
TAP	83	288	7
TAP	83	312	1
TAP	83	336	7
TAP	83	360	1
TAP	84	0	0
TAP	84	24	2
TAP	84	48	0
TAP	84	72	2
TAP	84	96	1
TAP	84	120	3
TAP	84	144	1
TAP	84	168	3
TAP	84	192	0
TAP	84	216	4
TAP	84	240	0
TAP	84	264	4
TAP	84	288	7
TAP	84	312	6
TAP	84	336	5
TAP	84	360	4
TAP	85	0	3
TAP	85	24	2
TAP	85	48	1
TAP	85	72	0
THO	85	96	0	384	C	1	M1
TAP	85	240	5
TAP	85	288	5
TAP	86	0	6
BRK	86	96	7
XTP	86	288	7
XTP	86	336	6
XTP	87	0	5
XHO	87	48	4	144
TTP	87	192	3	B	0	M1
TTP	87	192	3	E	0	M1
HLD	87	288	4	96
TTP	88	0	3	B	0	M1
TTP	88	0	3	E	0	M1
HLD	88	96	4	96
TTP	88	192	3	B	0	M1
TTP	88	192	3	E	0	M1
HLD	88	288	4	96
TTP	89	0	3	B	0	M1
TTP	89	0	3	E	0	M1
TAP	89	96	5
STR	89	192	6
SUL	89	192	6	96	24	2
SUR	89	192	6	96	24	2
BRK	89	288	6
TTP	89	294	6	B	0	M1
TTP	89	300	0	C	1	M1
TTP	89	306	2	B	0	M1
TTP	90	192	0	C	0	M1
TTP	90	288	0	C	0	M1
TTP	91	0	0	C	0	M1
TTP	91	96	0	C	0	M1
TTP	91	192	0	C	0	M1
TTP	91	288	0	C	0	M1
TTP	92	0	0	C	0	M1
TTP	92	96	0	C	0	M1
TTP	92	192	0	B	0	M1
TTP	92	192	0	E	0	M1
TTP	92	240	5	B	0	M1
TTP	92	240	6	E	0	M1
TTP	92	288	2	B	0	M1
TTP	92	288	2	E	0	M1
TTP	92	336	4	B	0	M1
TTP	92	336	4	E	0	M1
TTP	93	0	0	C	0	M1
BRK	93	48	7
TAP	93	144	1
TAP	93	192	0
TAP	93	240	2
TAP	93	288	5
TAP	93	336	7
TAP	94	0	4
TAP	94	48	3
TAP	94	96	0
TAP	94	144	2
TAP	94	192	4
TAP	94	240	3
XTP	94	288	4
XTP	94	336	4
XTP	95	0	4
BRK	95	48	0
BST	95	48	4
SCL	95	48	4	96	72	1
STR	95	288	4
SI_	95	288	4	96	48	0
STR	96	96	4
SCR	96	96	4	96	48	7
XTP	96	288	0
TAP	97	0	1
TAP	97	0	7
BRK	97	48	1
BRK	97	48	7
TAP	97	144	6
HLD	97	192	6	48
HLD	97	192	7	48
HLD	97	288	0	48
HLD	97	288	1	48
HLD	98	0	5	48
HLD	98	0	6	48
HLD	98	96	1	48
HLD	98	96	2	48
HLD	98	192	4	48
HLD	98	192	5	48
HLD	98	288	2	48
HLD	98	288	3	48
TAP	99	0	3
TAP	99	0	4
TAP	99	48	3
TAP	99	48	4
TAP	99	144	6
TAP	99	192	4
TAP	99	240	5
TAP	99	288	3
TAP	99	336	4
TAP	100	0	2
TAP	100	48	3
TAP	100	96	1
TAP	100	144	1
TAP	100	192	6
TAP	100	240	6
XTP	100	288	0
XTP	100	288	7
XTP	100	336	0
XTP	100	336	7
XTP	101	0	0
XTP	101	0	7
BRK	101	48	1
BRK	101	48	6
XTP	101	192	1
TAP	101	204	2
TAP	101	216	3
XTP	101	288	0
TAP	101	300	7
TAP	101	312	6
XTP	102	0	1
TAP	102	12	2
TAP	102	24	3
XTP	102	96	0
TAP	102	108	7
TAP	102	120	6
XTP	102	192	1
TAP	102	204	2
TAP	102	216	3
TAP	102	288	7
TAP	102	336	7
TAP	103	0	7
BRK	103	48	7
XTP	103	192	6
TAP	103	204	5
TAP	103	216	4
XTP	103	288	7
TAP	103	300	0
TAP	103	312	1
XTP	104	0	6
TAP	104	12	5
TAP	104	24	4
XTP	104	96	7
TAP	104	108	0
TAP	104	120	1
XTP	104	192	6
TAP	104	204	5
TAP	104	216	4
TAP	104	288	0
TAP	105	0	1
TAP	105	0	6
BRK	105	48	1
BRK	105	48	6
TAP	105	144	5
TAP	105	192	7
TAP	105	240	4
TAP	105	288	0
TAP	105	336	3
TAP	106	0	2
TAP	106	48	5
HLD	106	96	3	48
HLD	106	144	4	48
HLD	106	192	3	48
HLD	106	240	4	48
TAP	106	288	2
TAP	107	0	1
TAP	107	0	6
TAP	107	48	1
TAP	107	48	6
TAP	107	144	2
TAP	107	192	3
TAP	107	240	0
TAP	107	288	5
TAP	107	336	4
TAP	108	0	7
STR	108	96	2
SI_	108	96	2	96	48	7
STR	108	96	5
SI_	108	96	5	96	48	0
XTP	108	288	1
XTP	108	288	6
TAP	108	360	3
TAP	109	48	4
BRK	109	96	2
BRK	109	96	5
TAP	109	168	4
TAP	109	240	3
TAP	109	240	5
BRK	109	288	2
BRK	109	288	6
TAP	109	360	3
TAP	110	48	2
TAP	110	48	4
BRK	110	96	1
BRK	110	96	5
TAP	110	168	4
TAP	110	168	5
TAP	110	240	3
TAP	110	240	6
BRK	110	288	2
BRK	110	288	7
TAP	110	360	2
TAP	110	360	3
TAP	111	48	1
TAP	111	48	4
BRK	111	96	0
BRK	111	96	5
TAP	111	168	4
TAP	111	168	7
TAP	111	240	0
TAP	111	240	3
BRK	111	288	1
BRK	111	288	2
TAP	111	360	0
TAP	111	360	3
TAP	112	48	4
TAP	112	48	7
BRK	112	96	5
BRK	112	96	6
TAP	112	168	0
TAP	112	240	1
TAP	112	240	7
BRK	112	288	2
BRK	112	288	6
TAP	112	360	3
TAP	112	360	5
THO	113	72	0	48	C	1	M1
TTP	113	123	1	B	0	M1
TTP	113	123	6	B	0	M1
XTP	113	126	1
XTP	113	126	6

T_REC_TAP	478
T_REC_BRK	54
T_REC_XTP	40
T_REC_HLD	150
T_REC_XHO	13
T_REC_STR	71
T_REC_BST	1
T_REC_XST	3
T_REC_TTP	79
T_REC_THO	5
T_REC_SLD	77
T_REC_ALL	971
T_NUM_TAP	671
T_NUM_BRK	55
T_NUM_HLD	168
T_NUM_SLD	77
T_NUM_ALL	971
T_JUDGE_TAP	726
T_JUDGE_HLD	256
T_JUDGE_SLD	77
T_JUDGE_ALL	1059
TTM_EACHPAIRS	126
TTM_SCR_TAP	335500
TTM_SCR_BRK	143000
TTM_SCR_HLD	168000
TTM_SCR_SLD	115500
TTM_SCR_ALL	762000
TTM_SCR_S	733850
TTM_SCR_SS	756500
TTM_RAT_ACV	10072

