VERSION	0.00.00	1.03.00
FES_MODE	0
BPM_DEF	150.000	183.000	315.000	 10.000
MET_DEF	4	4
RESOLUTION	384
CLK_DEF	384
COMPATIBLE_CODE	MA2

BPM	0	0	150.000
BPM	9	96	219.000
BPM	19	96	180.000
BPM	23	0	130.000
BPM	25	192	142.000
BPM	27	288	155.000
BPM	30	0	165.000
BPM	31	0	175.000
BPM	32	96	183.000
BPM	34	96	195.000
BPM	36	96	200.000
BPM	37	96	205.000
BPM	38	96	215.000
BPM	39	96	219.000
BPM	40	96	195.000
BPM	41	288	219.000
BPM	58	96	217.000
BPM	58	192	205.000
BPM	58	288	195.000
BPM	59	0	183.000
BPM	90	96	115.000
BPM	90	288	160.000
BPM	91	96	195.000
BPM	91	288	220.000
BPM	92	96	235.000
BPM	92	288	255.000
BPM	93	48	275.000
BPM	100	96	300.000
BPM	101	48	315.000
BPM	108	288	275.000
BPM	109	0	200.000
BPM	109	48	130.000
BPM	109	96	185.000
BPM	109	288	215.000
BPM	110	96	230.000
BPM	110	288	250.000
BPM	111	96	270.000
BPM	111	288	285.000
BPM	112	96	300.000
BPM	112	288	315.000
BPM	113	72	 10.000
BPM	113	120	219.000
MET	0	0	4	4
MET	4	0	4	5
MET	5	96	4	4
MET	23	96	4	9
MET	32	96	4	4
MET	112	96	16	17
MET	113	120	4	4

THO	1	192	0	96	C	0	M1
XHO	2	0	6	192
TTP	2	96	5	E	0	M1
HLD	2	192	1	192
TTP	2	288	2	B	0	M1
TTP	2	288	3	B	0	M1
HLD	3	0	6	192
TTP	3	96	4	B	0	M1
TTP	3	96	5	B	0	M1
TTP	3	96	5	E	0	M1
XTP	3	192	0
XTP	3	288	1
XTP	3	288	7
HLD	4	0	2	96
HLD	4	96	3	96
HLD	4	192	4	96
HLD	4	288	5	96
BRK	5	0	0
HLD	5	96	2	192
TTP	5	192	4	E	0	M1
HLD	5	288	5	192
TTP	6	0	4	E	0	M1
HLD	6	96	1	192
TTP	6	192	4	E	0	M1
HLD	6	288	6	192
TTP	7	0	4	E	0	M1
HLD	7	96	0	192
TTP	7	192	4	E	0	M1
HLD	7	288	7	192
TTP	8	0	4	E	0	M1
HLD	8	96	1	96
HLD	8	192	3	96
HLD	8	288	4	96
HLD	9	0	6	96
HLD	9	96	2	720
XTP	9	336	5
XTP	10	48	5
XTP	10	144	6
XTP	10	240	7
XTP	10	336	0
XST	11	48	0
SI_	11	48	0	96	48	5
XST	11	192	1
SI_	11	192	1	96	48	4
STR	11	288	0
SI_	11	288	0	96	48	5
STR	12	0	1
SI_	12	0	1	96	48	4
STR	12	96	0
SI_	12	96	0	96	48	4
STR	12	192	1
SI_	12	192	1	96	48	5
XTP	12	288	6
XTP	13	0	6
TAP	13	96	3
TAP	13	96	4
TAP	13	192	6
TAP	13	192	7
TAP	13	288	3
TAP	13	288	4
TAP	14	0	6
TAP	14	0	7
TAP	14	96	3
TAP	14	96	4
TAP	14	192	0
TAP	14	192	1
TAP	14	288	3
TAP	14	288	4
XTP	15	0	2
XTP	15	0	7
XHO	15	48	2	720
XTP	15	48	7
TTP	15	192	7	E	0	M1
TTP	15	288	2	E	0	M1
TTP	16	0	5	E	0	M1
TTP	16	96	3	E	0	M1
TTP	16	192	6	E	0	M1
TTP	16	288	1	E	0	M1
XTP	17	0	7
TAP	17	96	1
TAP	17	96	6
TTP	17	192	2	B	0	M1
TTP	17	192	5	B	0	M1
TAP	17	288	1
TAP	17	288	6
TTP	18	0	3	E	0	M1
TTP	18	0	5	E	0	M1
TAP	18	96	1
TAP	18	96	6
TAP	18	192	3
TAP	18	192	4
BRK	18	288	0
BRK	18	288	7
THO	19	96	0	384	C	1	M1
TTP	19	96	2	B	0	M1
TTP	19	96	3	B	0	M1
TTP	19	96	3	E	0	M1
TTP	19	96	4	B	0	M1
TTP	19	96	5	B	0	M1
TTP	19	96	5	E	0	M1
BST	21	96	7
SSR	21	96	7	96	480	3
XTP	23	96	2
HLD	23	192	2	192
TAP	23	288	3
HLD	24	0	3	192
TAP	24	96	4
HLD	24	192	4	192
TAP	24	288	5
HLD	25	0	5	96
BRK	25	96	2
XTP	25	192	3
XST	25	192	4
SI_	25	192	4	96	48	6
TAP	26	0	3
STR	26	0	4
SI_	26	0	4	96	48	7
TAP	26	192	3
STR	26	192	4
SI_	26	192	4	96	48	0
TAP	27	0	1
TAP	27	96	0
TAP	27	96	1
BRK	27	192	2
XTP	27	288	2
HLD	28	0	2	192
TAP	28	96	5
HLD	28	192	5	192
TAP	28	288	7
TAP	29	0	0
TAP	29	96	1
TAP	29	96	6
TAP	29	192	3
TAP	29	192	4
BRK	29	288	2
XTP	30	0	4
STR	30	96	4
SI_	30	96	4	96	96	7
TAP	30	192	3
XST	30	288	3
SV_	30	288	3	96	96	0
TAP	31	0	7
STR	31	96	7
SI_	31	96	7	96	96	4
TAP	31	192	0
TAP	31	288	1
BRK	32	0	2
BRK	32	0	5
XST	32	96	4
SI_	32	96	4	96	96	7
STR	32	288	3
SI_	32	288	3	96	72	0
STR	33	96	4
SI_	33	96	4	96	48	7
TAP	33	288	1
BRK	34	0	2
XTP	34	96	3
XTP	34	96	4
TTP	34	192	0	C	1	M1
TAP	34	288	6
TAP	34	288	7
TTP	35	0	0	C	1	M1
TAP	35	96	0
TAP	35	96	1
TAP	35	192	0
TAP	35	192	7
TAP	35	288	3
TAP	35	288	4
BRK	36	0	2
XTP	36	96	0
TAP	36	192	1
TAP	36	288	2
TAP	37	0	3
XTP	37	96	4
TAP	37	192	5
TAP	37	288	6
BRK	38	0	2
TAP	38	96	3
TAP	38	96	4
TAP	38	192	2
TAP	38	192	5
HLD	38	288	1	32
HLD	38	288	6	32
HLD	39	0	0	32
HLD	39	0	7	32
XTP	39	96	6
XTP	39	144	6
XTP	39	192	6
XTP	39	288	1
XTP	39	336	1
XTP	40	0	1
BRK	40	96	0
BRK	40	96	7
HLD	40	288	2	192
HLD	41	96	4	192
XHO	41	288	6	144
XST	42	48	0
SI_	42	48	0	96	48	5
STR	42	192	1
SI_	42	192	1	96	48	4
STR	42	288	0
SI_	42	288	0	96	48	5
STR	43	0	1
SI_	43	0	1	96	48	4
STR	43	96	0
SI_	43	96	0	96	48	4
STR	43	192	1
SI_	43	192	1	96	48	5
XTP	43	288	6
XTP	44	0	6
TAP	44	96	3
TAP	44	96	4
TAP	44	192	6
TAP	44	192	7
TAP	44	288	3
TAP	44	288	4
TAP	45	0	6
TAP	45	0	7
TAP	45	96	3
TAP	45	96	4
TAP	45	192	0
TAP	45	192	1
TAP	45	288	3
TAP	45	288	4
XTP	46	0	2
XTP	46	0	7
XHO	46	48	2	720
XTP	46	48	7
TTP	46	192	7	E	0	M1
TTP	46	288	2	E	0	M1
TTP	47	0	5	E	0	M1
TTP	47	96	3	E	0	M1
TTP	47	192	6	E	0	M1
TTP	47	288	1	E	0	M1
XTP	48	0	7
TAP	48	96	0
STR	48	96	1
SCR	48	96	1	96	48	4
STR	48	288	6
SCL	48	288	6	96	48	3
TAP	48	288	7
TAP	49	96	1
TAP	49	192	6
XTP	49	288	0
XTP	49	288	7
XTP	49	336	0
XTP	49	336	7
XTP	50	0	0
XTP	50	0	7
XST	50	48	1
SI_	50	48	1	96	48	4
XTP	50	48	6
STR	50	192	0
SI_	50	192	0	96	48	5
STR	50	288	1
SI_	50	288	1	96	48	4
STR	51	0	0
SI_	51	0	0	96	48	4
STR	51	96	1
SI_	51	96	1	96	48	5
STR	51	192	0
SI_	51	192	0	96	48	4
XTP	51	288	1
XTP	52	0	2
TAP	52	96	3
TAP	52	96	4
TAP	52	192	6
TAP	52	192	7
TAP	52	288	3
TAP	52	288	4
TAP	53	0	6
TAP	53	0	7
TAP	53	96	3
TAP	53	96	4
TAP	53	192	0
TAP	53	192	1
TAP	53	288	3
TAP	53	288	4
XTP	54	0	2
XTP	54	0	7
XHO	54	48	2	720
XTP	54	48	7
TTP	54	192	7	E	0	M1
TTP	54	288	2	E	0	M1
TTP	55	0	5	E	0	M1
TTP	55	96	3	E	0	M1
TTP	55	192	6	E	0	M1
TTP	55	288	1	E	0	M1
XTP	56	0	7
TAP	56	96	1
TAP	56	96	6
TTP	56	192	2	B	0	M1
TTP	56	192	5	B	0	M1
TAP	56	288	1
TAP	56	288	6
TTP	57	0	3	E	0	M1
TTP	57	0	5	E	0	M1
TAP	57	96	1
TAP	57	96	6
TAP	57	192	3
TAP	57	192	4
BRK	57	288	0
BRK	57	288	7
XTP	58	96	3
XTP	58	96	4
XTP	58	192	3
XTP	58	192	4
XTP	58	288	3
XTP	58	288	4
XTP	59	0	3
XTP	59	0	4
XHO	59	96	2	128
XHO	59	224	3	128
XHO	59	352	4	128
BST	60	96	5
SCL	60	96	5	96	240	2
TAP	60	288	1
STR	61	96	1
SUR	61	96	1	96	240	6
XTP	61	288	5
XST	62	96	5
SCL	62	96	5	96	240	2
TAP	62	288	1
HLD	63	96	0	192
HLD	63	288	7	192
XST	64	96	1
SUR	64	96	1	96	96	5
XTP	64	144	1
XST	64	288	6
SUL	64	288	6	96	96	2
XTP	64	336	6
STR	65	96	1
SUR	65	96	1	96	96	5
TAP	65	144	1
TAP	65	288	6
TAP	65	336	6
STR	66	96	0
SCR	66	96	0	96	96	3
TAP	66	144	0
STR	66	288	4
SCR	66	288	4	96	96	7
TAP	66	336	4
STR	67	96	0
SCR	67	96	0	96	96	3
TAP	67	144	0
TAP	67	288	4
BRK	68	0	1
BRK	68	0	6
HLD	68	96	3	160
TAP	68	96	4
XTP	68	256	4
XHO	68	288	5	160
XTP	69	64	6
XHO	69	96	7	160
TAP	69	256	0
HLD	69	288	1	160
TAP	70	64	2
HLD	70	96	3	160
TAP	70	256	4
HLD	70	288	5	160
TAP	71	64	6
HLD	71	96	7	160
TAP	71	256	0
HLD	71	288	1	160
TAP	72	64	2
TAP	72	96	3
TAP	72	160	3
TAP	72	224	3
TAP	72	288	4
TAP	72	352	4
TAP	73	32	4
TAP	73	96	2
TAP	73	160	2
TAP	73	224	2
TAP	73	288	5
TAP	73	352	5
TAP	74	32	5
TAP	74	96	1
TAP	74	160	0
TAP	74	224	7
TAP	74	288	6
TAP	74	352	5
TAP	75	32	4
TAP	75	96	3
TAP	75	160	2
TAP	75	224	1
TAP	75	288	0
TAP	75	352	7
TAP	76	32	6
BST	76	96	0
SSL	76	96	0	96	192	4
BST	76	96	7
SSR	76	96	7	96	192	3
XTP	77	96	5
XTP	77	144	5
XTP	77	192	3
XTP	77	240	3
XTP	77	288	4
XTP	77	336	4
XTP	78	0	2
XTP	78	48	2
TAP	78	96	6
TAP	78	144	6
TAP	78	192	0
TAP	78	240	0
TAP	78	288	7
TAP	78	336	7
TAP	79	0	1
TAP	79	48	1
TAP	79	96	4
TAP	79	144	4
TAP	79	192	0
TAP	79	240	0
TAP	79	288	6
TAP	79	336	6
TAP	80	0	2
TAP	80	48	2
TAP	80	96	7
TAP	80	144	7
TAP	80	192	3
TAP	80	240	3
TAP	80	288	4
TAP	80	336	4
TTP	81	0	0	C	1	M1
XTP	81	96	6
XTP	81	144	6
XTP	81	192	7
XTP	81	240	4
TAP	81	288	1
TAP	81	336	1
TAP	82	0	0
TAP	82	48	3
TAP	82	96	5
TAP	82	144	5
TAP	82	192	4
TAP	82	240	7
TAP	82	288	2
TAP	82	336	2
TAP	83	0	3
TAP	83	48	0
TAP	83	96	6
TAP	83	144	7
TAP	83	192	5
TAP	83	240	4
TAP	83	288	0
TAP	83	336	1
TAP	84	0	3
TAP	84	48	2
TAP	84	96	6
TAP	84	144	4
TAP	84	192	5
TAP	84	240	7
TAP	84	288	3
TAP	84	336	1
TAP	85	0	0
TAP	85	48	2
TTP	85	96	0	C	1	M1
TAP	86	96	0
TAP	86	96	7
TAP	86	192	1
TAP	86	192	6
TAP	86	288	2
TAP	86	288	5
HLD	87	0	3	864
TAP	87	0	4
STR	87	96	6
SI_	87	96	6	96	48	4
STR	87	288	6
SI_	87	288	6	96	48	4
STR	88	96	6
SI_	88	96	6	96	48	4
STR	88	288	6
SI_	88	288	6	96	48	4
TAP	89	96	6
STR	89	192	6
SI_	89	192	6	96	48	2
TTP	89	296	0	C	1	M1
XTP	90	192	3
XTP	90	288	3
XTP	91	0	3
XTP	91	96	3
XTP	91	192	3
XTP	91	288	3
XTP	92	0	3
XTP	92	96	3
XTP	92	192	3
XTP	92	288	3
XTP	93	0	3
XTP	93	96	3
XTP	93	96	4
TAP	93	192	0
TAP	93	192	1
TAP	93	288	3
TAP	93	288	4
TAP	94	0	6
TAP	94	0	7
TAP	94	96	3
TAP	94	96	4
TAP	94	192	0
TAP	94	192	1
TAP	94	288	6
TAP	94	288	7
TAP	95	0	3
TAP	95	0	4
TAP	95	96	0
STR	95	96	1
SI_	95	96	1	96	48	4
STR	95	288	6
SI_	95	288	6	96	48	3
STR	96	96	1
SI_	96	96	1	96	48	4
BRK	96	288	6
XTP	97	48	0
XHO	97	48	1	720
TTP	97	192	7	E	0	M1
TTP	97	288	2	E	0	M1
TTP	98	0	5	E	0	M1
TTP	98	96	3	E	0	M1
TTP	98	192	6	E	0	M1
TTP	98	288	1	E	0	M1
XTP	99	0	7
STR	99	96	1
SCR	99	96	1	96	48	4
STR	99	288	6
SCL	99	288	6	96	48	3
TAP	100	96	1
TAP	100	192	6
BRK	100	288	0
BRK	100	288	7
XTP	101	96	4
XTP	101	96	5
TAP	101	192	4
TAP	101	192	5
TAP	101	288	2
TAP	101	288	3
TAP	102	0	2
TAP	102	0	3
TAP	102	96	0
TAP	102	96	1
TAP	102	192	0
TAP	102	192	1
TAP	102	288	6
TAP	102	288	7
TAP	103	0	6
TAP	103	0	7
STR	103	96	5
SI_	103	96	5	96	48	0
STR	103	288	2
SI_	103	288	2	96	48	7
STR	104	96	5
SI_	104	96	5	96	48	0
BRK	104	288	1
TAP	105	96	1
TAP	105	96	6
TAP	105	192	2
TAP	105	192	5
TAP	105	288	1
TAP	105	288	6
TAP	106	0	2
TAP	106	0	5
TAP	106	96	1
TAP	106	96	6
TAP	106	192	2
TAP	106	192	5
TAP	106	288	1
TAP	106	288	6
TAP	107	0	2
TAP	107	0	5
STR	107	96	3
SI_	107	96	3	96	48	0
STR	107	288	7
SI_	107	288	7	96	48	4
TAP	108	96	3
TAP	108	192	3
BRK	108	288	3
BRK	108	288	4
XST	109	96	2
SI_	109	96	2	96	48	0
XST	109	288	5
SI_	109	288	5	96	48	7
XST	110	96	2
SI_	110	96	2	96	48	0
XST	110	288	5
SI_	110	288	5	96	48	7
XST	111	96	2
SI_	111	96	2	96	48	0
XST	111	288	5
SI_	111	288	5	96	48	7
XST	112	96	2
SI_	112	96	2	96	48	0
XST	112	288	5
SI_	112	288	5	96	48	7
THO	113	72	0	48	C	1	M1
TTP	113	120	1	B	0	M1
TTP	113	120	1	E	0	M1
TTP	113	120	2	E	0	M1
TTP	113	120	6	B	0	M1
TTP	113	120	6	E	0	M1
TTP	113	120	7	E	0	M1

T_REC_TAP	246
T_REC_BRK	23
T_REC_XTP	89
T_REC_HLD	38
T_REC_XHO	11
T_REC_STR	42
T_REC_BST	4
T_REC_XST	18
T_REC_TTP	61
T_REC_THO	3
T_REC_SLD	64
T_REC_ALL	599
T_NUM_TAP	456
T_NUM_BRK	27
T_NUM_HLD	52
T_NUM_SLD	64
T_NUM_ALL	599
T_JUDGE_TAP	483
T_JUDGE_HLD	250
T_JUDGE_SLD	64
T_JUDGE_ALL	797
TTM_EACHPAIRS	100
TTM_SCR_TAP	228000
TTM_SCR_BRK	70200
TTM_SCR_HLD	52000
TTM_SCR_SLD	96000
TTM_SCR_ALL	446200
TTM_SCR_S	430200
TTM_SCR_SS	443500
TTM_RAT_ACV	10060

