VERSION	0.00.00	1.03.00
FES_MODE	0
BPM_DEF	150.000	183.000	315.000	 10.000
MET_DEF	4	4
RESOLUTION	384
CLK_DEF	384
COMPATIBLE_CODE	MA2

BPM	0	0	150.000
BPM	9	96	219.000
BPM	19	96	180.000
BPM	23	0	130.000
BPM	25	192	142.000
BPM	27	288	155.000
BPM	30	0	165.000
BPM	31	0	175.000
BPM	32	96	183.000
BPM	34	96	195.000
BPM	36	96	200.000
BPM	37	96	205.000
BPM	38	96	215.000
BPM	39	96	219.000
BPM	40	96	195.000
BPM	41	288	219.000
BPM	58	96	217.000
BPM	58	192	205.000
BPM	58	288	195.000
BPM	59	0	183.000
BPM	90	96	115.000
BPM	90	288	160.000
BPM	91	96	195.000
BPM	91	288	220.000
BPM	92	96	235.000
BPM	92	288	255.000
BPM	93	48	275.000
BPM	100	96	300.000
BPM	101	48	315.000
BPM	108	288	275.000
BPM	109	0	200.000
BPM	109	48	130.000
BPM	109	96	185.000
BPM	109	288	215.000
BPM	110	96	230.000
BPM	110	288	250.000
BPM	111	96	270.000
BPM	111	288	285.000
BPM	112	96	300.000
BPM	112	288	315.000
BPM	113	72	 10.000
BPM	113	120	219.000
MET	0	0	4	4
MET	4	0	4	5
MET	5	96	4	4
MET	23	96	4	9
MET	32	96	4	4
MET	112	96	16	17
MET	113	120	4	4

TTP	1	192	0	C	0	L1
XTP	2	0	0
TAP	2	96	0
TAP	2	192	1
TAP	2	288	1
TAP	3	0	2
TAP	3	96	2
TAP	3	192	3
TAP	3	288	3
TAP	4	0	4
TAP	4	96	5
TAP	4	192	6
TAP	4	288	7
BRK	5	0	0
BRK	5	0	7
TAP	5	96	6
TAP	5	192	6
TAP	5	288	5
TAP	6	0	5
TAP	6	96	4
TAP	6	192	4
TAP	6	288	3
TAP	7	0	3
TAP	7	96	2
TAP	7	192	2
TAP	7	288	1
TAP	8	0	1
TAP	8	96	0
TAP	8	96	7
TAP	8	192	1
TAP	8	192	6
TAP	8	288	2
TAP	8	288	5
TAP	9	0	3
TAP	9	0	4
HLD	9	96	2	288
HLD	9	96	5	288
TAP	10	96	3
TAP	10	192	4
TAP	10	288	5
XTP	11	0	6
XHO	11	48	6	144
TAP	11	192	7
TAP	11	288	6
TAP	11	288	7
TAP	12	0	0
TAP	12	96	6
TAP	12	96	7
TAP	12	192	5
TAP	12	288	6
TAP	12	288	7
TAP	13	0	6
TAP	13	0	7
TAP	13	96	5
TAP	13	192	5
TAP	13	288	4
TAP	14	0	4
TAP	14	96	3
TAP	14	192	2
XHO	14	288	0	144
XHO	14	288	1	144
TAP	15	192	2
TAP	15	288	0
TAP	15	288	1
TAP	16	0	7
TAP	16	96	0
TAP	16	96	1
TAP	16	192	2
TAP	16	288	0
TAP	16	288	1
TAP	17	0	0
TAP	17	0	1
TAP	17	96	2
TAP	17	192	2
TAP	17	288	3
TAP	18	0	3
TAP	18	96	3
TAP	18	96	4
TAP	18	192	2
TAP	18	192	5
BRK	18	288	1
BRK	18	288	6
STR	19	96	3
SCL	19	96	3	96	192	0
STR	19	96	4
SCR	19	96	4	96	192	7
TTP	20	96	0	C	1	L1
TAP	23	0	3
TAP	23	0	4
TAP	23	96	2
TAP	23	192	1
TAP	23	288	0
TAP	24	0	7
TAP	24	96	6
TAP	24	192	5
TAP	24	288	4
TAP	25	0	3
BRK	25	96	3
BRK	25	96	4
XTP	25	192	5
TAP	25	288	6
TAP	26	0	7
TAP	26	96	0
TAP	26	192	1
TAP	26	288	2
TAP	27	0	3
TAP	27	96	4
BRK	27	192	3
BRK	27	192	4
XTP	27	288	2
TAP	28	0	1
TAP	28	96	0
TAP	28	192	7
TAP	28	288	6
TAP	29	0	5
TAP	29	96	4
TAP	29	192	3
BRK	29	288	3
BRK	29	288	4
XTP	30	0	5
TAP	30	96	6
TAP	30	192	7
TAP	30	288	0
XTP	31	0	1
TAP	31	96	2
TAP	31	192	3
TAP	31	288	4
BRK	32	0	3
BRK	32	0	4
XTP	32	96	2
TAP	32	192	1
TAP	32	288	0
TAP	33	0	7
TAP	33	96	6
TAP	33	192	5
TAP	33	288	4
BRK	34	0	3
BRK	34	0	4
XTP	34	96	5
TAP	34	192	6
TAP	34	288	7
TAP	35	0	0
TAP	35	96	1
TAP	35	192	2
TAP	35	288	3
BRK	36	0	3
BRK	36	0	4
XTP	36	96	2
TAP	36	192	2
TAP	36	288	1
TAP	37	0	1
XTP	37	96	0
TAP	37	192	0
TAP	37	288	7
TAP	38	0	7
TAP	38	96	6
TAP	38	192	6
TAP	38	288	5
TAP	39	0	4
XTP	39	96	3
TAP	39	192	2
TAP	39	288	1
TAP	40	0	0
BRK	40	96	0
BRK	40	96	7
TAP	40	288	1
TAP	40	288	6
TAP	41	96	2
TAP	41	96	5
XHO	41	288	3	144
XHO	41	288	4	144
TAP	42	192	2
TAP	42	288	0
TAP	42	288	1
TAP	43	0	7
TAP	43	96	0
TAP	43	96	1
TAP	43	192	2
TAP	43	288	0
TAP	43	288	1
TAP	44	0	0
TAP	44	0	1
TAP	44	96	2
TAP	44	192	2
TAP	44	288	3
TAP	45	0	3
TAP	45	96	4
TAP	45	192	5
XHO	45	288	6	144
XHO	45	288	7	144
TAP	46	192	5
TAP	46	288	6
TAP	46	288	7
TAP	47	0	0
TAP	47	96	6
TAP	47	96	7
TAP	47	192	5
TAP	47	288	6
TAP	47	288	7
TAP	48	0	6
TAP	48	0	7
TAP	48	96	5
TAP	48	192	5
TAP	48	288	4
TAP	49	0	4
TAP	49	96	3
TAP	49	192	2
XHO	49	288	0	144
XHO	49	288	1	144
TAP	50	192	2
TAP	50	288	0
TAP	50	288	1
TAP	51	0	7
TAP	51	96	0
TAP	51	96	1
TAP	51	192	2
TAP	51	288	0
TAP	51	288	1
TAP	52	0	0
TAP	52	0	1
TAP	52	96	2
TAP	52	192	2
TAP	52	288	3
TAP	53	0	3
TAP	53	96	4
TAP	53	192	5
XHO	53	288	6	144
XHO	53	288	7	144
TAP	54	192	5
TAP	54	288	6
TAP	54	288	7
TAP	55	0	0
TAP	55	96	6
TAP	55	96	7
TAP	55	192	5
TAP	55	288	6
TAP	55	288	7
TAP	56	0	6
TAP	56	0	7
TAP	56	96	5
TAP	56	192	5
TAP	56	288	4
TAP	57	0	4
TAP	57	96	3
TAP	57	96	4
TAP	57	192	2
TAP	57	192	5
BRK	57	288	1
BRK	57	288	6
THO	58	96	0	384	C	1	L1
XHO	60	96	1	192
XHO	60	288	0	192
XHO	61	96	7	192
XTP	61	288	6
HLD	62	96	5	192
HLD	62	288	4	192
HLD	63	96	3	192
TAP	63	288	2
HLD	64	96	1	192
TAP	64	288	0
HLD	65	96	6	192
TAP	65	288	7
HLD	66	96	1	192
TAP	66	288	0
HLD	67	96	6	192
TAP	67	288	7
STR	68	96	5
SCR	68	96	5	96	192	0
STR	69	96	1
SCR	69	96	1	96	192	4
STR	70	96	5
SCR	70	96	5	96	192	0
STR	71	96	1
SCR	71	96	1	96	192	4
TTP	72	96	5	B	0	L1
TTP	72	288	6	B	0	L1
TTP	73	96	7	B	0	L1
TTP	73	288	0	B	0	L1
TTP	74	96	1	B	0	L1
TTP	74	288	2	B	0	L1
TTP	75	96	3	B	0	L1
TTP	75	288	4	B	0	L1
TTP	76	96	0	C	0	L1
TTP	76	96	2	B	0	L1
TTP	76	96	5	B	0	L1
TAP	77	96	1
TAP	77	192	1
TAP	77	288	0
TAP	77	288	1
TAP	78	0	0
TAP	78	0	1
TAP	78	96	2
TAP	78	192	2
TAP	78	288	2
TAP	78	288	3
TAP	79	0	2
TAP	79	0	3
TAP	79	96	5
TAP	79	192	5
TAP	79	288	4
TAP	79	288	5
TAP	80	0	4
TAP	80	0	5
TAP	80	96	6
TAP	80	192	6
TAP	80	288	6
TAP	80	288	7
TAP	81	0	6
TAP	81	0	7
TAP	81	96	1
TAP	81	192	0
TAP	81	192	1
TAP	81	288	2
TAP	82	0	2
TAP	82	0	3
TAP	82	96	5
TAP	82	192	4
TAP	82	192	5
TAP	82	288	6
TAP	83	0	6
TAP	83	0	7
TAP	83	96	1
TAP	83	192	0
TAP	83	192	1
TAP	83	288	2
TAP	84	0	2
TAP	84	0	3
TAP	84	96	5
TAP	84	192	4
TAP	84	192	5
TAP	84	288	6
TAP	85	0	0
TAP	85	0	7
BST	85	96	1
SI_	85	96	1	96	144	3
BST	85	96	6
SI_	85	96	6	96	144	4
TAP	86	96	2
TAP	86	96	5
TAP	86	192	1
TAP	86	192	6
TAP	86	288	0
TAP	86	288	7
TTP	87	96	2	E	0	L1
TTP	87	288	3	E	0	L1
TTP	88	96	4	E	0	L1
TTP	88	288	5	E	0	L1
TTP	89	96	6	E	0	L1
TTP	89	288	0	C	1	L1
XHO	90	192	0	1008
XHO	90	192	7	1008
TAP	93	192	0
TAP	93	192	7
TAP	93	288	6
TAP	94	0	6
TAP	94	96	7
TAP	94	192	7
TAP	94	288	0
TAP	95	0	0
TAP	95	96	1
TAP	95	192	1
TAP	95	288	2
TAP	96	0	2
TAP	96	96	3
TAP	96	192	3
BRK	96	288	2
BRK	96	288	4
TAP	97	96	6
TAP	97	192	6
TAP	97	288	5
TAP	98	0	5
TAP	98	96	4
TAP	98	192	4
TAP	98	288	3
TAP	99	0	3
TAP	99	96	2
TAP	99	192	2
TAP	99	288	1
TAP	100	0	1
TAP	100	96	0
TAP	100	192	0
BRK	100	288	1
BRK	100	288	7
TAP	101	96	6
TAP	101	192	6
TAP	101	288	6
TAP	101	288	7
TAP	102	96	1
TAP	102	192	1
TAP	102	288	0
TAP	102	288	1
TAP	103	96	6
TAP	103	192	6
TAP	103	288	6
TAP	103	288	7
TAP	104	96	1
TAP	104	192	1
TAP	104	288	0
TAP	104	288	1
TAP	105	96	2
TAP	105	192	2
TAP	105	288	2
TAP	105	288	3
TAP	106	96	5
TAP	106	192	5
TAP	106	288	4
TAP	106	288	5
TAP	107	96	2
TAP	107	192	2
TAP	107	288	2
TAP	107	288	3
TAP	108	96	3
TAP	108	96	4
TAP	108	192	3
TAP	108	192	4
BRK	108	288	2
BRK	108	288	5
XTP	109	96	3
XTP	109	288	2
XTP	110	96	1
XTP	110	288	0
XTP	111	96	7
XTP	111	288	6
XTP	112	96	5
XTP	112	288	3
XTP	112	288	4
XHO	113	48	3	96
XTP	113	48	4
TTP	113	144	0	C	1	L1

T_REC_TAP	318
T_REC_BRK	26
T_REC_XTP	22
T_REC_HLD	9
T_REC_XHO	17
T_REC_STR	6
T_REC_BST	2
T_REC_XST	0
T_REC_TTP	20
T_REC_THO	1
T_REC_SLD	8
T_REC_ALL	429
T_NUM_TAP	366
T_NUM_BRK	28
T_NUM_HLD	27
T_NUM_SLD	8
T_NUM_ALL	429
T_JUDGE_TAP	394
T_JUDGE_HLD	138
T_JUDGE_SLD	8
T_JUDGE_ALL	540
TTM_EACHPAIRS	88
TTM_SCR_TAP	183000
TTM_SCR_BRK	72800
TTM_SCR_HLD	27000
TTM_SCR_SLD	12000
TTM_SCR_ALL	294800
TTM_SCR_S	283250
TTM_SCR_SS	292000
TTM_RAT_ACV	10095

