VERSION	0.00.00	1.03.00
FES_MODE	0
BPM_DEF	150.000	183.000	315.000	 10.000
MET_DEF	4	4
RESOLUTION	384
CLK_DEF	384
COMPATIBLE_CODE	MA2

BPM	0	0	150.000
BPM	9	96	219.000
BPM	19	96	180.000
BPM	23	0	130.000
BPM	25	192	142.000
BPM	27	288	155.000
BPM	30	0	165.000
BPM	31	0	175.000
BPM	32	96	183.000
BPM	34	96	195.000
BPM	36	96	200.000
BPM	37	96	205.000
BPM	38	96	215.000
BPM	39	96	219.000
BPM	40	96	195.000
BPM	41	288	219.000
BPM	58	96	217.000
BPM	58	192	205.000
BPM	58	288	195.000
BPM	59	0	183.000
BPM	90	96	115.000
BPM	90	288	160.000
BPM	91	96	195.000
BPM	91	288	220.000
BPM	92	96	235.000
BPM	92	288	255.000
BPM	93	48	275.000
BPM	100	96	300.000
BPM	101	48	315.000
BPM	108	288	275.000
BPM	109	0	200.000
BPM	109	48	130.000
BPM	109	96	185.000
BPM	109	288	215.000
BPM	110	96	230.000
BPM	110	288	250.000
BPM	111	96	270.000
BPM	111	288	285.000
BPM	112	96	300.000
BPM	112	288	315.000
BPM	113	72	 10.000
BPM	113	120	219.000
MET	0	0	4	4
MET	4	0	4	5
MET	5	96	4	4
MET	23	96	4	9
MET	32	96	4	4
MET	112	96	16	17
MET	113	120	4	4

XTP	2	0	0
TAP	3	0	0
HLD	4	0	0	480
TAP	6	96	7
TAP	7	96	7
HLD	8	96	7	384
XTP	11	192	0
TAP	12	0	0
TAP	12	192	1
TAP	13	0	1
TAP	13	192	2
TAP	14	0	2
TAP	14	192	3
TAP	14	192	4
TAP	15	0	3
TAP	15	0	4
TAP	15	192	5
TAP	16	0	5
TAP	16	192	6
TAP	17	0	6
TAP	17	192	0
TAP	17	192	7
HLD	18	0	0	288
HLD	18	0	7	288
TTP	20	96	0	C	1	L1
TAP	23	96	7
TAP	23	288	7
TAP	24	96	6
HLD	24	288	6	288
TAP	26	0	5
TAP	26	192	5
HLD	27	0	4	288
TAP	28	96	3
TAP	28	288	3
HLD	29	96	2	288
TAP	30	192	1
TAP	31	0	1
HLD	31	192	0	288
TAP	32	288	0
TAP	33	96	0
TAP	33	288	0
HLD	34	96	0	384
HLD	34	96	1	384
HLD	36	96	6	384
HLD	36	96	7	384
HLD	38	96	0	384
HLD	38	96	7	384
BRK	40	96	0
BRK	40	96	7
TAP	42	192	0
TAP	43	0	0
TAP	43	192	1
TAP	43	288	1
TAP	44	192	2
TAP	45	0	2
TAP	45	192	3
TAP	45	192	4
TAP	45	288	3
TAP	45	288	4
TAP	46	0	3
TAP	46	0	4
TAP	46	192	5
TAP	47	0	5
TAP	47	192	6
TAP	47	288	6
TAP	48	192	7
TAP	49	0	7
TAP	49	192	0
TAP	49	192	7
TAP	49	288	0
TAP	49	288	7
TAP	50	0	0
TAP	50	0	7
TAP	50	192	7
TAP	51	0	7
TAP	51	192	6
TAP	51	288	6
TAP	52	192	5
TAP	53	0	5
TAP	53	192	3
TAP	53	192	4
TAP	53	288	3
TAP	53	288	4
TAP	54	0	3
TAP	54	0	4
TAP	54	192	2
TAP	55	0	2
TAP	55	192	1
TAP	55	288	1
TAP	56	192	0
TAP	57	0	0
TAP	57	192	0
TAP	57	192	7
HLD	57	288	0	192
HLD	57	288	7	192
TTP	60	96	0	B	0	L1
TTP	61	96	1	B	0	L1
TTP	62	96	2	B	0	L1
TTP	63	96	3	B	0	L1
TTP	64	96	4	B	0	L1
TTP	65	96	5	B	0	L1
TTP	66	96	6	B	0	L1
TTP	67	96	0	C	0	L1
TTP	68	96	7	E	0	L1
TTP	69	96	6	E	0	L1
TTP	70	96	5	E	0	L1
TTP	71	96	4	E	0	L1
TTP	72	96	3	E	0	L1
TTP	73	96	2	E	0	L1
TTP	74	96	1	E	0	L1
THO	75	96	0	384	C	0	L1
XST	77	96	0
SI_	77	96	0	96	288	3
STR	79	96	7
SI_	79	96	7	96	288	4
STR	81	96	0
SI_	81	96	0	96	288	4
STR	83	96	7
SI_	83	96	7	96	288	3
HLD	85	96	0	384
TAP	87	192	0
TAP	87	288	0
TAP	88	192	7
TAP	88	288	7
TAP	89	192	0
TAP	89	192	7
XHO	89	288	0	288
XHO	89	288	7	288
XTP	93	192	0
XTP	93	288	0
XTP	94	192	1
XTP	94	288	1
XTP	95	192	2
XTP	95	288	2
XTP	96	192	3
XTP	96	192	4
XTP	96	288	3
XTP	96	288	4
TAP	97	192	4
TAP	97	288	4
TAP	98	192	5
TAP	98	288	5
TAP	99	192	6
TAP	99	288	6
TAP	100	192	0
TAP	100	192	7
TAP	100	288	0
TAP	100	288	7
XTP	101	192	6
TAP	101	288	6
XTP	102	192	5
TAP	102	288	5
XTP	103	192	4
TAP	103	288	4
XTP	104	192	3
XTP	104	192	4
TAP	104	288	3
TAP	104	288	4
TAP	105	192	3
TAP	105	288	3
TAP	106	192	2
TAP	106	288	2
TAP	107	192	1
TAP	107	288	1
TAP	108	192	0
TAP	108	192	7
HLD	108	288	0	384
HLD	108	288	7	384
HLD	110	288	1	576
HLD	110	288	6	576
THO	113	72	0	48	C	0	L1

T_REC_TAP	103
T_REC_BRK	2
T_REC_XTP	17
T_REC_HLD	21
T_REC_XHO	2
T_REC_STR	3
T_REC_BST	0
T_REC_XST	1
T_REC_TTP	16
T_REC_THO	2
T_REC_SLD	4
T_REC_ALL	171
T_NUM_TAP	140
T_NUM_BRK	2
T_NUM_HLD	25
T_NUM_SLD	4
T_NUM_ALL	171
T_JUDGE_TAP	142
T_JUDGE_HLD	184
T_JUDGE_SLD	4
T_JUDGE_ALL	330
TTM_EACHPAIRS	30
TTM_SCR_TAP	70000
TTM_SCR_BRK	5200
TTM_SCR_HLD	25000
TTM_SCR_SLD	6000
TTM_SCR_ALL	106200
TTM_SCR_S	102850
TTM_SCR_SS	106000
TTM_RAT_ACV	10018

