VERSION	0.00.00	1.03.00
FES_MODE	0
BPM_DEF	132.000	132.000	132.000	132.000
MET_DEF	4	4
RESOLUTION	384
CLK_DEF	384
COMPATIBLE_CODE	MA2

BPM	0	0	132.000
MET	0	0	4	4

TAP	2	0	3
TAP	2	0	7
TAP	2	96	1
STR	2	96	3
SCR	2	96	3	96	432	2
XTP	2	168	3
XHO	2	168	7	888
XTP	3	336	5
XST	4	0	5
SUL	4	0	5	96	192	1
XTP	5	0	0
XTP	5	0	5
TAP	5	24	0
TAP	5	24	5
TAP	5	72	4
TAP	5	96	3
XTP	5	144	2
XTP	5	144	7
TAP	5	168	2
TAP	5	168	7
TAP	5	216	3
TAP	5	240	4
XTP	5	288	1
XTP	5	288	6
TAP	5	312	1
TAP	5	312	6
TAP	5	336	7
TAP	5	360	0
TAP	6	0	7
BRK	6	48	2
BRK	6	48	5
TAP	6	96	0
BRK	6	120	0
BRK	6	120	7
HLD	6	192	2	96
STR	6	192	5
SXL	6	192	5	96	48	7
XTP	6	288	5
TAP	7	0	1
TAP	7	48	4
TAP	7	96	1
TAP	7	144	3
TAP	7	168	3
TAP	7	192	1
TAP	7	240	4
TAP	7	288	1
TAP	7	336	3
TAP	7	360	3
TAP	8	0	1
TAP	8	48	4
TAP	8	96	1
TAP	8	144	3
TAP	8	168	3
TAP	8	192	1
TAP	8	240	4
TAP	8	288	1
TAP	8	336	3
TAP	8	360	3
STR	9	0	2
SV_	9	0	2	96	48	0
TAP	9	48	6
TAP	9	96	4
TAP	9	144	6
STR	9	192	5
SV_	9	192	5	96	48	7
TAP	9	240	1
TAP	9	288	3
TAP	9	336	1
TAP	10	0	3
TAP	10	0	4
TAP	10	48	2
TAP	10	48	6
TAP	10	96	3
TAP	10	96	4
TAP	10	144	2
TAP	10	144	6
TAP	10	192	3
TAP	10	192	4
TAP	10	240	2
TAP	10	240	6
TAP	10	288	0
TAP	10	288	7
TAP	10	336	0
TAP	10	336	7
STR	11	0	2
SXR	11	0	2	96	192	4
STR	11	0	3
SCL	11	0	3	96	192	4
XTP	11	96	2
XTP	11	96	3
STR	12	0	6
SLL	12	0	6	96	48	2
TAP	12	48	4
XTP	12	96	3
XTP	12	96	6
BRK	12	192	0
BRK	12	288	0
TAP	13	0	2
TAP	13	0	5
TAP	13	48	1
TAP	13	72	0
TAP	13	96	1
TAP	13	120	0
TAP	13	192	5
TAP	13	216	4
TAP	13	240	5
TAP	13	264	4
TAP	13	336	1
TAP	13	336	6
TAP	14	48	3
TAP	14	48	4
TAP	14	96	1
TAP	14	96	3
TAP	14	144	3
TAP	14	144	4
STR	14	192	4
SI_	14	192	4	96	48	0
TAP	14	192	6
XTP	14	288	4
XTP	14	288	5
HLD	15	0	2	48
HLD	15	0	3	48
HLD	15	96	2	48
HLD	15	96	3	48
HLD	15	192	2	48
HLD	15	192	3	48
HLD	15	288	2	48
HLD	15	288	3	48
HLD	16	0	2	48
HLD	16	0	4	48
HLD	16	96	2	48
HLD	16	96	3	48
HLD	16	192	1	48
HLD	16	192	3	48
HLD	16	288	2	48
HLD	16	288	3	48
HLD	17	0	0	480
TAP	17	0	3
TAP	17	48	3
TAP	17	96	2
TAP	17	144	2
TAP	17	192	3
TAP	17	240	3
TAP	17	288	2
TAP	17	336	2
HLD	18	0	4	288
STR	18	192	5
SCR	18	192	5	96	48	0
HLD	19	0	2	48
HLD	19	0	3	48
HLD	19	96	2	48
HLD	19	96	3	48
HLD	19	192	2	48
HLD	19	192	3	48
HLD	19	288	2	48
HLD	19	288	3	48
HLD	20	0	1	48
HLD	20	0	4	48
HLD	20	96	3	48
HLD	20	96	4	48
HLD	20	192	1	48
HLD	20	192	4	48
HLD	20	288	1	48
HLD	20	288	2	48
HLD	21	0	0	528
TAP	21	0	3
TAP	21	48	3
TAP	21	96	2
TAP	21	144	2
TAP	21	192	3
TAP	21	240	3
TAP	21	288	2
TAP	21	336	2
HLD	22	0	1	144
STR	22	192	0
SI_	22	192	0	96	48	4
STR	22	192	1
SI_	22	192	1	96	48	5
XTP	22	288	0
XTP	22	288	1
TAP	23	0	3
TAP	23	0	6
TAP	23	48	4
TAP	23	48	5
TAP	23	96	3
TAP	23	120	5
TAP	23	168	2
TAP	23	192	4
TAP	23	240	1
TAP	23	264	3
TAP	23	288	1
TAP	23	336	0
TAP	23	336	2
TAP	24	0	1
TAP	24	0	4
TAP	24	48	2
TAP	24	48	3
TAP	24	96	4
TAP	24	120	2
TAP	24	168	5
TAP	24	192	3
TAP	24	240	6
TAP	24	264	4
TAP	24	288	6
TAP	24	336	5
TAP	24	336	7
TAP	25	0	3
TAP	25	0	6
TAP	25	48	4
TAP	25	48	5
TAP	25	96	3
TAP	25	120	5
TAP	25	168	2
TAP	25	192	4
TAP	25	240	1
TAP	25	264	3
TAP	25	288	1
HLD	25	336	0	192
TAP	25	336	6
TAP	26	48	4
TAP	26	96	2
TAP	26	144	4
TAP	26	192	6
TAP	26	216	7
TAP	26	240	6
TAP	26	264	7
XTP	26	336	1
XTP	26	336	5
TAP	27	24	2
TAP	27	48	3
TAP	27	72	2
TAP	27	96	4
TAP	27	120	3
TAP	27	144	4
TAP	27	192	1
HLD	27	216	1	48
TAP	27	264	3
TAP	27	312	3
TAP	27	336	2
XTP	28	0	5
TAP	28	24	4
TAP	28	48	5
TAP	28	72	3
TAP	28	96	4
TAP	28	120	3
TAP	28	144	6
BRK	28	192	1
BRK	28	192	7
BRK	28	224	1
BRK	28	224	7
BRK	28	256	1
BRK	28	256	7
BRK	28	288	1
BRK	28	288	7
TAP	29	0	2
HLD	29	0	3	96
TAP	29	48	0
HLD	29	96	2	96
TAP	29	144	0
STR	29	192	3
SI_	29	192	3	96	48	7
STR	29	240	0
SI_	29	240	0	96	48	4
HLD	30	0	5	96
TAP	30	48	7
HLD	30	96	4	96
TAP	30	144	7
HLD	30	192	5	48
TAP	30	240	7
TAP	30	288	4
TAP	30	336	6
XHO	30	360	1	72
XTP	30	360	6
HLD	31	48	2	48
HLD	31	96	3	48
HLD	31	144	4	48
HLD	31	192	5	48
HLD	31	240	6	48
HLD	31	288	7	48
HLD	31	336	0	48
TAP	32	0	1
TAP	32	24	0
TAP	32	48	1
TAP	32	72	0
TAP	32	96	2
TAP	32	120	7
TAP	32	144	2
TAP	32	168	7
TAP	32	192	3
TAP	32	216	6
TAP	32	240	3
TAP	32	264	6
TAP	32	288	4
TAP	32	312	5
TAP	32	336	4
HLD	33	0	3	72
HLD	33	0	7	72
TAP	33	120	2
TAP	33	144	2
HLD	33	192	1	72
HLD	33	192	4	72
TAP	33	312	6
TAP	33	336	6
HLD	34	0	3	72
HLD	34	0	5	72
TAP	34	120	2
TAP	34	144	2
HLD	34	192	3	72
HLD	34	192	4	72
TAP	34	312	5
TAP	34	336	5
TAP	35	0	3
TAP	35	0	4
TAP	35	48	3
TAP	35	48	4
TAP	35	96	2
TAP	35	96	5
TAP	35	144	2
TAP	35	144	5
TAP	35	192	1
TAP	35	192	6
TAP	35	240	1
TAP	35	240	6
TAP	35	288	0
TAP	35	312	7
TAP	35	336	0
TAP	35	360	7
TAP	36	0	1
TAP	36	24	0
TAP	36	24	1
TAP	36	72	2
TAP	36	72	3
TAP	36	120	4
TAP	36	120	6
TAP	36	168	3
TAP	36	168	4
TTP	36	240	0	C	1	M1
TTP	36	240	1	B	0	M1
TTP	36	240	2	B	0	M1
TTP	36	240	3	B	0	M1
TTP	36	240	4	B	0	M1
TTP	36	240	5	B	0	M1
TTP	36	240	6	B	0	M1
STR	37	0	0
SXL	37	0	0	96	480	3
STR	37	0	7
SUL	37	0	7	96	480	4
BRK	38	288	1
BRK	38	288	6
TAP	39	0	2
TAP	39	0	4
TAP	39	48	3
TAP	39	72	4
STR	39	96	1
SI_	39	96	1	96	48	6
TAP	39	144	3
STR	39	192	1
SI_	39	192	1	96	48	4
TAP	39	240	5
TAP	39	264	5
STR	39	288	1
SXR	39	288	1	96	144	5
TAP	39	336	7
XTP	40	0	1
HLD	40	0	3	288
TAP	40	240	0
STR	40	288	0
SI_	40	288	0	96	48	4
XTP	41	0	0
XTP	41	0	6
TAP	41	48	5
TAP	41	72	3
TAP	41	96	5
TAP	41	144	2
TAP	41	168	2
TAP	41	168	3
TAP	41	240	3
TAP	41	240	6
STR	41	288	7
SI_	41	288	7	96	48	3
TAP	41	312	0
TAP	41	336	6
XTP	42	0	1
XTP	42	0	7
TAP	42	48	0
TAP	42	96	2
TAP	42	120	4
TAP	42	144	2
TAP	42	168	4
TAP	42	192	3
TTP	42	240	0	C	1	M1
TTP	42	240	1	B	0	M1
TTP	42	240	2	B	0	M1
TTP	42	240	2	E	0	M1
TTP	42	240	5	B	0	M1
TTP	42	240	6	B	0	M1
TTP	42	240	6	E	0	M1
HLD	43	0	0	48
HLD	43	0	7	48
HLD	43	96	2	48
HLD	43	96	3	48
TAP	43	192	6
TAP	43	192	7
TAP	43	240	5
TAP	43	264	4
TAP	43	312	4
TAP	43	336	5
TAP	44	0	1
TAP	44	0	6
TAP	44	48	2
TAP	44	48	4
TAP	44	72	2
TAP	44	72	4
TAP	44	120	3
TAP	44	120	6
BRK	44	168	0
BRK	44	168	5
TAP	44	240	6
TAP	44	264	7
TAP	44	288	5
TAP	44	312	0
TAP	44	336	4
TAP	44	360	1
XHO	45	0	3	96
TTP	45	48	6	B	0	M1
TTP	45	48	7	B	0	M1
HLD	45	96	1	96
TAP	45	144	2
TAP	45	168	2
XHO	45	192	3	96
TTP	45	240	6	B	0	M1
TTP	45	240	7	B	0	M1
HLD	45	288	1	96
TAP	45	336	2
TAP	45	360	2
XHO	46	0	3	96
TTP	46	48	6	B	0	M1
TTP	46	48	7	B	0	M1
HLD	46	96	1	96
TAP	46	144	2
TAP	46	168	2
XHO	46	192	3	96
TTP	46	240	0	B	0	M1
TTP	46	240	7	B	0	M1
HLD	46	288	1	48
HLD	46	336	6	48
XHO	47	0	4	96
TTP	47	48	0	B	0	M1
TTP	47	48	1	B	0	M1
HLD	47	96	6	96
TAP	47	144	5
TAP	47	168	5
XHO	47	192	4	96
TTP	47	240	0	B	0	M1
TTP	47	240	1	B	0	M1
HLD	47	288	6	96
TAP	47	336	5
TAP	47	360	5
XTP	48	0	4
TAP	48	48	2
TAP	48	72	2
TAP	48	72	7
TAP	48	120	3
TAP	48	120	4
HLD	48	168	1	72
HLD	48	168	6	72
STR	48	288	0
SI_	48	288	0	96	48	3
STR	48	288	7
SI_	48	288	7	96	48	4
TAP	48	336	1
TAP	48	336	6
XTP	49	0	0
XTP	49	0	7
HLD	49	96	1	576
TAP	49	96	3
STR	49	192	3
SI_	49	192	3	96	48	0
XTP	49	288	3
TAP	50	0	4
TAP	50	96	4
STR	50	192	4
SI_	50	192	4	96	48	7
XTP	50	288	4
TAP	51	0	0
TAP	51	0	1
TAP	51	48	2
TAP	51	72	3
TAP	51	96	0
TAP	51	144	6
TAP	51	144	7
TAP	51	192	5
TAP	51	216	4
TAP	51	240	7
TAP	51	288	0
TAP	51	288	1
TAP	51	336	2
TAP	51	360	3
TAP	52	0	0
TAP	52	48	6
TAP	52	48	7
TAP	52	96	5
TAP	52	120	4
TAP	52	144	7
TAP	52	192	3
TAP	52	192	4
TAP	52	240	0
TAP	52	240	1
TAP	52	288	3
TAP	52	288	4
TAP	52	336	6
TAP	52	336	7
TAP	53	0	3
TAP	53	0	4
TAP	53	48	3
TAP	53	48	4
TAP	53	96	0
TAP	53	96	2
TAP	53	144	0
TAP	53	144	2
TAP	53	192	3
TAP	53	192	4
TAP	53	240	3
TAP	53	264	4
TAP	53	288	3
TAP	53	336	5
TAP	53	336	7
XTP	54	0	5
XTP	54	0	7
XTP	54	12	0
XTP	54	24	1
XTP	54	36	2
XTP	54	48	3
XTP	54	60	4
XTP	54	72	5
XTP	54	84	6
XTP	54	96	7
XTP	54	108	0
XTP	54	120	1
XTP	54	132	2
XTP	54	144	3
XTP	54	156	4
XTP	54	168	5
XTP	54	180	6
XTP	54	192	7
XTP	54	204	0
XTP	54	216	1
XTP	54	228	2
XTP	54	240	3
BRK	54	288	1
BRK	54	288	6
TAP	55	0	1
TAP	55	0	4
TAP	55	48	3
TAP	55	72	2
HLD	55	96	5	48
TAP	55	144	4
TAP	55	192	3
TAP	55	192	6
TAP	55	240	4
TAP	55	264	5
STR	55	288	3
SXR	55	288	3	96	96	3
TAP	55	336	6
XST	56	0	3
SXL	56	0	3	96	96	3
SXL	56	0	3	96	96	3
TAP	56	0	6
TAP	56	96	7
STR	56	192	0
SI_	56	192	0	96	48	4
XTP	56	288	0
TAP	57	0	2
TAP	57	0	5
TAP	57	48	4
TAP	57	72	3
STR	57	96	6
SI_	57	96	6	96	48	1
TAP	57	144	4
STR	57	192	6
SI_	57	192	6	96	48	3
TAP	57	240	2
TAP	57	264	2
STR	57	288	6
SXL	57	288	6	96	144	2
TAP	57	336	0
HLD	58	0	4	288
XTP	58	0	6
TAP	58	240	7
STR	58	288	7
SI_	58	288	7	96	48	3
XTP	59	0	1
XTP	59	0	7
TAP	59	48	2
TAP	59	72	4
TAP	59	96	2
TAP	59	144	5
TAP	59	168	4
TAP	59	168	5
TAP	59	240	1
TAP	59	240	4
STR	59	288	0
SI_	59	288	0	96	48	4
TAP	59	312	7
TAP	59	336	1
XTP	60	0	0
XTP	60	0	6
TAP	60	48	7
TAP	60	96	5
TAP	60	120	3
TAP	60	144	5
TAP	60	168	3
TAP	60	192	4
TTP	60	240	0	C	1	M1
TTP	60	240	2	B	0	M1
TTP	60	240	3	B	0	M1
TTP	60	240	3	E	0	M1
TTP	60	240	6	B	0	M1
TTP	60	240	7	B	0	M1
TTP	60	240	7	E	0	M1
HLD	61	0	0	48
HLD	61	0	1	48
HLD	61	96	2	48
HLD	61	96	3	48
TAP	61	192	6
TAP	61	192	7
TAP	61	240	5
TAP	61	264	4
TAP	61	312	4
TAP	61	336	5
TAP	62	0	1
TAP	62	0	6
TAP	62	48	2
TAP	62	48	5
STR	62	72	2
SXR	62	72	2	96	120	4
STR	62	72	5
SXL	62	72	5	96	120	3
TAP	62	120	3
TAP	62	120	4
BRK	62	168	2
BRK	62	168	5
HLD	63	0	5	48
TAP	63	48	3
HLD	63	72	6	48
TAP	63	120	4
HLD	63	144	7	144
STR	63	192	5
SCR	63	192	5	96	48	0
TAP	63	240	5
HLD	64	0	2	48
TAP	64	48	4
HLD	64	72	1	48
TAP	64	120	3
HLD	64	144	0	144
STR	64	192	2
SCL	64	192	2	96	48	7
TAP	64	240	2
HLD	65	0	5	144
TAP	65	48	6
TAP	65	72	6
HLD	65	144	4	144
TAP	65	192	3
TAP	65	216	3
HLD	65	288	5	72
TAP	65	336	6
TAP	65	360	6
TAP	66	48	0
TAP	66	48	2
TAP	66	96	3
TAP	66	96	4
TAP	66	120	3
TAP	66	120	4
TAP	66	192	5
STR	66	192	7
SF_	66	192	7	96	48	3
XTP	66	288	7
TTP	67	0	0	B	0	M1
THO	67	0	0	192	C	0	M1
TTP	67	0	1	B	0	M1
XST	67	0	5
SCL	67	0	5	96	96	1
TAP	67	288	0
TAP	67	288	7
THO	68	0	0	192	C	0	M1
STR	68	0	2
SCR	68	0	2	96	96	6
TTP	68	0	6	B	0	M1
TTP	68	0	7	B	0	M1
TAP	68	288	0
TAP	68	288	7
TAP	69	0	0
TAP	69	0	1
TAP	69	48	2
TAP	69	72	3
TAP	69	96	0
TAP	69	144	6
TAP	69	144	7
TAP	69	192	5
TAP	69	216	4
TAP	69	240	7
TAP	69	288	0
TAP	69	288	1
TAP	69	336	2
TAP	69	360	3
TAP	70	0	0
TAP	70	48	6
TAP	70	48	7
STR	70	96	5
SCR	70	96	5	96	96	1
TAP	70	120	4
TAP	70	144	5
STR	70	192	1
SCL	70	192	1	96	96	5
XTP	70	192	5
TAP	70	288	3
HLD	71	0	3	72
TAP	71	48	4
TAP	71	72	4
TAP	71	120	5
TAP	71	144	4
HLD	71	192	6	72
TAP	71	240	7
TAP	71	264	7
TAP	71	312	3
HLD	71	336	4	384
HLD	72	0	0	336
XTP	72	348	1
XTP	72	348	5
XTP	72	360	2
XTP	72	360	6
XTP	72	372	3
XTP	72	372	7
XHO	73	0	0	480
XHO	73	0	4	480
STR	74	168	2
SUR	74	168	2	96	408	4
STR	74	168	6
SUR	74	168	6	96	408	0
TAP	75	360	1
TAP	75	360	6
TAP	76	24	0
TAP	76	48	7
TAP	76	72	1
TAP	76	96	6
TAP	76	120	2
TAP	76	144	5
TAP	76	168	3
HLD	76	192	3	336
HLD	76	192	4	336
TAP	77	192	1
TAP	77	192	6
TAP	77	240	5
STR	77	264	3
SCL	77	264	3	96	48	7
TAP	77	288	5
TAP	77	312	1
XTP	77	360	1
XTP	77	360	3

T_REC_TAP	433
T_REC_BRK	22
T_REC_XTP	69
T_REC_HLD	95
T_REC_XHO	10
T_REC_STR	42
T_REC_BST	0
T_REC_XST	3
T_REC_TTP	37
T_REC_THO	2
T_REC_SLD	46
T_REC_ALL	759
T_NUM_TAP	584
T_NUM_BRK	22
T_NUM_HLD	107
T_NUM_SLD	46
T_NUM_ALL	759
T_JUDGE_TAP	606
T_JUDGE_HLD	262
T_JUDGE_SLD	46
T_JUDGE_ALL	914
TTM_EACHPAIRS	156
TTM_SCR_TAP	292000
TTM_SCR_BRK	57200
TTM_SCR_HLD	107000
TTM_SCR_SLD	69000
TTM_SCR_ALL	525200
TTM_SCR_S	507350
TTM_SCR_SS	523000
TTM_RAT_ACV	10042

