VERSION	0.00.00	1.03.00
FES_MODE	0
BPM_DEF	132.000	132.000	132.000	132.000
MET_DEF	4	4
RESOLUTION	384
CLK_DEF	384
COMPATIBLE_CODE	MA2

BPM	0	0	132.000
MET	0	0	4	4

XTP	2	0	3
XTP	2	0	4
XST	2	96	3
SI_	2	96	3	96	288	0
XTP	2	96	4
XHO	2	168	5	888
XTP	3	336	0
XST	4	0	0
SCR	4	0	0	96	192	3
XTP	5	0	4
XTP	5	0	5
XTP	5	144	2
XTP	5	144	3
XHO	5	288	3	96
XHO	5	288	4	96
XTP	6	48	3
XTP	6	48	4
XTP	6	120	3
XTP	6	120	4
XTP	6	192	2
XST	6	192	5
SI_	6	192	5	96	48	7
TAP	7	0	1
TAP	7	48	1
TAP	7	96	0
TAP	7	192	0
TAP	7	192	1
TAP	7	288	0
TAP	7	288	1
TAP	8	0	2
TAP	8	48	2
TAP	8	96	3
TAP	8	192	2
TAP	8	192	3
TAP	8	288	1
TAP	8	288	4
STR	9	0	2
SI_	9	0	2	96	48	0
TAP	9	0	3
TAP	9	192	2
STR	9	192	3
SI_	9	192	3	96	48	7
HLD	10	0	0	48
HLD	10	96	1	48
HLD	10	96	7	48
HLD	10	192	0	48
HLD	10	192	6	48
XTP	10	288	1
XTP	10	288	5
STR	11	0	2
SCL	11	0	2	96	192	5
TAP	11	0	4
TAP	12	0	3
STR	12	0	4
SI_	12	0	4	96	48	0
BRK	12	192	1
BRK	12	288	1
XTP	13	0	2
XTP	13	0	3
XHO	13	48	2	48
XHO	13	48	3	48
XHO	13	192	4	48
XHO	13	192	5	48
XTP	13	336	3
XTP	13	336	4
XTP	14	48	1
XTP	14	48	6
XTP	14	96	1
XTP	14	96	6
XTP	14	144	1
XTP	14	144	6
BRK	14	192	1
BRK	14	192	6
BRK	14	288	2
BRK	14	288	5
HLD	15	0	2	1344
TAP	15	0	5
TAP	15	192	4
TAP	15	288	4
TAP	16	0	3
TAP	16	96	3
TAP	16	192	4
TAP	16	288	3
TAP	17	0	1
TAP	17	96	1
TAP	17	192	3
TAP	17	288	3
HLD	18	0	1	192
BRK	18	288	1
BRK	18	288	3
HLD	19	0	2	1344
TAP	19	96	3
TAP	19	192	3
TAP	19	288	1
TAP	20	0	7
TAP	20	96	7
TAP	20	192	1
TAP	20	288	3
TAP	21	0	4
TAP	21	96	3
TAP	21	192	1
TAP	21	288	3
HLD	22	0	3	192
BRK	22	288	0
BRK	22	288	6
TAP	23	0	5
TAP	23	96	4
TAP	23	96	6
TAP	23	192	3
TAP	23	240	3
TAP	23	288	4
TAP	24	0	2
TAP	24	96	1
TAP	24	96	3
TAP	24	192	4
TAP	24	240	4
TAP	24	288	3
TAP	25	0	4
STR	25	0	6
SI_	25	0	6	96	96	3
STR	25	192	2
SI_	25	192	2	96	96	7
TAP	26	0	6
TAP	26	96	6
TAP	26	192	4
TAP	26	192	5
TAP	26	288	3
TAP	26	288	6
XHO	26	336	3	336
XHO	26	336	6	336
XHO	28	0	2	144
XHO	28	0	4	144
TAP	28	192	2
TAP	28	192	4
BRK	28	288	1
BRK	28	288	5
HLD	29	0	6	96
TAP	29	96	7
TAP	29	192	6
TAP	29	240	7
TAP	29	288	0
HLD	30	0	1	96
TAP	30	96	0
TAP	30	192	1
TAP	30	240	0
HLD	30	288	7	72
XTP	30	360	0
XTP	31	48	1
XTP	31	48	6
XTP	31	96	1
XTP	31	96	6
XTP	31	192	4
XTP	31	192	5
XTP	31	240	4
XTP	31	240	5
XTP	31	288	4
XST	31	288	5
SCL	31	288	5	96	192	7
XTP	32	288	4
XTP	32	288	5
HLD	33	0	3	120
XHO	33	0	6	120
HLD	33	192	2	120
XHO	33	192	5	120
HLD	34	0	1	120
XHO	34	0	4	120
XHO	34	192	2	120
HLD	34	192	3	120
XTP	35	0	4
TAP	35	48	4
TAP	35	96	2
TAP	35	144	2
TAP	35	192	5
TAP	35	240	5
TAP	35	288	1
TAP	35	336	1
HLD	36	0	6	240
BRK	36	240	7
XST	37	0	0
SUL	37	0	0	96	432	3
XST	37	0	7
SCL	37	0	7	96	432	4
TAP	38	288	3
TAP	38	288	4
TAP	38	336	2
TAP	38	336	5
BRK	39	0	1
BRK	39	0	6
TAP	39	96	2
TAP	39	144	3
HLD	39	192	4	72
HLD	39	264	5	72
TAP	39	336	6
STR	40	0	6
SI_	40	0	6	96	48	3
TAP	40	192	1
XTP	40	240	0
XTP	40	240	1
XTP	40	288	0
XTP	40	288	1
TAP	41	0	7
TAP	41	48	6
HLD	41	96	5	72
TAP	41	168	4
XTP	41	240	4
XTP	41	240	5
XTP	41	312	3
XTP	41	312	6
TAP	42	0	7
TAP	42	48	0
STR	42	96	1
SLR	42	96	1	96	144	0
STR	42	96	6
SLL	42	96	6	96	144	0
XTP	43	0	1
XTP	43	0	7
TAP	43	96	0
TAP	43	96	6
HLD	43	192	5	72
HLD	43	264	4	72
TAP	43	336	3
XTP	44	0	2
XTP	44	0	3
XTP	44	72	1
XTP	44	72	5
XTP	44	120	1
XTP	44	120	5
TTP	44	168	0	C	1	M1
TTP	44	168	2	B	0	M1
TTP	44	168	6	B	0	M1
XTP	44	288	0
TAP	45	0	1
TAP	45	0	7
TAP	45	96	2
TAP	45	96	3
TAP	45	144	1
TAP	45	192	0
TAP	45	192	6
TAP	45	288	4
TAP	45	288	5
TAP	45	336	6
HLD	46	0	1	72
TAP	46	0	7
HLD	46	72	2	72
TAP	46	144	3
TAP	46	192	3
TAP	46	288	0
TAP	46	288	1
TAP	46	336	2
TAP	47	0	3
TAP	47	0	5
TAP	47	96	6
TAP	47	96	7
TAP	47	144	5
TAP	47	192	2
HLD	47	192	4	72
HLD	47	264	3	72
TAP	47	336	2
STR	48	0	2
SCL	48	0	2	96	120	6
XTP	48	288	4
XTP	48	288	5
TAP	48	336	4
TAP	48	336	5
STR	49	0	4
SUR	49	0	4	96	96	1
STR	49	0	5
SCR	49	0	5	96	96	0
XST	49	288	2
SXR	49	288	2	96	192	7
XST	49	288	3
SXL	49	288	3	96	192	6
XTP	50	288	0
XTP	50	288	5
TAP	51	0	1
TAP	51	0	6
TAP	51	96	5
TAP	51	144	4
TAP	51	144	5
TAP	51	240	1
TAP	51	288	1
TAP	51	288	3
TAP	52	0	6
TAP	52	48	4
TAP	52	48	6
TAP	52	144	1
TAP	52	144	7
TAP	52	192	1
STR	52	192	7
SI_	52	192	7	96	48	3
STR	52	288	2
SCL	52	288	2	96	192	5
STR	53	288	4
SCR	53	288	4	96	192	3
TTP	54	0	0	C	1	M1
XTP	54	288	2
XTP	54	288	5
XTP	54	336	2
XTP	54	336	5
BRK	55	0	2
BRK	55	0	5
TAP	55	96	6
TAP	55	96	7
TAP	55	144	0
TAP	55	144	5
TAP	55	192	1
TAP	55	192	4
STR	55	288	3
SXL	55	288	3	96	192	3
SXR	55	288	3	96	192	3
TAP	55	288	4
BRK	56	288	0
BST	56	288	7
SI_	56	288	7	96	48	3
TAP	57	96	2
TAP	57	144	2
HLD	57	192	1	72
TAP	57	192	3
HLD	57	264	2	72
TAP	57	336	3
STR	58	0	3
SI_	58	0	3	96	48	7
TAP	58	192	0
XTP	58	240	0
XTP	58	240	6
XTP	58	288	0
XTP	58	288	6
TAP	59	0	1
TAP	59	0	7
TAP	59	48	6
XHO	59	96	3	72
XHO	59	96	5	72
XTP	59	240	2
XTP	59	240	4
XTP	59	312	1
XTP	59	312	5
TAP	60	0	0
TAP	60	48	7
STR	60	96	1
SLR	60	96	1	96	144	0
STR	60	96	6
SLL	60	96	6	96	144	7
XTP	61	0	1
XTP	61	0	6
TAP	61	96	3
TAP	61	96	4
HLD	61	192	5	72
HLD	61	264	4	72
TAP	61	336	3
XTP	62	0	2
XTP	62	0	3
XTP	62	72	4
XTP	62	72	5
XTP	62	120	4
XTP	62	120	5
TTP	62	168	0	C	1	M1
TTP	62	168	2	B	0	M1
TTP	62	168	7	B	0	M1
XTP	62	288	0
XTP	62	288	1
HLD	63	0	1	72
HLD	63	72	2	72
TAP	63	144	3
TAP	63	192	3
TAP	63	192	4
TAP	63	288	1
TAP	63	288	5
HLD	64	0	6	72
HLD	64	72	5	72
TAP	64	144	4
TAP	64	192	3
TAP	64	192	4
TAP	64	288	2
TAP	64	288	6
XTP	65	0	4
XHO	65	0	5	72
XTP	65	72	4
XHO	65	144	2	72
XTP	65	144	3
XTP	65	216	3
XTP	65	288	0
XHO	65	288	1	72
XTP	65	360	0
XTP	66	48	0
XTP	66	48	7
XTP	66	120	1
XTP	66	120	6
BRK	66	192	3
BRK	66	192	4
TAP	66	288	4
TAP	66	288	5
TAP	66	336	4
TAP	66	336	5
BRK	67	0	3
BST	67	0	6
SUL	67	0	6	96	192	3
STR	67	288	1
SCL	67	288	1	96	192	4
XTP	68	288	2
XTP	68	288	3
XTP	69	0	1
XTP	69	0	6
TAP	69	96	4
TAP	69	96	5
TAP	69	144	3
TAP	69	144	6
TAP	69	240	2
TAP	69	240	3
TAP	69	288	1
TAP	69	288	4
TAP	70	0	6
TAP	70	0	7
TAP	70	48	0
TAP	70	48	5
TAP	70	144	0
TAP	70	144	1
TAP	70	192	2
TAP	70	192	7
STR	70	288	4
SCL	70	288	4	96	192	1
SCR	70	288	4	96	192	7
TAP	70	288	5
XTP	71	336	1
XTP	71	336	7
XHO	72	0	1	288
XHO	72	0	7	768
THO	73	0	0	384	C	0	M1
XST	74	168	0
SXL	74	168	0	96	312	3
XST	74	168	7
SXR	74	168	7	96	312	4
XTP	75	360	2
XTP	75	360	5
XTP	76	24	3
XTP	76	48	4
XTP	76	72	3
XTP	76	96	4
XHO	76	192	1	288
XHO	76	192	6	288
TAP	77	192	2
TAP	77	192	5
TAP	77	240	4
STR	77	264	3
SCL	77	264	3	96	120	7
TAP	77	288	4
TAP	77	312	3

T_REC_TAP	186
T_REC_BRK	21
T_REC_XTP	103
T_REC_HLD	34
T_REC_XHO	24
T_REC_STR	22
T_REC_BST	2
T_REC_XST	10
T_REC_TTP	7
T_REC_THO	1
T_REC_SLD	36
T_REC_ALL	446
T_NUM_TAP	328
T_NUM_BRK	23
T_NUM_HLD	59
T_NUM_SLD	36
T_NUM_ALL	446
T_JUDGE_TAP	351
T_JUDGE_HLD	237
T_JUDGE_SLD	36
T_JUDGE_ALL	624
TTM_EACHPAIRS	136
TTM_SCR_TAP	164000
TTM_SCR_BRK	59800
TTM_SCR_HLD	59000
TTM_SCR_SLD	54000
TTM_SCR_ALL	336800
TTM_SCR_S	324500
TTM_SCR_SS	334500
TTM_RAT_ACV	10068

