VERSION	0.00.00	1.03.00
FES_MODE	0
BPM_DEF	132.000	132.000	132.000	132.000
MET_DEF	4	4
RESOLUTION	384
CLK_DEF	384
COMPATIBLE_CODE	MA2

BPM	0	0	132.000
MET	0	0	4	4

STR	2	0	7
SCL	2	0	7	96	432	1
STR	4	0	0
SI_	4	0	0	96	144	4
XTP	5	0	5
XTP	5	96	5
XTP	5	192	4
XTP	5	288	4
XTP	6	0	3
XTP	6	0	4
XTP	6	96	3
XTP	6	96	4
XHO	6	192	2	96
XHO	6	192	5	96
TAP	7	0	6
TAP	7	96	6
TAP	7	192	7
TAP	7	288	7
TAP	8	0	0
TAP	8	96	0
TAP	8	192	1
TAP	8	192	7
HLD	9	0	2	192
HLD	9	192	3	192
HLD	10	0	4	192
TAP	10	192	5
TAP	11	0	6
BRK	11	96	6
TAP	11	192	7
TAP	11	288	7
TAP	12	0	0
XTP	12	96	0
TAP	12	192	1
TAP	12	192	7
HLD	13	0	2	96
HLD	13	0	3	96
HLD	13	192	4	96
HLD	13	192	5	96
XTP	14	0	3
XTP	14	0	4
XTP	14	96	3
XTP	14	96	4
BRK	14	192	2
BRK	14	192	5
STR	15	0	6
SCL	15	0	6	96	144	3
TAP	16	0	2
TAP	16	96	2
TAP	16	192	2
TAP	16	192	3
TAP	17	0	5
TAP	17	96	5
TAP	17	192	4
TAP	17	288	4
TAP	18	0	3
TAP	18	96	3
HLD	18	192	2	96
HLD	18	192	4	96
STR	19	0	1
SCR	19	0	1	96	144	4
TAP	20	0	5
TAP	20	96	5
TAP	20	192	4
TAP	20	192	5
TAP	21	0	2
TAP	21	96	2
TAP	21	192	3
TAP	21	288	3
HLD	22	0	3	192
HLD	22	0	4	192
STR	23	0	5
SCR	23	0	5	96	144	0
STR	24	0	1
SUR	24	0	1	96	144	5
STR	25	0	6
SUL	25	0	6	96	144	2
TAP	26	0	1
TAP	26	96	0
TAP	26	192	7
TAP	26	288	6
STR	27	0	4
SCL	27	0	4	96	144	1
STR	27	0	5
SCR	27	0	5	96	144	0
STR	28	0	2
SCL	28	0	2	96	144	7
STR	28	0	3
SCR	28	0	3	96	144	6
TTP	29	0	7	E	0	L1
TTP	29	96	6	B	0	L1
TTP	29	192	5	B	0	L1
TTP	30	0	1	E	0	L1
TTP	30	96	1	B	0	L1
TTP	30	192	2	B	0	L1
TTP	31	0	5	B	0	L1
TTP	31	96	4	B	0	L1
TTP	31	192	3	B	0	L1
TTP	31	288	2	B	0	L1
TTP	32	0	0	C	1	L1
TTP	33	0	1	E	0	L1
TTP	33	0	7	E	0	L1
TTP	33	192	1	B	0	L1
TTP	33	192	6	B	0	L1
TTP	34	0	2	B	0	L1
TTP	34	0	5	B	0	L1
TTP	34	192	3	E	0	L1
TTP	34	192	5	E	0	L1
XTP	35	0	6
XTP	35	96	7
XTP	35	192	0
XTP	35	288	1
XHO	36	0	0	240
XHO	36	0	7	240
BST	37	0	0
SXL	37	0	0	96	432	3
BST	37	0	7
SXR	37	0	7	96	432	4
TAP	39	0	5
TAP	39	96	5
TAP	39	192	4
TAP	39	192	5
TAP	39	288	4
TAP	39	288	5
TAP	40	0	6
TAP	40	96	7
TAP	40	192	0
TAP	40	192	6
TAP	41	0	1
TAP	41	96	1
TAP	41	192	0
TAP	41	192	1
TAP	41	288	0
TAP	41	288	1
TAP	42	0	2
TAP	42	96	3
TAP	42	192	2
TAP	42	192	4
HLD	43	0	3	96
HLD	43	0	5	96
HLD	43	192	2	96
HLD	43	192	4	96
TAP	44	0	3
TAP	44	0	5
TAP	44	96	2
TAP	44	96	6
TAP	44	192	1
TAP	44	192	7
TAP	45	0	6
TAP	45	96	6
TAP	45	192	6
TAP	45	192	7
TAP	45	288	6
TAP	45	288	7
TAP	46	0	5
TAP	46	96	4
TAP	46	192	3
TAP	46	192	5
TAP	47	0	2
TAP	47	96	2
TAP	47	192	2
TAP	47	192	3
TAP	47	288	2
TAP	47	288	3
TAP	48	0	1
TAP	48	96	0
TAP	48	192	1
TAP	48	192	7
STR	49	0	6
SCL	49	0	6	96	192	2
STR	50	0	1
SCR	50	0	1	96	192	5
TAP	51	0	6
TAP	51	96	7
TAP	51	192	0
TAP	51	288	1
TAP	52	0	2
TAP	52	96	3
TAP	52	192	4
TAP	52	288	5
STR	53	0	3
SCL	53	0	3	96	144	0
STR	53	0	4
SCR	53	0	4	96	144	7
TTP	54	0	0	C	1	L1
TAP	55	0	6
TAP	55	96	6
TAP	55	96	7
TAP	55	192	6
TAP	55	288	6
TAP	55	288	7
TAP	56	0	5
TAP	56	96	4
TAP	56	192	3
TAP	56	192	5
TAP	57	0	2
TAP	57	96	2
TAP	57	96	3
TAP	57	192	2
TAP	57	288	2
TAP	57	288	3
TAP	58	0	1
TAP	58	96	0
TAP	58	192	1
TAP	58	192	7
HLD	59	0	6	96
TAP	59	96	7
TAP	59	192	6
TAP	59	192	7
HLD	60	0	1	96
TAP	60	96	0
TAP	60	192	0
TAP	60	192	1
TAP	61	0	2
TAP	61	96	2
TAP	61	192	3
TAP	61	288	3
TAP	62	0	3
TAP	62	0	4
TAP	62	96	3
TAP	62	96	4
TAP	62	192	2
TAP	62	192	5
STR	63	0	0
SCL	63	0	0	96	144	5
STR	63	0	1
SCR	63	0	1	96	144	4
STR	64	0	6
SCL	64	0	6	96	144	3
STR	64	0	7
SCR	64	0	7	96	144	2
TAP	65	0	1
TAP	65	96	1
TAP	65	192	0
TAP	65	288	0
TAP	66	0	7
TAP	66	96	7
TAP	66	192	0
TAP	66	192	6
STR	67	0	1
SUR	67	0	1	96	144	5
STR	68	0	6
SUL	68	0	6	96	144	2
TAP	69	0	1
TAP	69	96	0
TAP	69	192	7
TAP	69	288	6
TAP	70	0	5
TAP	70	96	4
TAP	70	192	3
TAP	70	288	2
STR	71	0	1
SCR	71	0	1	96	144	4
STR	72	0	5
SCR	72	0	5	96	144	0
TTP	73	0	0	C	1	L1
XST	74	0	0
SXL	74	0	0	96	384	3
XST	74	0	7
SXR	74	0	7	96	384	4
XTP	76	0	3
XTP	76	0	4
XTP	76	96	3
XTP	76	96	4
TAP	76	192	5
TAP	76	288	4
TAP	77	0	3
STR	77	96	2
SCL	77	96	2	96	384	5

T_REC_TAP	146
T_REC_BRK	3
T_REC_XTP	21
T_REC_HLD	17
T_REC_XHO	4
T_REC_STR	24
T_REC_BST	2
T_REC_XST	2
T_REC_TTP	21
T_REC_THO	0
T_REC_SLD	28
T_REC_ALL	268
T_NUM_TAP	214
T_NUM_BRK	5
T_NUM_HLD	21
T_NUM_SLD	28
T_NUM_ALL	268
T_JUDGE_TAP	219
T_JUDGE_HLD	58
T_JUDGE_SLD	28
T_JUDGE_ALL	305
TTM_EACHPAIRS	53
TTM_SCR_TAP	107000
TTM_SCR_BRK	13000
TTM_SCR_HLD	21000
TTM_SCR_SLD	42000
TTM_SCR_ALL	183000
TTM_SCR_S	177050
TTM_SCR_SS	182500
TTM_RAT_ACV	10027

