VERSION	0.00.00	1.03.00
FES_MODE	0
BPM_DEF	132.000	132.000	132.000	132.000
MET_DEF	4	4
RESOLUTION	384
CLK_DEF	384
COMPATIBLE_CODE	MA2

BPM	0	0	132.000
MET	0	0	4	4

TAP	7	0	0
TAP	8	0	0
TAP	9	0	0
TAP	10	0	0
TAP	11	0	7
TAP	12	0	7
HLD	13	0	7	336
TAP	15	0	0
TAP	15	192	0
TAP	16	0	0
TAP	17	0	1
TAP	17	192	1
TAP	18	0	1
TAP	19	0	2
TAP	19	192	2
TAP	20	0	2
TAP	21	0	3
TAP	21	192	3
TAP	22	0	3
TAP	22	0	4
HLD	23	0	4	384
HLD	25	0	5	384
HLD	27	0	6	384
HLD	27	0	7	384
HLD	29	0	0	384
HLD	29	0	1	384
XHO	31	0	0	384
XHO	31	0	7	384
STR	33	0	7
SI_	33	0	7	96	288	4
STR	35	0	0
SI_	35	0	0	96	288	3
BRK	37	0	7
TAP	37	192	7
TAP	38	0	6
TAP	38	192	6
TAP	39	0	5
TAP	39	192	5
TAP	40	0	3
TAP	40	0	4
TAP	40	192	3
TAP	40	192	4
TAP	41	0	3
TAP	41	192	3
TAP	42	0	2
TAP	42	192	2
TAP	43	0	1
TAP	43	192	1
XTP	44	0	0
XTP	44	0	7
TAP	45	0	0
TAP	45	192	0
TAP	46	0	1
TAP	46	192	1
TAP	47	0	2
TAP	47	192	2
TAP	48	0	3
TAP	48	0	4
TAP	48	192	3
TAP	48	192	4
TAP	49	0	5
TAP	49	192	5
TAP	50	0	6
TAP	50	192	6
HLD	51	0	0	384
HLD	51	0	7	384
HLD	53	0	0	384
HLD	53	0	7	384
TAP	55	0	7
TAP	55	192	7
TAP	56	0	6
TAP	56	96	6
TAP	56	192	6
TAP	57	0	5
TAP	57	192	5
TAP	58	0	4
TAP	58	96	4
TAP	58	192	3
TAP	58	192	4
TAP	59	0	3
TAP	59	192	3
TAP	60	0	2
TAP	60	96	2
TAP	60	192	2
TAP	61	0	1
TAP	61	192	1
XTP	62	0	0
XTP	62	0	7
TAP	63	0	0
TAP	63	192	0
TAP	64	0	1
TAP	64	96	1
TAP	64	192	1
TAP	65	0	2
TAP	65	192	2
TAP	66	0	3
TAP	66	96	3
TAP	66	192	3
TAP	66	192	4
TAP	67	0	4
TAP	67	192	4
TAP	68	0	5
TAP	68	96	5
TAP	68	192	5
HLD	69	0	6	192
HLD	69	0	7	192
HLD	70	0	0	192
HLD	70	0	1	192
HLD	71	0	0	192
HLD	71	0	7	192
STR	72	0	0
SI_	72	0	0	96	288	3
STR	72	0	7
SI_	72	0	7	96	288	4
STR	74	0	3
SI_	74	0	3	96	288	0
STR	74	0	4
SI_	74	0	4	96	288	7
XTP	76	0	0
XTP	76	0	7
XTP	76	96	0
XTP	76	96	7
BRK	76	192	1
BRK	76	192	6
THO	77	192	0	168	C	1	L1
TTP	77	192	2	B	0	L1
TTP	77	192	5	B	0	L1

T_REC_TAP	82
T_REC_BRK	3
T_REC_XTP	8
T_REC_HLD	17
T_REC_XHO	2
T_REC_STR	6
T_REC_BST	0
T_REC_XST	0
T_REC_TTP	2
T_REC_THO	1
T_REC_SLD	6
T_REC_ALL	127
T_NUM_TAP	98
T_NUM_BRK	3
T_NUM_HLD	20
T_NUM_SLD	6
T_NUM_ALL	127
T_JUDGE_TAP	101
T_JUDGE_HLD	131
T_JUDGE_SLD	6
T_JUDGE_ALL	238
TTM_EACHPAIRS	22
TTM_SCR_TAP	49000
TTM_SCR_BRK	7800
TTM_SCR_HLD	20000
TTM_SCR_SLD	9000
TTM_SCR_ALL	85800
TTM_SCR_S	82950
TTM_SCR_SS	85500
TTM_RAT_ACV	10035

