VERSION	0.00.00	1.03.00
FES_MODE	0
BPM_DEF	300.000	300.000	300.000	300.000
MET_DEF	4	4
RESOLUTION	384
CLK_DEF	384
COMPATIBLE_CODE	MA2

BPM	0	0	300.000
MET	0	0	4	4

HLD	2	0	1	384
XTP	2	0	3
TAP	2	288	3
HLD	3	0	3	384
TAP	3	288	4
HLD	4	0	4	384
TAP	4	288	5
HLD	5	0	5	576
TAP	5	288	4
HLD	6	0	4	192
HLD	6	336	3	240
HLD	7	0	4	192
HLD	7	336	2	240
HLD	8	0	3	192
TAP	8	288	2
TAP	8	288	3
TAP	9	0	4
TAP	9	48	3
TAP	9	96	4
TAP	9	144	3
TAP	9	192	4
HLD	10	0	3	48
HLD	10	96	3	48
HLD	10	192	3	48
HLD	10	288	3	48
HLD	11	0	3	48
HLD	11	0	4	48
HLD	11	96	3	48
HLD	11	96	4	48
HLD	11	192	3	48
HLD	11	192	4	48
HLD	11	288	3	48
HLD	11	288	4	48
HLD	12	0	4	48
HLD	12	96	4	48
HLD	12	192	4	48
HLD	12	288	4	48
HLD	13	0	3	48
HLD	13	0	4	48
HLD	13	96	3	48
HLD	13	96	4	48
HLD	13	192	3	48
HLD	13	192	4	48
HLD	13	288	3	48
HLD	13	288	4	48
HLD	14	0	2	48
HLD	14	0	4	48
HLD	14	96	2	48
HLD	14	96	4	48
HLD	14	192	2	48
HLD	14	192	4	48
HLD	14	288	2	48
HLD	14	288	4	48
HLD	15	0	3	48
HLD	15	0	5	48
HLD	15	96	3	48
HLD	15	96	5	48
HLD	15	192	3	48
HLD	15	192	5	48
HLD	15	288	3	48
HLD	15	288	5	48
TAP	16	0	2
TAP	16	192	1
HLD	17	0	0	192
TAP	17	0	4
TTP	17	192	4	E	0	M1
TTP	17	204	0	C	1	M1
TTP	17	228	0	E	0	M1
HLD	18	0	0	24
HLD	18	0	1	48
HLD	18	96	3	48
HLD	18	96	5	48
HLD	18	192	0	48
HLD	18	192	1	48
HLD	18	288	2	48
HLD	18	288	4	24
HLD	19	0	1	48
HLD	19	0	7	24
HLD	19	96	3	24
HLD	19	96	5	48
HLD	19	192	0	48
HLD	19	192	1	24
HLD	19	288	2	24
HLD	19	288	4	48
HLD	20	0	1	48
HLD	20	0	7	24
HLD	20	96	4	24
HLD	20	96	6	48
HLD	20	192	0	48
HLD	20	192	1	24
HLD	20	288	3	24
HLD	20	288	5	48
THO	21	0	0	192	C	0	M1
HLD	22	0	6	48
HLD	22	0	7	24
HLD	22	96	2	24
HLD	22	96	4	48
HLD	22	192	0	48
HLD	22	192	6	24
HLD	22	288	2	24
HLD	22	288	4	48
XTP	23	0	3
XTP	23	32	4
XTP	23	64	3
XTP	23	96	4
XTP	23	128	3
XTP	23	160	4
XTP	23	192	2
XTP	23	224	5
XTP	23	256	2
XTP	23	288	5
XTP	23	320	2
XTP	23	352	5
XTP	24	0	3
XTP	24	0	4
XTP	24	96	3
XTP	24	96	4
BRK	24	192	1
BRK	24	192	6
BRK	24	288	1
BRK	24	288	6
TTP	25	0	3	E	0	M1
TTP	25	24	4	E	0	M1
TTP	25	48	5	E	0	M1
TTP	25	72	6	E	0	M1
TTP	25	96	7	E	0	M1
TTP	25	120	0	E	0	M1
TTP	25	144	1	E	0	M1
TTP	25	168	2	E	0	M1
TTP	25	192	3	E	0	M1
TTP	25	216	4	E	0	M1
TTP	25	240	5	E	0	M1
TTP	25	264	6	E	0	M1
TTP	25	288	7	E	0	M1
TTP	25	312	0	E	0	M1
TTP	25	336	1	E	0	M1
TTP	25	360	2	E	0	M1
THO	26	0	0	768	C	0	M1
TTP	26	0	3	E	0	M1
TAP	29	0	2
TAP	29	0	5
TAP	29	96	2
TAP	29	96	5
TAP	29	192	3
TAP	29	192	4
TAP	30	0	2
TAP	30	48	3
TAP	30	96	2
TAP	30	144	3
TAP	30	192	2
TAP	30	288	2
TAP	30	288	3
TAP	31	0	1
TAP	31	0	4
TAP	31	96	1
TAP	31	96	4
TAP	31	192	3
TAP	31	192	4
TAP	31	288	3
TAP	31	288	4
STR	32	0	1
SI_	32	0	1	96	48	3
TAP	32	0	4
TAP	32	96	4
STR	32	192	0
SI_	32	192	0	96	48	3
TAP	32	192	4
TAP	32	288	4
TAP	33	0	2
TAP	33	0	4
TAP	33	96	2
TAP	33	96	4
HLD	33	192	3	48
HLD	33	192	4	48
HLD	33	288	3	48
HLD	33	288	4	48
TAP	34	0	2
TAP	34	48	3
TAP	34	96	2
TAP	34	144	3
TAP	34	192	2
TAP	34	288	2
TAP	34	288	3
TAP	35	0	1
TAP	35	0	4
TAP	35	96	3
TAP	35	96	4
TAP	35	192	2
TAP	35	192	4
TAP	35	288	1
TAP	35	288	4
BRK	36	0	0
BRK	36	0	5
TTP	36	192	3	B	0	M1
TTP	36	192	4	B	0	M1
TTP	36	192	4	E	0	M1
TTP	36	288	0	B	0	M1
TTP	36	288	0	E	0	M1
TTP	36	288	7	B	0	M1
TTP	37	0	0	C	1	M1
TTP	37	0	2	B	0	M1
TTP	37	0	5	B	0	M1
XTP	37	288	6
XTP	37	288	7
TAP	38	0	5
TAP	38	48	4
TAP	38	96	5
TAP	38	144	4
TAP	38	192	5
TAP	38	288	4
TAP	38	288	5
TAP	39	0	3
TAP	39	0	6
TAP	39	96	3
TAP	39	96	6
TAP	39	192	3
TAP	39	192	5
TAP	39	288	3
TAP	39	288	4
TAP	40	0	3
STR	40	0	6
SI_	40	0	6	96	48	4
TAP	40	96	3
TAP	40	192	3
STR	40	192	7
SI_	40	192	7	96	48	4
TAP	40	288	3
TAP	41	0	3
TAP	41	0	6
TAP	41	96	3
TAP	41	96	6
HLD	41	192	3	48
HLD	41	192	4	48
HLD	41	288	3	48
HLD	41	288	4	48
TAP	42	0	5
TAP	42	48	4
TAP	42	96	6
TAP	42	144	4
TAP	42	192	5
HLD	42	240	4	96
TAP	42	336	5
TAP	43	48	3
TAP	43	96	5
TAP	43	144	2
TAP	43	192	4
TAP	43	240	1
TAP	43	288	3
TAP	43	336	0
TTP	44	0	0	C	1	M1
TTP	44	0	1	B	0	M1
TTP	44	0	1	E	0	M1
TTP	44	0	2	B	0	M1
TTP	44	0	3	E	0	M1
TTP	44	192	0	C	1	M1
TTP	44	192	5	B	0	M1
TTP	44	192	5	E	0	M1
TTP	44	192	6	B	0	M1
TTP	44	192	7	E	0	M1
TTP	45	0	0	B	0	M1
TTP	45	0	0	C	1	M1
TTP	45	0	0	E	0	M1
TTP	45	0	3	B	0	M1
TTP	45	0	4	B	0	M1
TTP	45	0	4	E	0	M1
TTP	45	0	7	B	0	M1
STR	46	0	6
SCL	46	0	6	96	480	1
TTP	47	0	0	E	0	M1
STR	48	0	1
SCR	48	0	1	96	480	5
TTP	49	0	0	C	0	M1
STR	50	0	5
SCL	50	0	5	96	480	2
TTP	51	0	4	E	0	M1
THO	52	0	0	384	C	0	M1
TTP	53	0	1	B	0	M1
TTP	53	0	6	B	0	M1
TTP	53	192	3	B	0	M1
TTP	53	192	4	B	0	M1
TAP	54	0	5
TAP	54	96	5
TAP	54	192	4
TAP	54	192	5
TAP	54	288	4
TAP	54	288	5
TAP	55	0	5
TAP	55	96	5
TAP	55	192	3
TAP	55	192	6
TAP	55	288	5
TAP	55	336	4
TAP	56	0	5
TAP	56	96	4
TAP	56	96	5
TAP	56	192	3
TAP	56	192	6
STR	56	288	7
SI_	56	288	7	96	48	5
STR	57	0	1
SI_	57	0	1	96	48	3
TAP	57	96	4
TAP	57	192	4
TAP	57	192	5
STR	57	288	6
SI_	57	288	6	96	48	4
STR	58	0	0
SI_	58	0	0	96	48	2
TAP	58	96	3
TAP	58	192	3
TAP	58	288	2
TAP	58	288	3
TAP	59	0	3
TAP	59	0	4
TAP	59	96	4
TAP	59	96	5
TAP	59	192	4
TAP	59	192	5
TAP	59	288	5
TAP	59	336	4
STR	60	0	6
SCR	60	0	6	96	96	2
STR	60	96	2
SV_	60	96	2	96	96	4
TAP	60	192	3
TAP	60	288	3
STR	61	0	1
SCL	61	0	1	96	96	5
STR	61	96	5
SV_	61	96	5	96	96	3
TAP	61	192	4
TAP	61	288	4
TAP	62	0	2
TAP	62	96	2
TAP	62	192	2
TAP	62	192	3
TAP	62	288	2
TAP	62	288	3
TAP	63	0	2
TAP	63	0	4
TAP	63	96	2
TAP	63	96	3
TAP	63	192	2
TAP	63	192	4
TAP	63	288	2
TAP	63	336	3
TAP	64	0	2
TAP	64	96	2
TAP	64	96	5
TAP	64	192	2
TAP	64	192	4
STR	64	288	0
SI_	64	288	0	96	48	2
STR	65	0	5
SI_	65	0	5	96	48	3
STR	65	96	0
SI_	65	96	0	96	48	4
STR	65	192	6
SI_	65	192	6	96	48	2
TAP	65	288	0
TAP	66	0	1
TAP	66	96	1
TAP	66	96	3
TAP	66	192	2
TAP	66	192	3
TAP	66	288	1
TAP	66	288	3
TAP	67	0	2
TAP	67	0	3
TAP	67	96	2
TAP	67	96	3
TAP	67	192	1
TAP	67	192	3
TAP	67	288	2
TAP	67	336	3
STR	68	0	1
SCL	68	0	1	96	96	5
STR	68	96	5
SV_	68	96	5	96	96	3
TAP	68	192	4
STR	68	288	4
SF_	68	288	4	96	48	0
TTP	69	0	0	C	1	M1
HLD	70	0	4	48
TAP	70	0	6
HLD	70	96	4	48
TAP	70	96	6
HLD	70	192	4	48
TAP	70	192	6
HLD	70	288	4	48
TAP	70	288	6
HLD	71	0	4	48
TAP	71	0	5
HLD	71	96	4	48
TAP	71	96	5
HLD	71	192	4	48
TAP	71	192	5
HLD	71	288	4	48
TAP	71	288	5
HLD	72	0	4	48
TAP	72	0	6
HLD	72	96	4	48
TAP	72	96	5
TAP	72	192	3
HLD	72	192	4	48
TAP	72	288	2
HLD	72	288	4	48
TAP	73	0	3
HLD	73	0	4	48
TAP	73	96	3
HLD	73	96	4	48
TAP	73	192	2
TAP	73	192	3
TAP	73	288	2
TAP	73	288	4
STR	74	0	1
SI_	74	0	1	96	48	3
HLD	74	0	5	48
HLD	74	96	5	48
STR	74	192	0
SI_	74	192	0	96	48	4
HLD	74	192	5	48
HLD	74	288	5	48
STR	75	0	1
SI_	75	0	1	96	48	3
HLD	75	0	5	48
HLD	75	96	5	48
HLD	75	192	0	24
HLD	75	192	5	48
HLD	75	288	4	24
HLD	75	288	5	48
HLD	76	0	5	48
HLD	76	0	7	24
HLD	76	96	3	24
HLD	76	96	5	48
HLD	76	192	4	24
HLD	76	192	5	48
HLD	76	288	4	24
HLD	76	288	5	48
XTP	77	0	3
XTP	77	24	2
XTP	77	48	1
XTP	77	72	0
XTP	77	96	7
XTP	77	120	6
XTP	77	144	5
XTP	77	168	4
XTP	77	192	3
BRK	77	192	7
TAP	78	0	1
HLD	78	0	3	48
TAP	78	96	1
HLD	78	96	3	48
TAP	78	192	1
HLD	78	192	3	48
TAP	78	288	1
HLD	78	288	3	48
HLD	79	0	3	48
TAP	79	0	4
HLD	79	96	3	48
TAP	79	96	4
HLD	79	192	3	48
TAP	79	192	4
HLD	79	288	3	48
TAP	79	288	4
TAP	80	0	1
HLD	80	0	3	48
TAP	80	96	2
HLD	80	96	3	48
HLD	80	192	3	48
TAP	80	192	4
HLD	80	288	3	48
TAP	80	288	5
HLD	81	0	3	48
TAP	81	0	4
HLD	81	96	3	48
TAP	81	96	4
TAP	81	192	4
TAP	81	192	5
TAP	81	288	3
TAP	81	288	5
HLD	82	0	2	48
HLD	82	0	5	24
HLD	82	96	2	48
HLD	82	96	3	48
HLD	82	192	1	48
HLD	82	192	2	48
HLD	82	288	2	48
HLD	82	288	7	48
HLD	83	0	2	48
HLD	83	0	4	48
HLD	83	96	2	48
HLD	83	96	6	48
HLD	83	192	4	32
HLD	83	192	5	64
HLD	83	288	2	64
HLD	83	288	3	32
XTP	84	0	4
XTP	84	32	3
XTP	84	64	4
XTP	84	96	3
XTP	84	128	4
XTP	84	160	3
XTP	84	192	5
XTP	84	224	2
XTP	84	256	5
XTP	84	288	1
XTP	84	320	6
XTP	84	352	1
TTP	85	0	0	C	1	M1
TAP	85	288	2
TAP	85	288	5
HLD	86	0	3	48
TAP	86	48	4
HLD	86	96	3	48
TAP	86	144	4
HLD	86	192	3	48
TAP	86	240	4
HLD	86	288	3	48
TAP	86	336	4
HLD	87	0	2	48
TAP	87	48	4
HLD	87	96	2	48
TAP	87	144	4
HLD	87	192	2	48
TAP	87	240	4
HLD	87	288	2	48
TAP	87	336	4
STR	88	0	1
SI_	88	0	1	96	48	3
STR	88	96	0
SI_	88	96	0	96	48	4
STR	88	192	1
SI_	88	192	1	96	48	3
STR	88	288	0
SI_	88	288	0	96	48	4
STR	89	0	1
SI_	89	0	1	96	48	3
STR	89	96	0
SI_	89	96	0	96	48	4
BRK	89	192	1
BRK	89	288	3
BRK	89	288	5
HLD	90	0	6	48
TAP	90	48	3
HLD	90	96	6	48
TAP	90	144	3
HLD	90	192	6	48
TAP	90	240	3
HLD	90	288	6	48
TAP	90	336	3
HLD	91	0	4	48
TAP	91	48	3
HLD	91	96	4	48
TAP	91	144	3
HLD	91	192	4	48
TAP	91	240	3
STR	91	288	2
SUL	91	288	2	96	192	6
HLD	91	288	5	288
TAP	93	0	6
TAP	93	0	7
TAP	93	96	6
TAP	93	96	7
TTP	93	192	0	B	0	M1
TTP	93	192	0	E	0	M1
TTP	93	192	1	E	0	M1
TTP	93	288	2	B	0	M1
TTP	93	288	2	E	0	M1
TTP	93	288	3	E	0	M1
XHO	94	0	5	48
TAP	94	48	3
HLD	94	96	5	48
TAP	94	144	3
HLD	94	192	4	48
TAP	94	240	2
HLD	94	288	4	48
TAP	94	336	2
HLD	95	0	4	48
TAP	95	48	3
HLD	95	96	4	48
TAP	95	144	3
HLD	95	192	5	48
TAP	95	240	2
HLD	95	288	5	48
TAP	95	336	2
XHO	96	0	4	48
XHO	96	0	6	24
HLD	96	96	3	24
HLD	96	96	4	48
HLD	96	192	1	48
HLD	96	192	3	24
HLD	96	288	1	24
HLD	96	288	3	48
XTP	97	0	1
XTP	97	16	2
XTP	97	32	3
XTP	97	48	4
XTP	97	64	5
XTP	97	80	6
XTP	97	96	7
XTP	97	112	0
XTP	97	128	1
XTP	97	144	2
XTP	97	160	3
XTP	97	176	4
XTP	97	192	5
XTP	97	208	6
XTP	97	224	7
XTP	97	240	0
XTP	97	256	1
XTP	97	272	2
XTP	97	288	3
XHO	98	0	5	48
XHO	98	0	6	48
HLD	98	96	5	48
HLD	98	96	6	48
HLD	98	192	5	48
HLD	98	192	6	48
HLD	98	288	5	48
HLD	98	288	6	48
HLD	99	0	4	48
HLD	99	0	5	48
HLD	99	96	5	48
HLD	99	96	6	48
HLD	99	192	6	48
HLD	99	192	7	48
STR	99	288	0
SSL	99	288	0	96	192	4
STR	99	288	7
SSR	99	288	7	96	192	3
XTP	101	0	5
XTP	101	32	4
XTP	101	64	3
XTP	101	96	2
XTP	101	128	3
XTP	101	160	4
XTP	101	192	5
XTP	101	224	4
XTP	101	256	3
XTP	101	288	2
XTP	101	320	3
XTP	101	352	4
TTP	102	0	0	C	1	M1
XTP	102	0	5
BST	104	0	2
SUR	104	0	2	96	480	5
SSL	104	0	2	96	480	6
BST	106	0	2
SSR	106	0	2	96	480	6
SXR	106	0	2	96	480	5
BST	108	0	2
SSL	108	0	2	96	480	6
SXL	108	0	2	96	480	5
BST	110	0	2
SUR	110	0	2	96	480	5
SSR	110	0	2	96	480	6
HLD	112	0	7	48
HLD	112	96	7	48
HLD	112	192	7	48
HLD	112	288	7	48
HLD	113	0	6	48
HLD	113	96	6	48
HLD	113	192	6	48
HLD	113	288	6	48
HLD	114	0	5	48
HLD	114	96	5	48
HLD	114	192	4	48
HLD	114	288	4	48
HLD	115	0	3	48
HLD	115	96	2	48
HLD	115	192	1	48
HLD	115	288	0	48
XTP	116	0	0
XTP	116	0	7
XTP	116	24	1
XTP	116	48	2
XTP	116	72	3
XTP	116	96	6
XTP	116	120	5
XTP	116	144	4
XTP	116	168	3
XTP	116	192	1
XTP	116	216	2
XTP	116	240	3
XTP	116	264	4
XTP	116	288	6
XTP	116	312	5
XTP	116	336	4
XTP	116	360	3
TTP	117	0	1	E	0	M1
TTP	117	32	2	E	0	M1
TTP	117	64	3	E	0	M1
TTP	117	96	7	E	0	M1
TTP	117	128	6	E	0	M1
TTP	117	160	5	E	0	M1
TTP	117	192	0	B	0	M1
TTP	117	216	1	B	0	M1
TTP	117	240	2	B	0	M1
TTP	117	264	3	B	0	M1
TTP	117	288	7	B	0	M1
TTP	117	312	6	B	0	M1
TTP	117	336	5	B	0	M1
TTP	117	360	4	B	0	M1
TTP	118	0	0	C	1	M1
STR	119	288	2
SI_	119	288	2	96	48	7
TAP	119	288	7
BST	120	0	6
SI_	120	0	6	96	48	3
STR	120	96	1
SI_	120	96	1	96	48	4
STR	120	192	5
SI_	120	192	5	96	48	0
STR	120	288	2
SI_	120	288	2	96	48	7
STR	121	0	6
SI_	121	0	6	96	48	3
STR	121	96	2
SI_	121	96	2	96	48	6
STR	121	192	7
SI_	121	192	7	96	48	2
STR	121	288	3
SI_	121	288	3	96	48	7
STR	122	0	6
SI_	122	0	6	96	48	3
STR	122	96	2
SI_	122	96	2	96	48	7
STR	122	192	5
SI_	122	192	5	96	48	0
TAP	122	288	2
BRK	123	0	7
BRK	123	96	1
BRK	123	96	3
BRK	123	192	4
BRK	123	192	6
BRK	123	288	0
BRK	123	288	7
BRK	124	0	2
BRK	124	0	6
TAP	124	96	4
TAP	124	96	5
TAP	124	192	0
TAP	124	192	2
TAP	124	288	5
TAP	124	288	7
BRK	125	0	1
BRK	125	0	3
TAP	125	96	4
TAP	125	96	6
TAP	125	192	0
TAP	125	192	1
STR	125	288	2
SI_	125	288	2	96	48	7
TAP	125	288	7
STR	126	0	6
SI_	126	0	6	96	48	3
STR	126	96	1
SI_	126	96	1	96	48	5
STR	126	192	4
SI_	126	192	4	96	48	0
STR	126	288	3
SCL	126	288	3	96	192	5
XTP	127	0	7
XTP	127	192	3
STR	128	0	1
SI_	128	0	1	96	48	6
TAP	128	0	6
BST	128	96	5
SI_	128	96	5	96	48	2
STR	128	192	0
SI_	128	192	0	96	48	3
STR	128	288	4
SI_	128	288	4	96	48	7
STR	129	0	1
SI_	129	0	1	96	48	5
STR	129	96	6
SI_	129	96	6	96	48	1
STR	129	192	2
SI_	129	192	2	96	48	6
STR	129	288	7
SI_	129	288	7	96	48	3
STR	130	0	1
SI_	130	0	1	96	48	4
STR	130	96	5
SI_	130	96	5	96	48	1
STR	130	192	0
SI_	130	192	0	96	48	5
TAP	130	288	7
BRK	131	0	4
BRK	131	0	6
BRK	131	96	1
BRK	131	96	3
BRK	131	192	0
BRK	131	192	2
BRK	131	288	5
BRK	131	288	7
XST	132	0	0
SI_	132	0	0	96	48	4
XST	132	96	0
SCL	132	96	0	96	48	5
XST	132	192	0
SCR	132	192	0	96	48	3
XST	132	288	0
SI_	132	288	0	96	48	5
XST	133	0	0
SI_	133	0	0	96	48	3
XST	133	96	0
SI_	133	96	0	96	48	4
XST	133	192	0
SCR	133	192	0	96	48	3
XST	133	288	0
SCL	133	288	0	96	48	5
XST	134	0	0
SI_	134	0	0	96	48	4
XST	134	96	0
SI_	134	96	0	96	48	5
XST	134	192	0
SI_	134	192	0	96	48	3
XST	134	288	0
SCR	134	288	0	96	144	7
XTP	135	0	0
TTP	135	192	0	C	1	M1
TTP	135	192	3	B	0	M1
TTP	135	192	4	B	0	M1
TTP	135	192	4	E	0	M1
TAP	136	0	0
TAP	136	48	7
TAP	136	96	0
TAP	136	144	7
TAP	136	192	1
TAP	136	192	6
TAP	136	288	3
TAP	136	288	4
HLD	137	0	2	96
TAP	137	0	5
TAP	137	96	3
TAP	137	144	1
TAP	137	144	4
TAP	137	240	5
TAP	137	288	5
TAP	137	336	4
STR	138	0	6
SI_	138	0	6	96	48	4
STR	138	96	0
SI_	138	96	0	96	48	2
STR	138	192	7
SI_	138	192	7	96	48	3
TAP	138	288	0
XTP	139	0	0
XTP	139	0	1
XTP	139	96	2
XTP	139	96	3
XTP	139	192	4
XTP	139	192	5
XTP	139	288	6
XTP	139	288	7
TAP	140	0	6
TAP	140	48	7
TAP	140	96	4
TAP	140	144	3
TAP	140	192	0
TAP	140	240	1
TAP	140	288	4
TAP	140	336	3
TAP	141	0	6
TAP	141	48	0
TAP	141	96	4
TAP	141	144	2
XTP	141	192	5
TAP	141	288	3
TAP	141	288	6
STR	142	0	4
SI_	142	0	4	96	48	6
STR	142	96	2
SI_	142	96	2	96	48	0
STR	142	192	3
SI_	142	192	3	96	48	7
TAP	142	288	2
BST	143	0	0
SCR	143	0	0	96	144	5
BRK	143	96	5
HLD	144	0	6	96
HLD	144	96	4	96
HLD	144	192	3	96
HLD	144	288	2	96
TAP	145	0	3
TAP	145	96	0
TAP	145	96	1
TAP	145	144	2
TAP	145	144	7
TAP	145	240	5
TAP	145	288	4
TAP	145	336	6
TAP	146	0	3
TAP	146	0	6
TAP	146	96	1
TAP	146	96	4
TAP	146	192	0
TAP	146	192	7
TAP	146	288	0
TAP	146	288	7
XTP	147	0	0
TAP	147	64	1
XTP	147	64	3
XTP	147	128	2
TAP	147	128	4
TAP	147	192	3
XTP	147	192	5
XTP	147	256	4
TAP	147	256	6
XTP	147	320	7
BRK	148	0	0
BRK	148	0	7
TAP	148	96	1
TAP	148	144	4
TAP	148	192	2
TAP	148	240	3
TAP	148	288	0
TAP	148	336	7
TAP	149	0	4
TAP	149	48	5
TAP	149	96	2
TAP	149	144	3
TAP	149	192	0
TAP	149	240	7
TAP	149	288	0
TAP	149	336	7
TAP	150	0	0
TAP	150	24	1
TAP	150	48	2
TAP	150	72	3
HLD	150	96	5	96
TAP	150	192	1
TAP	150	216	2
TAP	150	240	3
TAP	150	264	4
HLD	150	288	6	96
XTP	151	0	2
TAP	151	24	3
TAP	151	48	4
TAP	151	72	5
TAP	151	96	6
TAP	151	120	7
TAP	151	144	0
TAP	151	168	1
XTP	151	192	2
XTP	151	192	6
TAP	151	216	5
TAP	151	240	4
TAP	151	264	3
TAP	151	288	2
TAP	151	312	1
TAP	151	336	0
TAP	151	360	7
THO	152	0	0	1152	C	0	M1
XTP	152	0	6
TTP	156	0	0	C	1	M1
TTP	158	0	5	E	0	M1
TTP	158	96	3	E	0	M1
TTP	158	192	6	E	0	M1
TTP	158	288	2	E	0	M1
TTP	159	0	0	C	0	M1
TAP	159	192	6
TAP	159	240	0
TAP	159	288	6
TAP	159	336	0
TAP	160	0	6
TAP	160	24	5
TAP	160	48	4
TAP	160	96	1
TAP	160	144	0
TAP	160	192	3
TAP	160	240	4
TAP	160	288	1
TAP	160	336	0
TAP	161	0	1
TAP	161	24	2
TAP	161	48	3
TAP	161	96	6
TAP	161	144	7
TAP	161	192	4
TAP	161	240	3
TAP	161	288	6
TAP	161	336	7
TAP	162	0	6
TAP	162	24	5
TAP	162	48	4
TAP	162	96	1
TAP	162	144	0
TAP	162	192	1
TAP	162	216	2
TAP	162	240	3
TAP	162	288	6
TAP	162	336	7
TAP	163	0	4
TAP	163	48	3
TAP	163	96	5
TAP	163	144	2
XTP	163	192	7
XTP	163	240	0
XTP	163	288	7
XTP	163	336	0
TAP	164	0	6
TAP	164	24	5
TAP	164	48	4
TAP	164	96	1
TAP	164	144	0
TAP	164	192	1
TAP	164	216	2
TAP	164	240	3
TAP	164	288	6
TAP	164	336	7
TAP	165	0	5
TAP	165	24	4
TAP	165	48	3
TAP	165	96	1
TAP	165	144	0
TAP	165	192	2
TAP	165	216	3
TAP	165	240	4
TAP	165	288	7
TAP	165	336	0
TAP	166	0	7
TAP	166	24	6
TAP	166	48	5
TAP	166	72	4
TAP	166	96	1
TAP	166	120	2
TAP	166	144	3
TAP	166	168	4
TAP	166	192	6
TAP	166	216	5
TAP	166	240	4
TAP	166	264	3
TAP	166	288	0
TAP	166	312	1
TAP	166	336	2
TAP	166	360	3
BRK	167	0	4
BRK	167	0	6
BRK	167	96	0
BRK	167	96	7
BRK	167	192	1
BRK	167	192	3
BRK	167	288	4
BRK	167	288	6
XHO	168	0	0	96
TAP	168	96	5
TAP	168	120	4
TAP	168	144	3
TAP	168	168	2
TAP	168	192	1
TAP	168	216	0
TAP	168	240	7
TAP	168	264	6
BRK	168	288	1
TAP	168	288	5
XHO	169	0	7	96
TAP	169	96	2
TAP	169	120	3
TAP	169	144	4
TAP	169	168	5
TAP	169	192	6
TAP	169	216	7
TAP	169	240	0
TAP	169	264	1
TAP	169	288	2
BRK	169	288	6
XHO	170	0	0	96
TAP	170	96	6
TAP	170	120	5
TAP	170	144	4
TAP	170	168	3
TAP	170	192	2
TAP	170	216	1
TAP	170	240	0
TAP	170	264	7
BRK	170	288	2
TAP	170	288	6
TAP	171	0	3
TAP	171	0	7
TAP	171	96	1
TAP	171	96	5
BRK	171	192	0
BRK	171	192	7
BRK	171	288	0
BRK	171	288	7
XST	172	0	1
SI_	172	0	1	96	48	3
XTP	172	48	1
XST	172	96	0
SI_	172	96	0	96	48	4
XTP	172	144	0
XST	172	192	1
SI_	172	192	1	96	48	3
XTP	172	240	1
XST	172	288	0
SI_	172	288	0	96	48	4
XTP	172	336	0
XST	173	0	1
SI_	173	0	1	96	48	3
XTP	173	48	1
XST	173	96	0
SI_	173	96	0	96	48	4
XTP	173	144	0
XST	173	192	1
SI_	173	192	1	96	48	3
XTP	173	240	1
XST	173	288	0
SI_	173	288	0	96	48	4
XTP	173	336	0
TTP	174	0	0	C	1	M1
BRK	176	0	0
XTP	176	32	7
XTP	176	64	0
XTP	176	96	7
XTP	176	128	0
XTP	176	160	7
XTP	176	192	1
XTP	176	224	6
XTP	176	256	1
XTP	176	288	6
XTP	176	320	1
XTP	176	352	6
XTP	177	0	2
XTP	177	32	5
XTP	177	64	2
XTP	177	96	5
XTP	177	128	2
XTP	177	160	5
XTP	177	192	2
XTP	177	224	4
XTP	177	256	3
XTP	177	288	4
XTP	177	320	3
XTP	177	352	4
XTP	178	0	3
XTP	178	24	4
XTP	178	48	5
XTP	178	72	6
XTP	178	96	7
XTP	178	120	0
XTP	178	144	1
XTP	178	144	4
XTP	178	168	3
XTP	178	192	2
XTP	178	216	1
XTP	178	240	0
XTP	178	264	7
XTP	178	288	6
XTP	178	312	5
XTP	178	336	4
XTP	178	360	3
THO	179	0	0	192	C	0	M1
XTP	179	0	2
XTP	180	0	0
XTP	180	24	7
XTP	180	48	0
XTP	180	72	7
XTP	180	96	0
XTP	180	120	7
XTP	180	144	0
XTP	180	168	7
XTP	180	192	1
XTP	180	216	6
XTP	180	240	1
XTP	180	264	6
XTP	180	288	1
XTP	180	320	6
XTP	180	352	1
XTP	181	0	2
XTP	181	48	3
XTP	181	96	4
XTP	181	144	5
XTP	181	192	1
XTP	181	192	6
XTP	181	256	1
XTP	181	256	6
XTP	181	336	1
XTP	181	336	6
BRK	182	48	0
XTP	182	48	2
XTP	182	128	1
BRK	182	128	3
BRK	182	208	5
XTP	182	208	7
XTP	182	304	4
BRK	182	304	6
BRK	183	64	1
XTP	183	64	3
BRK	183	176	4
XTP	183	176	5
BRK	183	288	3
XTP	183	288	4
BRK	184	60	2
BRK	184	108	5
BRK	184	156	2
BRK	184	204	5
TTP	184	252	0	B	0	M1
TTP	184	252	0	C	1	M1
TTP	184	252	1	B	0	M1
TTP	184	252	2	B	0	M1
TTP	184	252	3	B	0	M1
TTP	184	252	4	B	0	M1
TTP	184	252	5	B	0	M1
TTP	184	252	6	B	0	M1
TTP	184	252	7	B	0	M1

T_REC_TAP	436
T_REC_BRK	59
T_REC_XTP	196
T_REC_HLD	217
T_REC_XHO	8
T_REC_STR	66
T_REC_BST	7
T_REC_XST	20
T_REC_TTP	97
T_REC_THO	5
T_REC_SLD	97
T_REC_ALL	1208
T_NUM_TAP	815
T_NUM_BRK	66
T_NUM_HLD	230
T_NUM_SLD	97
T_NUM_ALL	1208
T_JUDGE_TAP	881
T_JUDGE_HLD	277
T_JUDGE_SLD	97
T_JUDGE_ALL	1255
TTM_EACHPAIRS	222
TTM_SCR_TAP	407500
TTM_SCR_BRK	171600
TTM_SCR_HLD	230000
TTM_SCR_SLD	145500
TTM_SCR_ALL	954600
TTM_SCR_S	919600
TTM_SCR_SS	948000
TTM_RAT_ACV	10069

