VERSION	0.00.00	1.03.00
FES_MODE	0
BPM_DEF	300.000	300.000	300.000	300.000
MET_DEF	4	4
RESOLUTION	384
CLK_DEF	384
COMPATIBLE_CODE	MA2

BPM	0	0	300.000
MET	0	0	4	4

HLD	2	0	3	192
HLD	2	0	5	192
HLD	3	0	2	192
HLD	3	0	4	192
HLD	4	0	3	192
HLD	4	0	6	192
HLD	5	0	1	192
HLD	5	0	4	192
HLD	6	0	6	192
HLD	6	192	4	192
HLD	7	0	2	192
HLD	7	192	0	192
TAP	8	0	7
TAP	8	192	0
TAP	8	192	6
TAP	9	0	0
TAP	9	0	7
TAP	9	96	0
TAP	9	96	7
BRK	9	192	1
BRK	9	192	6
TTP	10	0	6	E	0	M1
TTP	10	96	5	E	0	M1
TTP	10	192	4	E	0	M1
TTP	10	288	3	E	0	M1
TTP	11	0	0	B	0	M1
TTP	11	0	1	B	0	M1
TTP	11	0	2	B	0	M1
TTP	11	0	3	B	0	M1
TTP	11	0	4	B	0	M1
TTP	11	0	5	B	0	M1
TTP	12	0	2	E	0	M1
TTP	12	96	3	E	0	M1
TTP	12	192	4	E	0	M1
TTP	12	288	5	E	0	M1
TTP	13	0	0	B	0	M1
TTP	13	0	1	B	0	M1
TTP	13	0	2	B	0	M1
TTP	13	0	3	B	0	M1
TTP	13	0	5	B	0	M1
TTP	13	0	6	B	0	M1
TTP	13	0	7	B	0	M1
TTP	14	0	6	E	0	M1
TTP	14	96	5	E	0	M1
TTP	14	192	4	E	0	M1
TTP	14	288	3	E	0	M1
TTP	15	0	0	B	0	M1
TTP	15	0	1	B	0	M1
TTP	15	0	2	B	0	M1
TTP	15	0	3	B	0	M1
TTP	15	0	4	B	0	M1
TTP	15	0	5	B	0	M1
TTP	15	0	6	B	0	M1
TTP	15	0	7	B	0	M1
BRK	16	0	2
BRK	16	192	1
BRK	17	0	0
TTP	17	192	0	C	1	M1
TAP	18	0	1
TAP	18	0	7
TAP	18	96	1
TAP	18	96	7
TAP	18	192	3
TAP	18	192	4
TAP	18	288	3
TAP	18	288	4
TAP	19	0	1
TAP	19	0	7
TAP	19	96	1
TAP	19	96	7
TAP	19	192	3
TAP	19	192	4
TAP	19	288	3
TAP	19	288	4
TAP	20	0	1
TAP	20	0	7
TAP	20	96	1
TAP	20	96	7
TAP	20	192	3
TAP	20	192	4
TAP	20	288	3
TAP	20	288	4
TAP	21	0	1
TAP	21	0	7
TAP	21	96	1
TAP	21	96	7
TAP	21	192	2
TAP	21	192	6
TAP	22	0	0
TAP	22	0	6
TAP	22	96	0
TAP	22	96	6
TAP	22	192	3
TAP	22	192	4
TAP	22	288	3
TAP	22	288	4
TAP	23	0	0
TAP	23	0	6
TAP	23	96	0
TAP	23	96	6
TAP	23	192	3
TAP	23	192	4
TAP	23	288	3
TAP	23	288	4
TAP	24	0	5
TAP	24	96	4
TAP	24	192	3
TAP	24	288	2
TAP	25	0	1
TAP	25	96	0
TAP	25	192	7
STR	25	288	6
SCR	25	288	6	96	768	5
BRK	26	0	0
TAP	29	0	2
TAP	29	0	5
TAP	29	96	3
TAP	29	96	4
TAP	29	192	2
TAP	29	192	5
TAP	30	0	1
STR	30	96	1
SI_	30	96	1	96	96	3
TAP	30	192	0
STR	30	288	0
SI_	30	288	0	96	96	4
TAP	31	0	1
TAP	31	96	1
TAP	31	192	7
TAP	31	288	7
TAP	32	0	6
STR	32	96	6
SI_	32	96	6	96	96	4
TAP	32	192	7
STR	32	288	7
SI_	32	288	7	96	96	3
TAP	33	0	6
TAP	33	96	6
TAP	33	192	0
TAP	33	288	0
TAP	34	0	1
STR	34	96	1
SI_	34	96	1	96	96	3
TAP	34	192	0
STR	34	288	0
SI_	34	288	0	96	96	4
TAP	35	0	1
TAP	35	96	1
TAP	35	192	7
TAP	35	288	7
TAP	36	0	3
TAP	36	96	3
TAP	36	192	2
TAP	36	192	4
TAP	36	288	2
TAP	36	288	4
BRK	37	0	1
BRK	37	0	5
TAP	37	288	7
TAP	38	0	2
STR	38	96	2
SI_	38	96	2	96	96	0
TAP	38	192	3
STR	38	288	3
SI_	38	288	3	96	96	7
TAP	39	0	2
TAP	39	96	2
TAP	39	192	4
TAP	39	288	4
TAP	40	0	5
STR	40	96	5
SI_	40	96	5	96	96	7
TAP	40	192	4
STR	40	288	4
SI_	40	288	4	96	96	0
TAP	41	0	5
TAP	41	96	5
TAP	41	192	3
TAP	41	288	3
TAP	42	0	2
STR	42	96	2
SI_	42	96	2	96	96	0
TAP	42	192	3
STR	42	288	3
SI_	42	288	3	96	96	7
TAP	43	0	2
TAP	43	96	2
TAP	43	192	4
TAP	43	288	4
TAP	44	0	0
TAP	44	0	5
TAP	44	192	3
TAP	44	192	4
BRK	45	0	2
BRK	45	0	6
HLD	46	0	5	384
HLD	47	0	4	384
HLD	48	0	3	384
HLD	49	0	2	384
HLD	50	0	0	384
HLD	51	0	6	768
HLD	52	0	1	384
TAP	54	0	5
TAP	54	96	5
TAP	54	192	4
TAP	54	192	5
TAP	54	288	4
TAP	54	288	5
TAP	55	0	5
TAP	55	96	5
TAP	55	192	5
TAP	55	192	6
TAP	55	288	5
TAP	55	288	6
TAP	56	0	5
TAP	56	96	5
TAP	56	192	4
TAP	56	192	5
TAP	56	288	4
TAP	56	288	5
TAP	57	0	3
TAP	57	0	6
TAP	57	96	3
TAP	57	96	6
TAP	57	192	2
TAP	57	288	2
TAP	58	0	2
TAP	58	0	3
TAP	58	96	2
TAP	58	96	3
TAP	58	192	2
TAP	58	288	2
TAP	59	0	1
TAP	59	0	2
TAP	59	96	1
TAP	59	96	2
TAP	59	192	2
TAP	59	288	2
TAP	60	0	2
TAP	60	0	3
TAP	60	96	1
TAP	60	96	4
TAP	60	192	0
TAP	60	192	5
TAP	61	0	3
TAP	61	0	7
TAP	61	96	2
TAP	61	96	6
TAP	61	192	1
TAP	61	192	5
TAP	62	0	6
TAP	62	96	6
TAP	62	192	4
TAP	62	192	5
TAP	62	288	6
TAP	63	0	6
TAP	63	96	6
TAP	63	192	4
TAP	63	192	5
TAP	63	288	6
TAP	64	0	6
TAP	64	96	6
TAP	64	192	4
TAP	64	192	5
TAP	64	288	6
TAP	65	0	6
TAP	65	96	6
TAP	65	192	2
TAP	65	192	5
TAP	65	288	2
TAP	65	288	5
TAP	66	0	1
TAP	66	96	1
TAP	66	192	2
TAP	66	192	3
TAP	66	288	1
TAP	67	0	1
TAP	67	96	1
TAP	67	192	2
TAP	67	192	3
TAP	67	288	1
TAP	68	0	1
TAP	68	96	0
TAP	68	96	4
TAP	68	192	1
TAP	68	192	5
TTP	69	0	0	C	1	M1
TAP	70	0	0
TAP	70	0	1
TAP	70	96	2
TAP	70	192	0
TAP	70	192	1
TAP	70	288	7
TAP	71	0	0
TAP	71	0	1
TAP	71	96	2
TAP	71	192	0
TAP	71	192	1
TAP	71	288	7
TAP	72	0	6
TAP	72	0	7
TAP	72	96	5
TAP	72	192	6
TAP	72	192	7
TAP	72	288	0
TAP	73	0	6
TAP	73	0	7
TAP	73	96	5
HLD	73	192	0	960
TAP	73	192	4
BRK	74	0	1
BRK	74	96	1
BRK	74	192	1
BRK	74	288	1
BRK	75	0	1
BRK	75	96	1
BRK	75	192	1
BRK	75	288	1
TAP	76	0	2
TAP	76	96	2
TAP	76	192	3
TAP	76	288	3
TAP	77	0	4
TAP	77	96	4
TTP	77	192	0	C	1	M1
TAP	78	0	6
TAP	78	0	7
TAP	78	96	5
TAP	78	192	6
TAP	78	192	7
TAP	78	288	0
TAP	79	0	6
TAP	79	0	7
TAP	79	96	5
TAP	79	192	6
TAP	79	192	7
TAP	79	288	0
TAP	80	0	0
TAP	80	0	1
TAP	80	96	2
TAP	80	192	0
TAP	80	192	1
TAP	80	288	7
TAP	81	0	0
TAP	81	0	1
TAP	81	96	2
TAP	81	192	3
HLD	81	192	7	960
BRK	82	0	6
BRK	82	96	6
BRK	82	192	6
BRK	82	288	6
BRK	83	0	6
BRK	83	96	6
BRK	83	192	6
BRK	83	288	6
TAP	84	0	5
TAP	84	96	5
TAP	84	192	4
TAP	84	288	4
TTP	85	0	0	C	1	M1
STR	86	0	6
SI_	86	0	6	96	96	3
STR	86	192	7
SI_	86	192	7	96	96	2
STR	87	0	6
SI_	87	0	6	96	96	3
TAP	87	192	0
TAP	88	0	0
TAP	88	0	1
TAP	88	96	0
TAP	88	96	1
TAP	88	192	0
TAP	88	192	7
TAP	88	288	0
TAP	88	288	7
TAP	89	0	6
TAP	89	0	7
TAP	89	96	6
TAP	89	96	7
TAP	89	192	0
TAP	89	192	5
STR	90	0	1
SI_	90	0	1	96	96	4
STR	90	192	0
SI_	90	192	0	96	96	5
STR	91	0	1
SI_	91	0	1	96	96	4
TAP	91	192	7
STR	92	0	2
SUL	92	0	2	96	288	5
XTP	93	192	0
XTP	93	192	7
XTP	93	288	0
XTP	93	288	7
STR	94	0	6
SI_	94	0	6	96	96	3
STR	94	192	7
SI_	94	192	7	96	96	2
STR	95	0	6
SI_	95	0	6	96	96	3
TAP	95	192	0
TAP	96	0	0
TAP	96	0	1
TAP	96	96	0
TAP	96	96	1
TAP	96	192	0
TAP	96	192	7
TAP	96	288	0
TAP	96	288	7
TAP	97	0	6
TAP	97	0	7
TAP	97	96	6
TAP	97	96	7
TAP	97	192	0
TAP	97	192	5
STR	98	0	3
SI_	98	0	3	96	96	0
STR	98	192	4
SI_	98	192	4	96	96	7
STR	99	0	3
SI_	99	0	3	96	96	0
TAP	99	192	4
TTP	100	0	0	E	0	M1
TTP	100	96	7	E	0	M1
TTP	100	192	6	E	0	M1
TTP	100	288	5	E	0	M1
TTP	101	0	4	E	0	M1
TTP	101	96	3	E	0	M1
TTP	101	192	2	E	0	M1
TTP	101	288	1	E	0	M1
TTP	102	0	0	C	1	M1
TTP	102	0	0	E	0	M1
STR	104	0	2
SV_	104	0	2	96	576	5
STR	106	0	1
SV_	106	0	1	96	576	6
STR	108	0	2
SV_	108	0	2	96	576	5
STR	110	0	3
SI_	110	0	3	96	288	0
BRK	111	0	7
TAP	112	0	6
TAP	112	96	6
TAP	112	192	6
TAP	112	288	6
TAP	113	0	4
TAP	113	96	4
TAP	113	192	4
TAP	113	288	4
TAP	114	0	3
TAP	114	96	3
TAP	114	192	3
TAP	114	288	3
TAP	115	0	1
TAP	115	96	1
TAP	115	192	1
TAP	115	288	1
TAP	116	0	7
TAP	116	48	0
TAP	116	96	7
TAP	116	144	0
TAP	116	192	7
TAP	116	240	0
TAP	116	288	7
TAP	116	336	0
TAP	117	0	7
TAP	117	48	0
TAP	117	96	7
TAP	117	144	0
TAP	117	192	7
BRK	118	0	1
BRK	118	0	6
TAP	119	192	0
TAP	119	192	7
TAP	119	288	1
TAP	119	288	6
TAP	120	0	5
STR	120	96	5
SI_	120	96	5	96	96	0
TAP	120	192	1
STR	120	288	1
SI_	120	288	1	96	96	4
TAP	121	0	5
STR	121	96	5
SI_	121	96	5	96	96	0
TAP	121	192	3
TAP	121	288	3
TAP	122	0	4
TAP	122	0	5
TAP	122	96	4
TAP	122	96	5
TAP	122	192	2
TAP	122	192	4
TAP	122	288	2
TAP	122	288	4
TAP	123	0	4
TAP	123	0	5
TAP	123	96	6
TAP	123	96	7
TAP	123	192	4
TAP	123	192	5
TAP	123	288	6
TAP	123	288	7
TAP	124	0	1
STR	124	96	1
SUR	124	96	1	96	192	6
TAP	124	192	0
TAP	124	288	0
XTP	125	0	7
XTP	125	96	7
TAP	125	192	6
STR	125	288	6
SUL	125	288	6	96	192	1
TAP	126	0	7
TAP	126	96	7
XTP	126	192	0
XTP	126	288	0
TAP	127	0	0
TAP	127	0	7
TAP	127	96	0
TAP	127	96	7
BRK	127	192	1
BRK	127	192	6
TAP	128	0	3
TAP	128	0	4
STR	128	96	2
SI_	128	96	2	96	96	0
TAP	128	192	7
STR	128	288	7
SI_	128	288	7	96	96	3
TAP	129	0	2
STR	129	96	2
SI_	129	96	2	96	96	0
TAP	129	192	4
TAP	129	288	4
TAP	130	0	2
TAP	130	0	3
TAP	130	96	2
TAP	130	96	3
TAP	130	192	3
TAP	130	192	5
TAP	130	288	3
TAP	130	288	5
TAP	131	0	2
TAP	131	0	3
TAP	131	96	0
TAP	131	96	1
TAP	131	192	2
TAP	131	192	3
TAP	131	288	0
TAP	131	288	1
HLD	132	0	6	96
HLD	132	96	4	96
HLD	132	192	3	96
HLD	132	288	1	96
HLD	133	0	6	96
HLD	133	96	4	96
HLD	133	192	3	96
HLD	133	288	1	96
HLD	134	0	7	96
HLD	134	96	4	96
HLD	134	192	3	96
HLD	134	288	0	96
TAP	135	0	7
TAP	135	96	7
BRK	135	192	1
BRK	135	192	6
TAP	136	0	4
TAP	136	0	5
TAP	136	96	3
TAP	136	96	4
TAP	136	192	2
TAP	136	192	3
TAP	136	288	1
TAP	137	0	2
TAP	137	0	3
TAP	137	96	3
TAP	137	96	4
TAP	137	192	4
TAP	137	192	5
TAP	137	288	6
TAP	138	0	7
TAP	138	96	0
TAP	138	192	1
TAP	138	288	2
TAP	139	0	3
TAP	139	0	4
TAP	139	96	4
TAP	139	96	5
TAP	139	192	3
TAP	139	192	6
TAP	140	0	3
TAP	140	48	4
TAP	140	96	3
TAP	140	144	4
TAP	140	192	2
TAP	140	240	5
TAP	140	288	2
TAP	140	336	5
TAP	141	0	3
TAP	141	48	4
TAP	141	96	3
TAP	141	144	4
BRK	141	192	2
TAP	141	288	0
TAP	142	0	7
STR	142	96	7
SI_	142	96	7	96	96	3
TAP	142	192	0
STR	142	288	0
SCR	142	288	0	96	192	6
TTP	143	0	0	C	1	M1
TAP	144	0	7
TAP	144	96	4
TAP	144	96	6
TAP	144	192	3
TAP	144	192	5
TAP	144	288	2
TAP	144	288	4
TAP	145	0	0
TAP	145	96	1
TAP	145	96	3
TAP	145	192	2
TAP	145	192	4
TAP	145	288	3
TAP	145	288	5
TAP	146	0	7
TAP	146	96	0
TAP	146	96	6
TAP	146	192	1
TAP	146	192	5
TAP	146	288	1
TAP	146	288	5
XTP	147	0	2
XTP	147	64	3
XTP	147	128	2
XTP	147	192	5
XTP	147	256	4
XTP	147	320	5
BRK	148	0	0
TAP	148	96	7
TAP	148	192	1
STR	148	288	1
SI_	148	288	1	96	96	6
TAP	149	0	5
STR	149	96	5
SI_	149	96	5	96	96	2
TAP	149	192	1
STR	149	288	1
SCL	149	288	1	96	288	2
BRK	150	0	4
TAP	151	0	7
STR	151	96	7
SI_	151	96	7	96	96	3
BRK	151	192	0
TTP	152	0	0	C	1	M1
TTP	152	0	2	E	0	M1
TTP	152	0	6	E	0	M1
TAP	158	0	3
TAP	158	96	3
TAP	158	192	4
TAP	158	288	4
TAP	159	0	3
BRK	159	192	2
BRK	159	192	5
TAP	160	0	1
TAP	160	0	7
TAP	160	96	3
TAP	160	96	4
TAP	160	192	1
TAP	160	192	7
TAP	160	288	3
TAP	160	288	4
TAP	161	0	1
TAP	161	0	7
TAP	161	96	3
TAP	161	96	4
TAP	161	192	1
TAP	161	192	7
TAP	161	288	3
TAP	161	288	4
TAP	162	0	1
TAP	162	0	7
TAP	162	96	3
TAP	162	96	4
TAP	162	192	1
TAP	162	192	7
TAP	162	288	3
TAP	162	288	4
TAP	163	0	1
TAP	163	0	7
TAP	163	96	3
TAP	163	96	4
TAP	163	192	2
TAP	163	192	6
TAP	164	0	0
TAP	164	0	6
TAP	164	96	3
TAP	164	96	4
TAP	164	192	0
TAP	164	192	6
TAP	164	288	3
TAP	164	288	4
TAP	165	0	0
TAP	165	0	6
TAP	165	96	3
TAP	165	96	4
TAP	165	192	0
TAP	165	192	6
TAP	165	288	3
TAP	165	288	4
TAP	166	0	0
TAP	166	0	6
TAP	166	96	3
TAP	166	96	4
TAP	166	192	0
TAP	166	192	6
TAP	166	288	3
TAP	166	288	4
TAP	167	0	0
TAP	167	0	6
TAP	167	96	3
TAP	167	96	4
TAP	167	192	1
TAP	167	192	5
TAP	168	0	0
TAP	168	0	1
STR	168	96	0
SI_	168	96	0	96	96	4
STR	168	96	1
SI_	168	96	1	96	96	3
TAP	169	0	6
TAP	169	0	7
STR	169	96	6
SI_	169	96	6	96	96	4
STR	169	96	7
SI_	169	96	7	96	96	3
TAP	170	0	0
TAP	170	0	7
STR	170	96	0
SCR	170	96	0	96	96	3
STR	170	96	7
SCL	170	96	7	96	96	4
TAP	171	0	0
TAP	171	0	7
TAP	171	96	1
TAP	171	96	6
TAP	171	192	2
TAP	171	192	5
TAP	172	0	0
TAP	172	0	1
TAP	172	96	2
TAP	172	96	3
TAP	172	192	4
TAP	172	192	5
TAP	172	288	6
TAP	172	288	7
TAP	173	0	0
TAP	173	0	1
TAP	173	96	2
TAP	173	96	3
TAP	173	192	4
TAP	173	192	5
STR	173	288	6
SI_	173	288	6	96	48	2
TAP	173	288	7
TAP	176	0	1
TAP	176	48	0
TAP	176	96	1
TAP	176	144	0
TAP	176	192	1
TAP	176	240	0
BRK	176	288	1
TAP	177	0	6
TAP	177	48	7
TAP	177	96	6
TAP	177	144	7
TAP	177	192	6
TAP	177	240	7
BRK	177	288	6
HLD	178	0	1	144
HLD	178	144	2	144
TAP	178	288	3
TAP	179	0	5
TAP	179	48	4
TAP	179	96	6
TAP	179	144	3
BRK	179	192	7
TAP	180	0	1
TAP	180	48	0
TAP	180	96	1
TAP	180	192	6
TAP	180	240	7
TAP	180	288	6
TAP	181	0	3
TAP	181	48	4
TAP	181	96	3
TAP	181	144	4
TAP	181	192	2
TAP	181	264	2
TAP	181	336	2
TAP	182	0	3
TAP	182	0	6
TAP	182	96	2
TAP	182	96	5
TAP	182	192	1
TAP	182	192	4
TAP	182	288	0
TAP	182	288	3
HLD	183	24	1	144
HLD	183	168	3	120
HLD	183	288	5	144
TAP	184	48	6
TAP	184	96	7
TAP	184	144	0
TAP	184	192	1
BRK	184	240	2

T_REC_TAP	570
T_REC_BRK	43
T_REC_XTP	14
T_REC_HLD	38
T_REC_XHO	0
T_REC_STR	51
T_REC_BST	0
T_REC_XST	0
T_REC_TTP	51
T_REC_THO	0
T_REC_SLD	51
T_REC_ALL	818
T_NUM_TAP	686
T_NUM_BRK	43
T_NUM_HLD	38
T_NUM_SLD	51
T_NUM_ALL	818
T_JUDGE_TAP	729
T_JUDGE_HLD	98
T_JUDGE_SLD	51
T_JUDGE_ALL	878
TTM_EACHPAIRS	193
TTM_SCR_TAP	343000
TTM_SCR_BRK	111800
TTM_SCR_HLD	38000
TTM_SCR_SLD	76500
TTM_SCR_ALL	569300
TTM_SCR_S	548050
TTM_SCR_SS	565000
TTM_RAT_ACV	10076

