VERSION	0.00.00	1.03.00
FES_MODE	0
BPM_DEF	300.000	300.000	300.000	300.000
MET_DEF	4	4
RESOLUTION	384
CLK_DEF	384
COMPATIBLE_CODE	MA2

BPM	0	0	300.000
MET	0	0	4	4

XHO	2	0	5	384
HLD	3	0	4	384
HLD	4	0	3	384
TAP	5	0	2
HLD	6	0	1	384
HLD	7	0	0	384
HLD	8	0	7	384
TAP	9	0	6
STR	10	0	5
SI_	10	0	5	96	192	0
TAP	11	192	1
STR	12	0	1
SI_	12	0	1	96	192	4
TAP	13	192	5
TAP	14	0	4
TAP	14	0	5
TAP	14	192	4
TAP	14	192	5
TAP	15	0	3
TAP	15	0	6
XTP	16	0	2
XTP	16	192	1
XTP	17	0	0
BRK	17	192	0
BRK	17	192	7
TAP	18	0	1
TAP	18	96	1
TAP	18	192	0
TAP	18	192	1
TAP	19	0	6
TAP	19	96	6
TAP	19	192	6
TAP	19	192	7
TAP	20	0	1
TAP	20	96	1
TAP	20	192	0
TAP	20	192	1
XHO	21	0	2	192
XHO	21	0	3	192
TAP	22	0	5
TAP	22	96	5
TAP	22	192	4
TAP	22	192	5
TAP	23	0	2
TAP	23	96	2
TAP	23	192	2
TAP	23	192	3
TAP	24	0	4
TAP	24	96	4
TAP	24	192	3
TAP	24	288	3
TAP	25	0	3
TAP	25	0	4
TAP	25	96	3
TAP	25	96	4
BRK	25	192	2
BRK	25	192	5
STR	26	0	7
SCL	26	0	7	96	528	2
TAP	28	0	1
TAP	28	192	2
BRK	29	0	3
BRK	29	0	4
HLD	30	0	5	192
TAP	30	192	4
HLD	31	0	2	192
TAP	31	192	3
HLD	32	0	5	192
TAP	32	192	4
HLD	33	0	2	96
HLD	33	0	3	96
TAP	33	192	2
TAP	33	192	3
HLD	34	0	1	192
TAP	34	192	0
HLD	35	0	6	192
TAP	35	192	7
HLD	36	0	1	192
TAP	36	192	0
HLD	37	0	6	96
HLD	37	0	7	96
TAP	37	192	6
TAP	37	192	7
TAP	38	0	5
TAP	38	192	4
TAP	38	192	5
TAP	39	0	2
TAP	39	192	2
TAP	39	192	3
TAP	40	0	5
TAP	40	192	4
TAP	40	192	5
TAP	41	0	2
TAP	41	0	3
TAP	41	192	2
TAP	41	192	3
TAP	42	0	1
TAP	42	192	0
TAP	42	192	1
TAP	43	0	6
TAP	43	192	6
TAP	43	192	7
XTP	44	0	0
XTP	44	0	7
XTP	44	192	1
XTP	44	192	6
BRK	45	0	2
BRK	45	0	5
STR	46	0	1
SCR	46	0	1	96	528	5
TAP	48	0	6
TAP	48	192	6
TAP	49	0	6
TAP	49	0	7
TAP	50	0	5
TAP	50	192	5
TAP	51	0	4
HLD	51	192	3	288
HLD	51	192	4	288
TAP	54	0	2
TAP	54	192	2
TAP	55	0	2
TAP	55	0	3
TAP	55	192	1
TAP	55	192	4
TAP	56	0	5
TAP	56	192	5
TAP	57	0	4
TAP	57	0	5
TAP	57	192	3
TAP	57	192	6
TAP	58	0	2
TAP	58	192	2
TAP	59	0	2
TAP	59	0	3
TAP	59	192	1
TAP	59	192	4
HLD	60	0	2	192
HLD	60	0	3	192
HLD	61	0	4	192
HLD	61	0	5	192
TAP	62	0	6
TAP	62	192	6
TAP	63	0	6
TAP	63	0	7
TAP	63	192	0
TAP	63	192	5
TAP	64	0	1
TAP	64	192	1
TAP	65	0	0
TAP	65	0	1
TAP	65	192	2
TAP	65	192	7
TAP	66	0	6
TAP	66	192	6
TAP	67	0	6
TAP	67	0	7
TAP	67	192	0
TAP	67	192	5
HLD	68	0	6	192
HLD	68	0	7	192
BRK	69	0	0
BRK	69	0	5
TTP	70	0	6	E	0	L1
TTP	70	192	6	B	0	L1
TTP	71	0	7	B	0	L1
TTP	72	0	2	E	0	L1
TTP	72	192	1	B	0	L1
TTP	73	0	0	B	0	L1
XTP	74	0	6
XTP	74	96	6
TAP	74	192	7
TAP	74	288	7
TAP	75	0	0
TAP	75	96	0
TAP	75	192	1
TAP	75	192	7
TAP	76	0	2
TAP	76	96	2
TAP	76	192	3
TAP	76	288	3
TAP	77	0	4
TAP	77	96	4
BRK	77	192	3
BRK	77	192	4
TTP	78	0	1	B	0	L1
TTP	78	192	2	B	0	L1
TTP	79	0	3	E	0	L1
TTP	80	0	6	B	0	L1
TTP	80	192	5	B	0	L1
TTP	81	0	5	E	0	L1
TAP	82	0	2
TAP	82	96	2
TAP	82	192	3
TAP	82	288	3
TAP	83	0	4
TAP	83	96	4
TAP	83	192	3
TAP	83	192	5
TAP	84	0	6
TAP	84	96	6
TAP	84	192	7
TAP	84	288	7
TAP	85	0	0
TAP	85	96	0
BRK	85	192	1
BRK	85	192	7
STR	86	0	6
SI_	86	0	6	96	192	3
STR	87	0	2
SI_	87	0	2	96	192	7
XTP	88	0	6
TAP	88	96	6
TAP	88	192	6
TAP	89	0	5
TAP	89	96	5
TAP	89	192	4
TAP	89	192	5
STR	90	0	2
SI_	90	0	2	96	192	7
STR	91	0	6
SI_	91	0	6	96	192	3
XTP	92	0	2
TAP	92	96	2
TAP	92	192	2
TAP	93	0	1
TAP	93	96	1
TAP	93	192	0
TAP	93	192	1
STR	94	0	6
SI_	94	0	6	96	192	3
STR	95	0	2
SI_	95	0	2	96	192	7
XTP	96	0	6
TAP	96	96	6
TAP	96	192	6
TAP	97	0	5
TAP	97	96	5
TAP	97	192	4
TAP	97	192	5
STR	98	0	2
SI_	98	0	2	96	192	7
STR	99	0	6
SI_	99	0	6	96	192	3
TAP	100	0	2
TAP	100	96	2
TAP	100	192	1
TAP	100	288	1
HLD	101	0	0	192
HLD	101	0	7	192
TTP	102	0	0	C	1	L1
STR	104	0	6
SCL	104	0	6	96	480	2
STR	106	0	1
SCR	106	0	1	96	480	5
STR	108	0	6
SSR	108	0	6	96	576	2
TAP	110	0	1
TAP	111	0	2
STR	112	0	3
SI_	112	0	3	96	192	0
TAP	113	0	7
STR	114	0	7
SI_	114	0	7	96	192	4
TAP	115	0	3
STR	116	0	2
SCL	116	0	2	96	504	5
TTP	118	0	0	C	1	L1
TAP	120	0	6
TAP	120	96	6
TAP	120	192	6
TAP	120	192	7
TAP	121	0	1
TAP	121	96	1
TAP	121	192	0
TAP	121	192	1
TAP	122	0	6
TAP	122	96	6
TAP	122	192	7
TAP	122	288	7
XTP	123	0	0
XTP	123	96	0
XTP	123	192	1
XTP	123	192	7
TAP	124	0	2
TAP	124	96	2
TAP	124	192	2
TAP	124	192	3
TAP	125	0	5
TAP	125	96	5
TAP	125	192	4
TAP	125	192	5
TAP	126	0	2
TAP	126	96	2
TAP	126	192	3
TAP	126	288	3
HLD	127	0	3	96
HLD	127	0	4	96
TAP	127	192	2
TAP	127	192	5
TAP	128	0	1
TAP	128	96	1
TAP	128	192	0
TAP	128	192	1
TAP	129	0	6
TAP	129	96	6
TAP	129	192	6
TAP	129	192	7
TAP	130	0	1
TAP	130	96	1
TAP	130	192	0
TAP	130	288	0
TAP	131	0	7
TAP	131	96	7
TAP	131	192	0
TAP	131	192	6
TAP	132	0	5
TAP	132	96	5
TAP	132	192	4
TAP	132	192	5
TAP	133	0	2
TAP	133	96	2
TAP	133	192	2
TAP	133	192	3
TAP	134	0	4
TAP	134	96	4
TAP	134	192	3
TAP	134	288	3
HLD	135	0	3	96
HLD	135	0	4	96
TAP	135	192	2
TAP	135	192	5
STR	136	0	6
SI_	136	0	6	96	192	3
STR	137	0	2
SI_	137	0	2	96	192	7
STR	138	0	6
SI_	138	0	6	96	192	3
TAP	139	0	2
TAP	139	192	1
STR	140	0	0
SCR	140	0	0	96	192	3
TAP	141	0	4
TAP	141	192	3
TAP	141	192	4
TAP	142	0	2
TAP	142	0	5
TAP	142	192	1
TAP	142	192	6
BRK	143	0	0
BRK	143	0	7
STR	144	0	1
SCR	144	0	1	96	192	4
STR	145	0	5
SCR	145	0	5	96	192	0
STR	146	0	1
SCR	146	0	1	96	192	4
XTP	147	0	5
XTP	147	192	6
HLD	148	0	6	96
HLD	148	0	7	96
TAP	148	192	6
TAP	148	192	7
HLD	149	0	0	96
HLD	149	0	1	96
TAP	149	192	0
TAP	149	192	1
TAP	150	0	7
TAP	150	96	7
TAP	150	192	0
TAP	150	288	0
BRK	151	0	1
BRK	151	0	6
TTP	152	0	5	B	0	L1
TTP	153	0	6	B	0	L1
TTP	154	0	7	B	0	L1
TTP	155	0	0	B	0	L1
TTP	156	0	1	B	0	L1
TTP	157	0	2	B	0	L1
TTP	158	0	3	B	0	L1
TTP	159	0	4	B	0	L1
XTP	160	0	2
TAP	160	96	2
TAP	160	192	3
TAP	160	288	3
TAP	161	0	4
TAP	161	96	4
TAP	161	192	3
TAP	161	192	5
TAP	162	0	6
TAP	162	96	6
TAP	162	192	7
TAP	162	288	7
TAP	163	0	0
TAP	163	96	0
TAP	163	192	1
TAP	163	192	7
TAP	164	0	2
TAP	164	96	2
TAP	164	192	3
TAP	164	288	3
TAP	165	0	4
TAP	165	96	4
TAP	165	192	3
TAP	165	192	5
TAP	166	0	6
TAP	166	96	6
TAP	166	192	7
TAP	166	288	7
TAP	167	0	0
TAP	167	96	0
TAP	167	192	1
TAP	167	192	7
TAP	168	0	2
TAP	168	96	2
TAP	168	192	2
TAP	168	192	3
TAP	169	0	5
TAP	169	96	5
TAP	169	192	4
TAP	169	192	5
TAP	170	0	2
TAP	170	96	2
TAP	170	192	3
TAP	170	288	3
TAP	171	0	4
TAP	171	96	4
TAP	171	192	3
TAP	171	192	5
TAP	172	0	6
TAP	172	96	6
TAP	172	192	6
TAP	172	192	7
TAP	173	0	1
TAP	173	96	1
TAP	173	192	0
TAP	173	192	1
BRK	176	0	6
BRK	176	0	7
TAP	176	96	6
TAP	176	96	7
TAP	176	192	6
TAP	176	192	7
TAP	177	0	0
TAP	177	0	1
TAP	177	96	0
TAP	177	96	1
TAP	177	192	0
TAP	177	192	1
TAP	178	0	6
TAP	178	96	6
TAP	178	192	7
TAP	178	288	7
TAP	179	0	6
TAP	179	0	7
TAP	179	96	6
TAP	179	96	7
TAP	179	192	0
TAP	179	192	5
TAP	180	0	1
TAP	180	96	1
TAP	180	192	0
TAP	180	288	0
STR	181	0	1
SXR	181	0	1	96	864	4
XTP	184	240	2
XTP	184	240	5

T_REC_TAP	316
T_REC_BRK	20
T_REC_XTP	21
T_REC_HLD	33
T_REC_XHO	3
T_REC_STR	26
T_REC_BST	0
T_REC_XST	0
T_REC_TTP	22
T_REC_THO	0
T_REC_SLD	26
T_REC_ALL	467
T_NUM_TAP	385
T_NUM_BRK	20
T_NUM_HLD	36
T_NUM_SLD	26
T_NUM_ALL	467
T_JUDGE_TAP	405
T_JUDGE_HLD	74
T_JUDGE_SLD	26
T_JUDGE_ALL	505
TTM_EACHPAIRS	96
TTM_SCR_TAP	192500
TTM_SCR_BRK	52000
TTM_SCR_HLD	36000
TTM_SCR_SLD	39000
TTM_SCR_ALL	319500
TTM_SCR_S	308000
TTM_SCR_SS	317500
TTM_RAT_ACV	10062

