VERSION	0.00.00	1.03.00
FES_MODE	0
BPM_DEF	300.000	300.000	300.000	300.000
MET_DEF	4	4
RESOLUTION	384
CLK_DEF	384
COMPATIBLE_CODE	MA2

BPM	0	0	300.000
MET	0	0	4	4

TAP	10	0	7
TAP	12	0	0
HLD	14	0	7	768
XTP	18	0	0
TAP	18	192	0
TAP	19	0	0
TAP	20	0	1
TAP	21	0	1
TAP	22	0	2
TAP	22	192	2
TAP	23	0	2
TAP	24	0	3
TAP	25	0	3
TAP	25	0	4
HLD	26	0	3	768
HLD	26	0	4	768
TAP	30	0	4
TAP	31	0	4
TAP	32	0	4
TAP	34	0	5
TAP	35	0	5
TAP	36	0	5
TAP	38	0	6
TAP	39	0	6
TAP	40	0	6
TAP	42	0	7
TAP	43	0	7
XTP	44	0	0
XTP	44	0	7
TTP	46	0	7	B	0	L1
TTP	48	0	0	B	0	L1
TTP	50	0	6	B	0	L1
TTP	52	0	0	C	0	L1
HLD	54	0	7	768
HLD	58	0	6	768
HLD	62	0	5	768
HLD	66	0	3	768
HLD	66	0	4	768
TAP	70	0	3
TAP	71	0	3
TAP	72	0	2
TAP	73	0	2
TAP	74	0	1
TAP	75	0	1
TAP	76	0	0
TAP	77	0	0
TAP	77	0	7
TAP	78	0	0
TAP	79	0	1
TAP	80	0	2
TAP	81	0	3
TAP	81	0	4
TAP	82	0	4
TAP	83	0	5
TAP	84	0	6
XTP	85	0	0
XTP	85	0	7
TAP	86	0	7
TAP	87	0	7
TAP	88	0	6
TAP	88	192	6
TAP	89	0	6
TAP	90	0	5
TAP	91	0	5
TAP	92	0	4
TAP	92	192	4
TAP	93	0	3
TAP	93	0	4
TAP	94	0	3
TAP	94	192	3
TAP	95	0	3
TAP	96	0	2
TAP	96	192	2
TAP	97	0	2
TAP	98	0	1
TAP	98	192	1
TAP	99	0	1
TAP	100	0	0
TAP	100	192	0
TAP	101	0	0
BRK	102	0	0
BRK	102	0	7
STR	104	0	0
SI_	104	0	0	96	672	3
STR	108	0	7
SI_	108	0	7	96	672	4
STR	112	0	0
SI_	112	0	0	96	672	4
TAP	116	0	7
TAP	117	0	7
XTP	118	0	0
XTP	118	0	7
TAP	120	0	0
TAP	120	192	0
TAP	121	0	1
TAP	121	192	1
TAP	122	0	2
TAP	122	192	2
TAP	123	0	3
TAP	123	0	4
TAP	124	0	4
TAP	124	192	4
TAP	125	0	5
TAP	125	192	5
TAP	126	0	6
TAP	126	192	6
TAP	127	0	0
TAP	127	0	7
TAP	128	0	7
TAP	128	192	7
TAP	129	0	6
TAP	129	192	6
TAP	130	0	5
TAP	130	192	5
TAP	131	0	4
TAP	131	0	5
TAP	132	0	3
TAP	132	192	3
TAP	133	0	2
TAP	133	192	2
TAP	134	0	1
TAP	134	192	1
TAP	135	0	0
TAP	135	0	1
TAP	136	0	0
TAP	136	192	0
TAP	137	0	1
TAP	137	192	1
TAP	138	0	2
TAP	138	192	2
TAP	139	0	3
TAP	139	192	3
TAP	140	0	4
TAP	140	192	4
TAP	141	0	5
TAP	141	192	5
TAP	142	0	6
TAP	142	192	6
TAP	143	0	6
TAP	143	0	7
TAP	144	0	7
TAP	144	192	7
TAP	145	0	6
TAP	145	192	6
TAP	146	0	5
TAP	146	192	5
BRK	147	0	3
BRK	147	0	4
TAP	148	0	3
TAP	148	192	3
TAP	149	0	2
TAP	149	192	2
TAP	150	0	1
TAP	150	192	1
XTP	151	0	0
XTP	151	0	7
HLD	152	0	0	768
HLD	152	0	1	768
HLD	156	0	6	768
HLD	156	0	7	768
TAP	160	0	0
TAP	160	192	0
TAP	161	0	1
TAP	161	96	1
TAP	161	192	1
TAP	162	0	2
TAP	162	192	2
TAP	163	0	3
TAP	163	0	4
TAP	164	0	4
TAP	164	192	4
TAP	165	0	5
TAP	165	96	5
TAP	165	192	5
TAP	166	0	6
TAP	166	192	6
TAP	167	0	0
TAP	167	0	7
TAP	168	0	7
TAP	168	192	7
TAP	169	0	6
TAP	169	96	6
TAP	169	192	6
TAP	170	0	5
TAP	170	192	5
TAP	171	0	4
TAP	171	96	4
TAP	171	192	4
TAP	172	0	3
TAP	172	192	3
TAP	173	0	2
TAP	173	96	2
TAP	173	192	2
XTP	174	0	0
XTP	174	0	1
TAP	176	0	0
TAP	176	96	0
TAP	176	192	0
TAP	177	0	0
TAP	177	0	1
TAP	177	192	0
TAP	177	192	1
TAP	178	0	7
TAP	178	96	7
TAP	178	192	7
TAP	179	0	6
TAP	179	0	7
TAP	179	192	6
TAP	179	192	7
HLD	180	0	0	384
HLD	180	0	7	384
THO	182	0	0	1008	C	1	L1

T_REC_TAP	172
T_REC_BRK	4
T_REC_XTP	11
T_REC_HLD	14
T_REC_XHO	0
T_REC_STR	3
T_REC_BST	0
T_REC_XST	0
T_REC_TTP	4
T_REC_THO	1
T_REC_SLD	3
T_REC_ALL	212
T_NUM_TAP	190
T_NUM_BRK	4
T_NUM_HLD	15
T_NUM_SLD	3
T_NUM_ALL	212
T_JUDGE_TAP	194
T_JUDGE_HLD	115
T_JUDGE_SLD	3
T_JUDGE_ALL	312
TTM_EACHPAIRS	27
TTM_SCR_TAP	95000
TTM_SCR_BRK	10400
TTM_SCR_HLD	15000
TTM_SCR_SLD	4500
TTM_SCR_ALL	124900
TTM_SCR_S	120800
TTM_SCR_SS	124500
TTM_RAT_ACV	10032

