VERSION	0.00.00	1.03.00
FES_MODE	0
BPM_DEF	192.000	192.000	192.000	192.000
MET_DEF	4	4
RESOLUTION	384
CLK_DEF	384
COMPATIBLE_CODE	MA2

BPM	0	0	192.000
MET	0	0	4	4

STR	2	0	3
SI_	2	0	3	96	288	0
STR	3	0	7
SI_	3	0	7	96	288	4
STR	4	0	1
SCL	4	0	1	96	288	6
SV_	4	0	1	96	288	3
XTP	5	96	3
TAP	5	192	3
TAP	5	216	4
TAP	5	240	3
TAP	5	264	4
TAP	5	288	3
HLD	6	0	2	288
TAP	6	0	5
TAP	6	96	5
TAP	6	192	5
TAP	6	288	4
STR	6	336	4
SI_	6	336	4	96	48	7
STR	7	48	3
SI_	7	48	3	96	48	0
XTP	7	144	7
XTP	7	240	6
TAP	7	288	0
TAP	7	312	7
TAP	7	336	0
TAP	8	0	1
TAP	8	0	6
TAP	8	48	5
TAP	8	96	2
TAP	8	96	4
TAP	8	144	1
TAP	8	192	0
TAP	8	192	7
TAP	8	240	6
TAP	8	288	4
TAP	8	288	5
TAP	8	336	3
TAP	9	0	2
TAP	9	24	4
TAP	9	48	2
TAP	9	72	4
TAP	9	96	2
TAP	9	120	4
TAP	9	144	2
TAP	9	168	4
STR	9	192	3
SI_	9	192	3	96	48	1
TAP	9	216	5
TAP	9	240	3
TAP	9	264	5
TAP	10	0	0
STR	10	0	6
SI_	10	0	6	96	48	3
STR	10	96	2
SI_	10	96	2	96	48	7
STR	10	192	5
SCL	10	192	5	96	48	2
STR	10	288	1
SCL	10	288	1	96	48	6
STR	11	0	4
SI_	11	0	4	96	48	1
SI_	11	0	4	96	48	7
XTP	11	96	4
STR	11	192	3
SI_	11	192	3	96	48	0
SI_	11	192	3	96	48	6
XTP	11	288	3
STR	12	0	7
SCL	12	0	7	96	96	4
STR	12	96	4
SI_	12	96	4	96	96	0
STR	12	192	0
SCR	12	192	0	96	96	3
STR	12	288	3
SI_	12	288	3	96	96	7
STR	13	0	7
SCL	13	0	7	96	96	4
TAP	13	96	4
TAP	13	192	2
TAP	13	240	3
TAP	13	288	2
TAP	13	288	4
STR	14	0	5
SI_	14	0	5	96	48	2
STR	14	96	1
SI_	14	96	1	96	48	4
STR	14	192	5
SCR	14	192	5	96	48	0
STR	14	288	2
SI_	14	288	2	96	48	6
STR	15	0	4
SI_	15	0	4	96	48	1
SI_	15	0	4	96	48	7
XTP	15	96	4
STR	15	192	0
SI_	15	192	0	96	48	3
SI_	15	192	0	96	48	5
XTP	15	288	0
XTP	16	0	4
STR	16	48	4
SCL	16	48	4	96	48	1
SCR	16	48	4	96	48	7
XTP	16	240	0
XTP	16	288	0
TAP	16	336	7
TAP	17	0	2
TAP	17	0	6
TAP	17	48	5
TAP	17	96	1
TAP	17	96	4
BRK	17	144	0
TAP	17	240	2
TAP	17	264	3
TAP	17	288	2
TAP	17	336	1
TAP	17	336	4
STR	18	0	1
SI_	18	0	1	96	48	4
TAP	18	0	4
STR	18	96	5
SI_	18	96	5	96	48	0
STR	18	192	2
SCR	18	192	2	96	48	5
STR	18	288	6
SCR	18	288	6	96	48	1
STR	19	0	3
SI_	19	0	3	96	48	0
SI_	19	0	3	96	48	6
XTP	19	96	3
STR	19	192	4
SI_	19	192	4	96	48	1
SI_	19	192	4	96	48	7
XTP	19	288	4
STR	20	0	0
SCR	20	0	0	96	96	3
STR	20	96	3
SI_	20	96	3	96	96	7
STR	20	192	7
SCL	20	192	7	96	96	4
STR	20	288	4
SI_	20	288	4	96	96	0
STR	21	0	0
SCR	21	0	0	96	96	3
TAP	21	96	3
HLD	21	192	5	96
TAP	21	288	3
TAP	22	0	2
STR	22	48	2
SCL	22	48	2	96	48	7
TAP	22	144	3
TAP	22	192	3
TAP	22	288	4
TAP	23	0	3
STR	23	0	5
SI_	23	0	5	96	48	1
STR	23	96	2
SI_	23	96	2	96	48	6
STR	23	192	4
SI_	23	192	4	96	48	0
TAP	23	288	3
TAP	24	0	7
TAP	24	48	7
TAP	24	96	0
TAP	24	96	6
TAP	24	144	0
TAP	24	144	6
TAP	24	192	1
TAP	24	192	5
TAP	24	240	1
TAP	24	240	5
TAP	24	288	2
TAP	24	288	4
TAP	24	336	2
TAP	24	336	4
STR	25	0	3
SI_	25	0	3	96	48	1
STR	25	48	3
SI_	25	48	3	96	48	5
TAP	25	240	2
TAP	25	264	3
TAP	25	288	2
TAP	26	0	1
TAP	26	0	5
TAP	26	96	1
STR	26	96	5
SI_	26	96	5	96	96	2
TAP	26	192	1
TAP	26	288	1
TAP	27	0	1
TAP	27	0	2
TAP	27	96	1
STR	27	96	2
SI_	27	96	2	96	96	5
TAP	27	192	1
TAP	27	288	1
TAP	28	0	1
TAP	28	0	5
TAP	28	96	1
STR	28	96	5
SCL	28	96	5	96	96	2
TAP	28	192	1
TAP	28	288	1
TAP	29	0	1
TAP	29	0	2
TAP	29	96	1
STR	29	96	3
SI_	29	96	3	96	96	6
TAP	29	192	1
HLD	29	288	2	96
HLD	30	0	0	96
HLD	30	96	7	96
HLD	30	192	5	96
TAP	30	288	3
TAP	31	0	3
TAP	31	0	5
TAP	31	72	2
TAP	31	72	4
TAP	31	144	1
TAP	31	144	3
HLD	31	192	1	96
TAP	31	192	3
TAP	31	288	7
TAP	31	336	7
XTP	32	0	3
XTP	32	0	6
XTP	32	72	2
XTP	32	72	5
XHO	32	144	1	96
XTP	32	144	4
TAP	32	240	5
TAP	32	336	1
TAP	32	336	5
TAP	33	0	2
TAP	33	0	6
STR	33	48	3
SI_	33	48	3	96	48	0
STR	33	48	7
SV_	33	48	7	96	48	4
XTP	33	240	1
XTP	33	240	5
XTP	33	288	1
XTP	33	288	5
TAP	34	0	3
TAP	34	0	6
TAP	34	96	2
TAP	34	96	4
TAP	34	168	2
TAP	34	192	3
TAP	34	240	0
TAP	34	240	4
STR	34	288	0
SI_	34	288	0	96	48	4
TAP	34	288	4
XTP	35	0	0
TAP	35	0	6
TAP	35	96	3
TAP	35	96	5
TAP	35	168	5
TAP	35	192	4
TAP	35	240	3
TAP	35	240	7
TAP	35	288	3
STR	35	288	7
SI_	35	288	7	96	48	3
TAP	36	0	1
XTP	36	0	7
TAP	36	96	2
TAP	36	96	4
TAP	36	168	1
TAP	36	192	3
TAP	36	240	0
TAP	36	240	4
STR	36	288	0
SI_	36	288	0	96	48	4
TAP	36	288	4
XTP	37	0	0
TAP	37	0	6
TAP	37	96	3
TAP	37	96	5
TAP	37	192	1
TAP	37	192	4
STR	37	288	2
SI_	37	288	2	96	48	7
STR	37	288	3
SI_	37	288	3	96	48	6
XTP	38	0	2
XTP	38	0	3
STR	38	96	2
SI_	38	96	2	96	48	0
STR	38	96	3
SI_	38	96	3	96	48	7
XTP	38	192	2
XTP	38	192	3
TAP	38	288	2
TAP	38	288	3
XTP	39	0	1
XTP	39	0	7
XTP	39	72	0
XTP	39	72	6
XTP	39	144	3
XTP	39	144	5
XTP	39	192	3
XTP	39	192	5
TAP	39	288	0
TAP	39	288	7
TAP	39	336	1
TAP	39	336	6
TAP	40	0	2
STR	40	0	5
SCL	40	0	5	96	48	2
TAP	40	96	1
TAP	40	144	1
TAP	40	240	7
TAP	40	288	7
TAP	40	336	0
STR	40	336	6
SCL	40	336	6	96	48	3
TAP	41	48	1
TAP	41	96	1
STR	41	144	0
SCR	41	144	0	96	48	3
TAP	41	144	4
TAP	41	240	7
TAP	41	288	7
XTP	42	0	2
XTP	42	0	6
HLD	42	96	5	96
HLD	42	192	7	96
HLD	42	288	0	96
HLD	43	0	2	96
HLD	43	96	3	96
HLD	43	192	4	96
HLD	43	288	5	96
HLD	44	0	2	96
TAP	44	96	6
TAP	44	192	4
TAP	44	192	6
TAP	44	264	3
TAP	44	264	5
TAP	44	336	2
TAP	44	336	4
STR	45	0	2
SF_	45	0	2	96	96	6
TAP	45	0	4
XST	45	288	0
SI_	45	288	0	96	48	4
STR	46	0	6
SI_	46	0	6	96	48	2
STR	46	96	1
SI_	46	96	1	96	48	5
STR	46	192	7
SI_	46	192	7	96	48	3
TAP	46	288	0
TAP	47	0	1
STR	47	96	1
SI_	47	96	1	96	48	5
STR	47	96	7
SI_	47	96	7	96	48	3
XTP	47	192	1
XTP	47	192	7
HLD	47	288	2	96
STR	48	0	7
SLL	48	0	7	96	96	2
TAP	48	96	1
TAP	48	144	1
TAP	48	240	0
STR	48	288	0
SUR	48	288	0	96	48	4
HLD	48	288	7	96
XTP	49	0	0
TAP	49	240	3
TAP	49	240	4
TAP	49	288	3
TAP	49	288	4
STR	50	0	1
SCL	50	0	1	96	48	6
TAP	50	48	3
TAP	50	96	1
TAP	50	144	4
STR	50	192	1
SCL	50	192	1	96	48	6
TAP	50	240	3
TAP	50	288	1
TAP	50	336	4
STR	51	0	6
SCR	51	0	6	96	48	1
TAP	51	48	4
TAP	51	96	6
TAP	51	144	3
STR	51	192	6
SCR	51	192	6	96	48	1
TAP	51	240	4
TAP	51	288	6
TAP	51	336	3
STR	52	0	2
SCR	52	0	2	96	48	5
TAP	52	48	2
STR	52	96	6
SUL	52	96	6	96	48	2
TAP	52	144	6
STR	52	192	1
SCL	52	192	1	96	48	6
TAP	52	240	1
STR	52	288	5
SXL	52	288	5	96	144	3
TAP	52	336	5
TAP	53	0	2
TAP	53	48	2
TAP	53	96	1
HLD	53	144	1	96
XTP	53	240	3
XTP	53	264	4
XTP	53	288	0
XTP	53	288	5
HLD	54	0	6	72
HLD	54	72	5	72
TAP	54	144	4
TAP	54	192	4
TAP	54	288	3
TAP	54	288	5
XTP	54	336	4
XTP	54	360	5
XTP	55	0	6
STR	55	48	0
SI_	55	48	0	96	48	4
TAP	55	96	0
STR	55	144	7
SI_	55	144	7	96	48	3
XTP	55	240	0
STR	55	336	0
SI_	55	336	0	96	48	4
STR	55	336	6
SI_	55	336	6	96	48	2
TAP	56	0	0
TAP	56	0	6
STR	56	144	1
SI_	56	144	1	96	48	5
STR	56	144	7
SI_	56	144	7	96	48	3
TAP	56	192	1
TAP	56	192	7
TAP	56	336	2
TAP	56	336	4
TAP	57	0	2
TAP	57	0	4
TAP	57	48	1
TAP	57	48	5
TAP	57	96	1
TAP	57	96	5
TTP	57	144	0	B	0	M1
TTP	57	144	0	C	1	M1
TTP	57	144	2	B	0	M1
TTP	57	144	4	B	0	M1
TTP	57	144	6	B	0	M1
XTP	57	240	7
XTP	57	288	7
STR	58	0	6
SCL	58	0	6	96	48	3
TAP	58	48	1
TAP	58	96	6
TAP	58	144	0
STR	58	192	5
SCL	58	192	5	96	48	2
TAP	58	240	1
TAP	58	288	5
TAP	58	336	0
STR	59	0	1
SCR	59	0	1	96	48	4
TAP	59	48	6
TAP	59	96	1
TAP	59	144	7
STR	59	192	2
SCR	59	192	2	96	48	5
TAP	59	240	6
TAP	59	288	2
TAP	59	336	7
STR	60	0	6
SCR	60	0	6	96	48	1
TAP	60	48	6
STR	60	96	2
SUL	60	96	2	96	48	6
TAP	60	144	2
STR	60	192	5
SCL	60	192	5	96	48	2
TAP	60	240	5
STR	60	288	1
SXL	60	288	1	96	144	7
TAP	60	336	1
TAP	61	0	6
TAP	61	48	6
TAP	61	96	5
HLD	61	144	5	96
XTP	61	240	4
XTP	61	264	3
XTP	61	288	2
XTP	61	288	6
HLD	62	0	1	72
HLD	62	72	2	72
TAP	62	144	3
TAP	62	192	3
TAP	62	288	1
TAP	62	288	7
XTP	62	336	4
XTP	62	360	3
XTP	63	0	2
STR	63	48	4
SI_	63	48	4	96	48	7
TAP	63	96	4
STR	63	144	3
SCL	63	144	3	96	48	0
XTP	63	240	4
TAP	63	336	5
TAP	64	0	3
TAP	64	0	6
TAP	64	48	3
TAP	64	48	6
TAP	64	96	2
TAP	64	144	2
TAP	64	192	1
TAP	64	192	4
TAP	64	240	1
TAP	64	240	4
TAP	64	288	5
TAP	64	336	5
TAP	65	0	3
TAP	65	24	4
TAP	65	48	3
TAP	65	72	4
TAP	65	96	3
TAP	65	120	4
TAP	65	144	3
TAP	65	168	4
TAP	65	192	2
TAP	65	216	5
TAP	65	240	2
TAP	65	264	5
TAP	65	288	3
STR	65	312	4
SCR	65	312	4	96	120	2
SUR	65	312	4	96	120	2
TAP	65	336	3
HLD	66	288	7	96
STR	67	0	0
SV_	67	0	0	96	48	3
SV_	67	0	0	96	48	5
XTP	67	96	0
STR	67	192	4
SI_	67	192	4	96	48	1
SI_	67	192	4	96	48	7
XTP	67	288	4
STR	68	0	0
SCR	68	0	0	96	96	3
STR	68	96	3
SI_	68	96	3	96	96	7
STR	68	192	7
SCL	68	192	7	96	96	4
STR	68	288	4
SI_	68	288	4	96	96	0
STR	69	0	0
SCR	69	0	0	96	96	3
TAP	69	96	4
TAP	69	192	5
TAP	69	240	4
TAP	69	288	3
TAP	69	288	5
STR	70	0	2
SI_	70	0	2	96	48	6
STR	70	96	5
SI_	70	96	5	96	48	0
STR	70	192	2
SCR	70	192	2	96	48	5
STR	70	288	7
SI_	70	288	7	96	48	3
STR	71	0	0
SCL	71	0	0	96	48	5
SCR	71	0	0	96	48	3
XTP	71	96	0
STR	71	192	4
SI_	71	192	4	96	48	1
SI_	71	192	4	96	48	7
XTP	71	288	4
TAP	72	0	2
TAP	72	0	6
TAP	72	48	2
STR	72	48	6
SUL	72	48	6	96	48	1
HLD	72	144	0	96
TAP	72	240	7
TAP	72	288	7
TAP	72	336	2
TAP	72	336	6
STR	73	0	3
SI_	73	0	3	96	48	1
STR	73	48	3
SI_	73	48	3	96	48	5
TAP	73	240	3
TAP	73	264	4
TAP	73	288	3
TAP	73	312	4
TAP	73	336	3
STR	74	0	1
SCR	74	0	1	96	48	4
TAP	74	96	5
STR	74	144	5
SCR	74	144	5	96	48	0
TAP	74	240	2
STR	74	288	2
SI_	74	288	2	96	48	5
STR	75	0	7
SV_	75	0	7	96	48	2
SV_	75	0	7	96	48	4
XTP	75	96	7
STR	75	192	3
SI_	75	192	3	96	48	0
SI_	75	192	3	96	48	6
XTP	75	288	3
XTP	76	0	3
STR	76	0	7
SI_	76	0	7	96	48	3
XTP	76	96	0
XTP	76	96	7
STR	76	192	0
SI_	76	192	0	96	48	4
XTP	76	192	4
XTP	76	288	0
XTP	76	288	7
STR	77	0	3
SI_	77	0	3	96	48	1
STR	77	0	7
SI_	77	0	7	96	48	3
XTP	77	96	3
XTP	77	96	7
STR	77	192	0
SI_	77	192	0	96	48	4
STR	77	192	4
SI_	77	192	4	96	48	6
XTP	77	288	0
XTP	77	288	4
TAP	78	0	7
HLD	78	48	7	96
TAP	78	144	4
TAP	78	192	4
TAP	78	240	3
TAP	78	288	3
TAP	78	336	5
HLD	79	0	1	96
HLD	79	96	3	96
HLD	79	192	4	96
TAP	79	288	6
STR	80	0	6
SI_	80	0	6	96	48	3
STR	80	0	7
SI_	80	0	7	96	48	2
XTP	80	48	0
XTP	80	48	5
STR	80	192	6
SI_	80	192	6	96	48	2
STR	80	192	7
SI_	80	192	7	96	48	3
XTP	80	240	0
XTP	80	240	5
STR	81	0	6
SI_	81	0	6	96	48	4
STR	81	0	7
SI_	81	0	7	96	48	3
XTP	81	48	0
XTP	81	48	5
TAP	81	192	0
TAP	81	216	1
TAP	81	240	2
TAP	81	264	3
TAP	81	288	4
TAP	81	312	5
TAP	81	336	6
TAP	81	360	7
THO	82	0	0	768	C	0	M1
TTP	83	0	7	E	0	M1
TTP	83	96	0	E	0	M1
TTP	83	192	1	E	0	M1
TTP	83	288	2	E	0	M1
TTP	84	0	3	E	0	M1
TTP	84	96	4	E	0	M1
TTP	84	192	5	E	0	M1
TTP	84	288	6	E	0	M1
TTP	85	0	0	C	0	M1
TTP	85	0	7	E	0	M1
TTP	85	96	0	E	0	M1
TTP	85	192	1	E	0	M1
TTP	85	288	2	E	0	M1
TTP	86	0	0	C	0	M1
TTP	86	0	3	E	0	M1
TTP	86	96	4	E	0	M1
TTP	86	192	5	E	0	M1
TTP	86	288	6	E	0	M1
TTP	87	0	0	C	0	M1
TTP	87	0	7	E	0	M1
TTP	87	96	0	E	0	M1
TTP	87	192	1	E	0	M1
TTP	87	288	2	E	0	M1
TTP	87	288	6	E	0	M1
TAP	88	0	3
TAP	88	0	4
TAP	88	96	2
TAP	88	96	5
TAP	88	192	5
TAP	88	240	4
TAP	88	288	3
TAP	88	336	2
HLD	89	0	2	72
HLD	89	72	3	72
TAP	89	144	4
TAP	89	192	4
XST	89	240	4
SF_	89	240	4	96	48	0
XTP	89	288	3
XTP	89	288	5
XTP	89	336	4

T_REC_TAP	307
T_REC_BRK	1
T_REC_XTP	84
T_REC_HLD	31
T_REC_XHO	1
T_REC_STR	123
T_REC_BST	0
T_REC_XST	2
T_REC_TTP	29
T_REC_THO	1
T_REC_SLD	140
T_REC_ALL	719
T_NUM_TAP	545
T_NUM_BRK	1
T_NUM_HLD	33
T_NUM_SLD	140
T_NUM_ALL	719
T_JUDGE_TAP	546
T_JUDGE_HLD	84
T_JUDGE_SLD	140
T_JUDGE_ALL	770
TTM_EACHPAIRS	114
TTM_SCR_TAP	272500
TTM_SCR_BRK	2600
TTM_SCR_HLD	33000
TTM_SCR_SLD	210000
TTM_SCR_ALL	518100
TTM_SCR_S	502500
TTM_SCR_SS	518000
TTM_RAT_ACV	10001

