VERSION	0.00.00	1.03.00
FES_MODE	0
BPM_DEF	192.000	192.000	192.000	192.000
MET_DEF	4	4
RESOLUTION	384
CLK_DEF	384
COMPATIBLE_CODE	MA2

BPM	0	0	192.000
MET	0	0	4	4

HLD	2	0	2	384
HLD	3	0	3	384
HLD	4	0	4	384
TAP	5	0	5
TAP	5	192	4
TAP	5	192	5
HLD	6	0	4	96
HLD	6	0	5	96
HLD	6	192	3	96
HLD	6	192	4	96
HLD	7	0	2	96
HLD	7	0	3	96
HLD	7	192	3	96
HLD	7	192	4	96
TAP	8	0	5
TAP	8	96	4
TAP	8	96	5
TAP	8	192	2
TAP	8	288	2
TAP	8	288	3
XTP	9	0	4
XTP	9	96	4
XTP	9	192	3
XTP	9	192	5
TAP	10	0	1
TAP	10	96	2
TAP	10	192	4
TAP	10	288	3
TAP	10	288	5
TAP	11	0	6
TAP	11	96	5
TAP	11	192	3
TAP	11	288	2
TAP	11	288	4
TAP	12	0	1
TAP	12	96	2
TAP	12	192	4
TAP	12	288	3
TAP	12	288	5
TAP	13	0	6
TAP	13	96	6
TAP	13	192	4
TAP	13	192	6
TAP	14	0	5
TAP	14	96	4
TAP	14	96	5
TAP	14	192	2
TAP	14	288	2
TAP	14	288	3
TAP	15	0	5
TAP	15	96	4
TAP	15	96	5
TAP	15	192	2
TAP	15	288	1
TAP	15	288	3
HLD	16	0	1	288
TAP	16	96	0
TAP	16	192	0
TAP	16	288	0
XTP	17	0	7
XTP	17	48	7
XTP	17	144	0
XTP	17	144	6
TAP	18	0	1
TAP	18	96	2
TAP	18	192	4
TAP	18	288	3
TAP	18	288	5
TAP	19	0	6
TAP	19	96	5
TAP	19	192	3
TAP	19	288	2
TAP	19	288	4
TAP	20	0	1
TAP	20	96	0
TAP	20	192	6
TAP	20	288	5
TAP	20	288	7
TAP	21	0	0
TAP	21	96	1
TAP	21	192	2
TAP	21	192	7
HLD	22	0	1	192
TAP	22	192	3
TAP	22	288	4
HLD	23	0	5	192
TAP	23	96	4
TAP	23	192	4
TAP	23	288	6
STR	24	0	7
SI_	24	0	7	96	96	4
STR	24	192	0
SI_	24	192	0	96	96	3
TAP	25	0	4
TAP	25	96	4
XTP	25	192	3
XTP	25	192	5
HLD	26	0	2	384
TAP	26	96	3
TAP	26	192	3
TAP	26	288	4
HLD	27	0	5	384
TAP	27	96	3
TAP	27	192	4
TAP	27	288	4
TAP	28	0	4
TAP	28	96	6
TAP	28	192	4
TAP	28	192	5
TAP	28	288	3
HLD	29	0	4	96
HLD	29	0	5	96
TAP	29	192	3
TAP	29	192	6
HLD	30	0	5	384
TAP	30	96	4
TAP	30	192	4
TAP	30	288	3
HLD	31	0	2	288
TAP	31	96	4
TAP	31	192	3
TAP	31	288	3
TAP	32	0	2
TAP	32	0	3
TAP	32	96	1
TAP	32	192	0
STR	32	288	7
SCL	32	288	7	96	144	4
XTP	33	288	2
XTP	33	288	3
HLD	34	0	1	96
HLD	34	96	2	96
TAP	34	192	3
TAP	34	288	3
TAP	34	288	4
HLD	35	0	6	96
HLD	35	96	5	96
TAP	35	192	4
TAP	35	288	3
TAP	35	288	4
HLD	36	0	2	96
HLD	36	96	1	96
TAP	36	192	0
TAP	36	288	0
TAP	36	288	1
HLD	37	0	2	96
HLD	37	0	7	96
HLD	37	192	0	96
HLD	37	192	5	96
STR	38	0	6
SI_	38	0	6	96	144	3
TAP	38	192	2
TAP	38	288	2
STR	39	0	1
SI_	39	0	1	96	144	4
TAP	39	192	5
TAP	39	288	5
TAP	40	0	4
TAP	40	0	6
TAP	40	96	3
TAP	40	144	3
TAP	40	240	2
TAP	40	240	4
TAP	40	288	2
TAP	40	288	4
TAP	41	0	1
TAP	41	96	0
BRK	41	192	2
BRK	41	192	7
TTP	42	0	1	E	0	M1
TTP	42	96	0	C	0	M1
TTP	42	192	5	E	0	M1
TTP	43	0	7	E	0	M1
TTP	43	96	0	C	0	M1
TTP	43	192	3	E	0	M1
TTP	44	0	4	E	0	M1
TTP	44	96	0	C	0	M1
TTP	44	192	0	E	0	M1
THO	45	0	0	192	C	0	M1
TTP	45	0	2	B	0	M1
TTP	45	0	5	B	0	M1
STR	46	0	0
SI_	46	0	0	96	96	4
STR	46	192	7
SI_	46	192	7	96	96	3
STR	47	0	0
SI_	47	0	0	96	96	4
TAP	47	192	7
TAP	47	288	7
HLD	48	0	4	96
HLD	48	0	6	96
HLD	48	144	3	96
HLD	48	144	5	96
TAP	48	288	2
TAP	48	288	4
BRK	49	0	1
BRK	49	0	5
XTP	49	240	4
XTP	49	288	4
TAP	50	0	2
TAP	50	0	3
TAP	50	96	4
TAP	50	96	5
XTP	50	192	6
XTP	50	192	7
XTP	50	288	6
XTP	50	288	7
TAP	51	0	0
TAP	51	0	1
TAP	51	96	2
TAP	51	96	3
XTP	51	192	4
XTP	51	192	5
XTP	51	288	4
XTP	51	288	5
HLD	52	0	6	96
HLD	52	96	4	96
HLD	52	192	3	96
TAP	52	288	1
TAP	53	0	0
TAP	53	0	1
TAP	53	96	2
TAP	53	96	7
BRK	53	144	2
BRK	53	144	7
XST	53	288	1
SI_	53	288	1	96	96	6
STR	54	96	5
SI_	54	96	5	96	96	2
STR	54	288	1
SI_	54	288	1	96	96	6
STR	55	96	5
SI_	55	96	5	96	96	2
TAP	55	288	0
HLD	56	0	0	96
HLD	56	96	1	96
HLD	56	192	2	96
STR	56	288	3
SCL	56	288	3	96	192	5
XTP	57	288	0
XTP	57	288	5
TAP	58	0	6
TAP	58	0	7
TAP	58	96	4
TAP	58	96	5
XTP	58	192	1
XTP	58	192	3
XTP	58	288	1
XTP	58	288	3
TAP	59	0	0
TAP	59	0	7
TAP	59	96	4
TAP	59	96	6
XTP	59	192	2
XTP	59	192	3
XTP	59	288	2
XTP	59	288	3
HLD	60	0	1	96
HLD	60	96	3	96
HLD	60	192	4	96
TAP	60	288	6
TAP	61	0	6
TAP	61	0	7
TAP	61	96	0
TAP	61	96	5
TAP	61	144	0
TAP	61	144	5
STR	61	288	7
SCL	61	288	7	96	96	4
STR	62	96	0
SCR	62	96	0	96	96	3
HLD	62	288	5	96
TAP	63	0	4
HLD	63	96	2	96
TAP	63	96	6
TAP	63	192	3
TAP	63	288	3
TAP	63	288	4
TAP	64	0	4
TAP	64	0	6
TAP	64	48	4
TAP	64	48	6
TAP	64	96	4
TAP	64	96	6
TAP	64	192	1
TAP	64	192	3
TAP	64	240	1
TAP	64	240	3
TAP	64	288	1
TAP	64	288	3
BRK	65	0	2
BRK	65	0	3
BRK	65	96	0
BRK	65	96	1
BRK	65	192	6
BRK	65	192	7
BRK	65	288	4
BRK	65	288	5
BRK	66	0	1
BRK	66	0	6
BRK	66	48	1
BRK	66	48	6
TAP	66	240	3
TAP	66	240	4
TAP	66	288	3
TAP	66	288	4
TAP	67	0	5
TAP	67	96	4
TAP	67	96	6
TAP	67	192	7
TAP	67	288	4
TAP	67	288	6
STR	68	0	5
SI_	68	0	5	96	96	0
STR	68	192	1
SI_	68	192	1	96	96	4
HLD	69	0	6	192
TAP	69	192	7
TTP	70	0	0	E	0	M1
TTP	70	96	0	C	0	M1
TTP	70	192	3	E	0	M1
TTP	70	288	2	E	0	M1
TTP	71	0	1	E	0	M1
TTP	71	96	0	C	0	M1
TTP	71	192	4	B	0	M1
TTP	71	192	5	B	0	M1
TAP	72	0	6
TAP	72	48	6
TAP	72	96	7
TAP	72	192	1
TAP	72	240	1
TAP	72	288	0
TAP	73	0	0
TAP	73	0	7
XTP	73	96	1
XTP	73	96	6
XTP	73	144	1
XTP	73	144	6
TAP	73	288	3
TAP	73	288	4
HLD	74	0	1	144
TAP	74	96	3
TAP	74	144	3
TAP	74	240	0
TAP	74	240	4
TAP	74	288	0
TAP	74	288	4
TAP	75	0	1
TAP	75	0	3
TAP	75	96	2
TAP	75	192	3
TAP	75	192	4
TAP	75	288	5
STR	76	0	6
SI_	76	0	6	96	96	3
STR	76	192	1
SI_	76	192	1	96	96	5
HLD	77	0	6	192
TAP	77	192	7
STR	77	288	4
SUR	77	288	4	96	96	1
STR	77	288	5
SCR	77	288	5	96	96	0
XTP	78	192	2
XTP	78	192	3
STR	78	288	2
SCL	78	288	2	96	96	7
STR	78	288	3
SUL	78	288	3	96	96	6
XTP	79	192	4
XTP	79	192	5
TAP	79	288	4
TAP	79	288	5
TAP	80	0	3
TAP	80	0	6
TAP	80	48	3
TAP	80	48	6
TAP	80	96	3
TAP	80	96	6
TAP	80	192	1
TAP	80	192	4
TAP	80	240	1
TAP	80	240	4
TAP	80	288	1
TAP	80	288	4
BRK	81	0	2
BRK	81	0	3
BRK	81	96	0
BRK	81	96	1
BRK	81	192	6
BRK	81	192	7
BRK	81	288	4
BRK	81	288	5
BRK	82	0	3
BRK	82	0	6
XHO	82	48	3	336
BRK	82	48	6
HLD	83	0	5	384
HLD	84	0	4	384
HLD	85	0	3	192
TAP	85	192	2
TAP	85	288	2
TAP	85	288	3
TAP	86	0	2
TAP	86	96	3
TAP	86	192	2
TAP	86	192	4
TAP	86	288	5
TAP	87	0	2
TAP	87	96	3
TAP	87	192	2
TAP	87	192	4
TAP	87	288	5
TAP	88	0	4
TAP	88	0	6
TAP	88	96	3
TAP	88	96	5
TAP	88	192	2
TAP	88	192	4
TAP	88	288	1
TAP	88	288	3
TAP	89	0	2
TAP	89	0	3
TAP	89	96	4
TAP	89	96	5
TAP	89	192	1
TAP	89	192	6
TAP	89	240	1
TAP	89	240	6
TAP	89	288	1
TAP	89	288	6
BRK	89	336	1
BRK	89	336	6

T_REC_TAP	244
T_REC_BRK	31
T_REC_XTP	40
T_REC_HLD	51
T_REC_XHO	1
T_REC_STR	22
T_REC_BST	0
T_REC_XST	1
T_REC_TTP	19
T_REC_THO	1
T_REC_SLD	23
T_REC_ALL	433
T_NUM_TAP	326
T_NUM_BRK	31
T_NUM_HLD	53
T_NUM_SLD	23
T_NUM_ALL	433
T_JUDGE_TAP	357
T_JUDGE_HLD	180
T_JUDGE_SLD	23
T_JUDGE_ALL	560
TTM_EACHPAIRS	119
TTM_SCR_TAP	163000
TTM_SCR_BRK	80600
TTM_SCR_HLD	53000
TTM_SCR_SLD	34500
TTM_SCR_ALL	331100
TTM_SCR_S	318200
TTM_SCR_SS	328000
TTM_RAT_ACV	10094

