VERSION	0.00.00	1.03.00
FES_MODE	0
BPM_DEF	192.000	192.000	192.000	192.000
MET_DEF	4	4
RESOLUTION	384
CLK_DEF	384
COMPATIBLE_CODE	MA2

BPM	0	0	192.000
MET	0	0	4	4

XHO	2	0	2	384
HLD	3	0	3	384
HLD	4	0	4	384
TAP	5	0	5
HLD	6	0	6	192
HLD	6	0	7	192
HLD	7	0	0	192
HLD	7	0	1	192
TAP	8	0	6
TAP	8	96	6
TAP	8	192	7
TAP	8	288	7
TAP	9	0	0
TAP	9	96	0
TAP	9	192	1
TAP	9	192	7
TAP	10	0	6
TAP	10	96	6
TAP	10	192	6
TAP	10	192	7
TAP	11	0	1
TAP	11	96	1
TAP	11	192	0
TAP	11	192	1
TAP	12	0	6
TAP	12	96	6
TAP	12	192	7
TAP	12	288	7
TAP	13	0	0
TAP	13	96	0
TAP	13	192	1
TAP	13	192	7
TAP	14	0	2
TAP	14	96	2
TAP	14	192	2
TAP	14	192	3
TAP	15	0	5
TAP	15	96	5
TAP	15	192	4
TAP	15	192	5
TAP	16	0	2
TAP	16	96	2
TAP	16	192	3
TAP	16	288	3
TAP	17	0	4
TAP	17	96	3
TAP	17	192	2
TAP	17	192	5
TAP	18	0	1
TAP	18	96	1
TAP	18	192	0
TAP	18	192	1
TAP	19	0	6
TAP	19	96	6
TAP	19	192	6
TAP	19	192	7
TAP	20	0	1
TAP	20	96	1
TAP	20	192	0
TAP	20	288	0
TAP	21	0	7
TAP	21	96	7
TAP	21	192	0
TAP	21	192	6
BST	22	0	1
SI_	22	0	1	96	192	4
STR	23	0	5
SI_	23	0	5	96	192	0
TAP	24	0	1
TAP	24	96	1
TAP	24	192	0
TAP	24	288	0
TAP	25	0	0
TAP	25	0	7
TAP	25	96	0
TAP	25	96	7
XTP	25	192	1
XTP	25	192	6
HLD	26	0	5	192
TAP	26	192	4
HLD	27	0	2	192
TAP	27	192	3
HLD	28	0	5	192
TAP	28	192	4
HLD	29	0	2	96
HLD	29	0	3	96
TAP	29	192	2
TAP	29	192	3
HLD	30	0	1	192
TAP	30	192	0
HLD	31	0	6	192
TAP	31	192	7
HLD	32	0	1	192
TAP	32	192	0
HLD	33	0	6	96
HLD	33	0	7	96
TAP	33	192	6
TAP	33	192	7
TAP	34	0	1
TAP	34	96	1
TAP	34	192	0
TAP	35	0	6
TAP	35	96	6
TAP	35	192	7
TAP	36	0	1
TAP	36	96	1
TAP	36	192	0
TAP	37	0	7
TAP	37	96	7
TAP	37	192	0
TAP	37	192	6
XTP	38	0	5
TAP	38	96	5
TAP	38	192	4
TAP	39	0	2
TAP	39	96	2
TAP	39	192	3
TAP	40	0	4
TAP	40	96	4
TAP	40	192	3
TAP	40	288	3
HLD	41	0	3	192
HLD	41	0	4	192
TTP	42	0	2	B	0	L1
TTP	42	0	3	B	0	L1
TTP	43	0	0	B	0	L1
TTP	43	0	1	B	0	L1
TTP	44	0	6	B	0	L1
TTP	44	0	7	B	0	L1
TTP	45	0	4	B	0	L1
TTP	45	0	5	B	0	L1
TTP	46	0	2	B	0	L1
TTP	46	192	1	B	0	L1
TTP	47	0	0	B	0	L1
TTP	47	192	7	B	0	L1
TTP	48	0	6	B	0	L1
TTP	48	192	5	B	0	L1
TTP	49	0	0	C	0	L1
TAP	50	0	6
TAP	50	0	7
TAP	50	96	6
TAP	50	96	7
TAP	50	192	6
TAP	50	192	7
TAP	51	0	0
TAP	51	0	1
TAP	51	96	0
TAP	51	96	1
TAP	51	192	0
TAP	51	192	1
TAP	52	0	2
TAP	52	96	2
TAP	52	96	3
TAP	52	192	5
TAP	52	288	4
TAP	52	288	5
TAP	53	0	2
TAP	53	96	2
TAP	53	192	1
TAP	53	192	3
STR	54	0	0
SI_	54	0	0	96	192	5
STR	54	0	1
SI_	54	0	1	96	192	4
STR	55	0	6
SI_	55	0	6	96	192	3
STR	55	0	7
SI_	55	0	7	96	192	2
TAP	56	0	1
TAP	56	96	1
TAP	56	192	0
TAP	56	288	0
TAP	57	0	0
TAP	57	0	7
TAP	57	96	1
TAP	57	96	6
XTP	57	192	2
XTP	57	192	5
TAP	58	0	0
TAP	58	0	1
TAP	58	96	0
TAP	58	96	1
TAP	58	192	2
TAP	58	192	7
TAP	59	0	6
TAP	59	0	7
TAP	59	96	6
TAP	59	96	7
TAP	59	192	0
TAP	59	192	5
TAP	60	0	5
TAP	60	96	4
TAP	60	96	5
TAP	60	192	2
TAP	60	288	2
TAP	60	288	3
TAP	61	0	4
TAP	61	96	3
TAP	61	96	4
TAP	61	192	2
TAP	61	192	5
STR	62	0	6
SCL	62	0	6	96	192	3
STR	62	0	7
SCR	62	0	7	96	192	2
STR	63	0	0
SCL	63	0	0	96	192	5
STR	63	0	1
SCR	63	0	1	96	192	4
TAP	64	0	6
TAP	64	96	6
TAP	64	192	7
TAP	64	288	7
TAP	65	0	0
TAP	65	96	0
TAP	65	192	1
TAP	65	192	6
TAP	66	0	5
TAP	66	96	5
TAP	66	192	4
TAP	66	192	5
TAP	67	0	2
TAP	67	96	2
TAP	67	192	2
TAP	67	192	3
TAP	68	0	5
TAP	68	96	5
TAP	68	192	4
TAP	68	288	4
TAP	69	0	3
TAP	69	96	3
TAP	69	192	2
TAP	69	192	4
TAP	70	0	1
TAP	70	96	1
TAP	70	192	0
TAP	70	192	1
TAP	71	0	6
TAP	71	96	6
TAP	71	192	6
TAP	71	192	7
TAP	72	0	1
TAP	72	96	1
TAP	72	192	0
TAP	72	288	0
TAP	73	0	7
TAP	73	96	0
TAP	73	192	1
TAP	73	192	6
TAP	74	0	2
TAP	74	96	2
TAP	74	192	2
TAP	74	192	3
TAP	75	0	5
TAP	75	96	5
TAP	75	192	4
TAP	75	192	5
TAP	76	0	2
TAP	76	96	2
TAP	76	192	3
TAP	76	288	3
TAP	77	0	4
TAP	77	96	4
TAP	77	192	3
TAP	77	192	5
BST	78	0	2
SI_	78	0	2	96	192	7
STR	79	0	6
SI_	79	0	6	96	192	3
TAP	80	0	2
TAP	80	96	2
TAP	80	192	3
TAP	80	288	3
TAP	81	0	4
TAP	81	96	5
TAP	81	192	6
TAP	81	288	7
BST	82	0	0
SCR	82	0	0	96	384	5
STR	84	0	7
SCL	84	0	7	96	384	2
STR	86	0	1
SSL	86	0	1	96	384	5
HLD	88	0	6	192
TAP	88	192	7
TAP	89	0	6
TAP	89	0	7
TAP	89	192	0
TAP	89	192	7
XTP	89	288	0
XTP	89	288	7

T_REC_TAP	219
T_REC_BRK	0
T_REC_XTP	7
T_REC_HLD	19
T_REC_XHO	1
T_REC_STR	12
T_REC_BST	3
T_REC_XST	0
T_REC_TTP	15
T_REC_THO	0
T_REC_SLD	15
T_REC_ALL	291
T_NUM_TAP	253
T_NUM_BRK	3
T_NUM_HLD	20
T_NUM_SLD	15
T_NUM_ALL	291
T_JUDGE_TAP	256
T_JUDGE_HLD	84
T_JUDGE_SLD	15
T_JUDGE_ALL	355
TTM_EACHPAIRS	60
TTM_SCR_TAP	126500
TTM_SCR_BRK	7800
TTM_SCR_HLD	20000
TTM_SCR_SLD	22500
TTM_SCR_ALL	176800
TTM_SCR_S	171250
TTM_SCR_SS	176500
TTM_RAT_ACV	10016

